#VERSION:0.83;
#TITLE:Aegleseeker;
#SUBTITLE:;
#ARTIST:Silentroom vs Frums;
#TITLETRANSLIT:;
#SUBTITLETRANSLIT:;
#ARTISTTRANSLIT:;
#GENRE:;
#CREDIT:;
#MUSIC:Aegleseeker.ogg;
#BANNER:Aegleseeker-bn.png;
#BACKGROUND:Aegleseeker-bg.png;
#CDTITLE:;
#SAMPLESTART:97.129;
#SAMPLELENGTH:15.000;
#SELECTABLE:YES;
#OFFSET:1.333;
#BPMS:0.000=117.000
,36.000=234.000
,284.000=117.000
,328.000=234.000
,448.000=117.000
,456.000=234.000
,516.000=117.000
,548.000=234.000
;
#STOPS:;
#WARPS:312.000=16.000,
516.000=32.000
;
#SPEEDS:0.000=1.000=0.000=0,
36.000=4.000=12.000=0,
52.000=16.000=12.000=0,
328.000=32.000=8.000=0
;
#SCROLLS:0.000=1.000,
36.000=0.250,
52.000=0.063,
328.000=0.031
;
#LABELS:;
#ATTACKS:TIME=94.564:LEN=1.538:MODS=*1.95 100% stealth :TIME=96.102:LEN=1.016:MODS=*0.98 no stealth :TIME=144.308:LEN=1.016:MODS=*2.95 300% bumpy
;
#BGCHANGES:;
#FGCHANGES:;

//--------------- dance-single - ----------------
#NOTEDATA:;
#STEPSTYPE:dance-single;
#DESCRIPTION:;
#DIFFICULTY:Medium;
#METER:15;
#RADARVALUES:0,0,0,0,0;
#CREDIT:Talkion;
#NOTES:
0000
0000
0000
0000
,
0000
0000
0000
0000
,
0000
0000
0000
0000
,
0000
0000
0000
0000
,
0000
0000
0000
0000
,
0000
0000
0000
0000
,
0000
0000
0000
0000
,
0000
0000
0000
0000
,
0000
0000
0000
0000
,
2001
0000
0000
0000
,
0000
0000
0000
0000
,
0000
0000
0000
0000
,
3100
0010
0100
0010
0100
0010
0001
0000
,
1002
0000
0000
0000
,
0000
0000
0000
0000
,
0000
0000
0000
0000
,
0103
0000
0010
0000
0100
0000
0000
0100
0000
0000
0100
0000
0001
0000
0000
0000
,
1000
0100
0010
0001
0100
0001
1000
0000
,
0001
0100
0010
1000
0100
1000
0001
0000
,
1000
0100
0010
0001
0100
0001
1000
0000
,
0001
0100
0010
0001
0010
0100
0002
0000
,
1003
0100
0000
1000
0100
1000
0001
0000
,
1000
0010
0000
1000
0010
1000
0001
0000
,
1000
0100
0000
1000
0100
0010
0001
0000
,
1000
0001
0100
1000
0000
1200
0000
0000
,
0310
1000
0001
1000
0100
0010
0100
0010
,
0001
1000
0100
1000
0001
0100
0001
0100
,
0010
1000
0001
1000
0100
0010
0100
0010
,
0001
1000
0010
0000
0110
0000
0110
0000
,
0100
0001
1000
0001
0010
0100
0010
0100
,
1000
0001
0010
0001
1000
0010
1000
0010
,
0100
0001
1000
0001
0010
0100
0010
0100
,
1000
0000
0001
0000
0010
0000
0001
0000
0100
0000
0000
0100
0000
0000
0100
0000
,
0001
1000
0100
1000
0010
0100
0100
0000
,
0001
1000
0010
1000
0100
0010
0010
0000
,
0001
1000
0100
1000
0010
0100
0100
0000
,
0001
1000
0100
0001
0100
0010
0010
0000
,
0001
0010
0000
0001
0010
0100
0100
0000
,
1000
0010
0000
1000
0010
0100
0100
0000
,
0001
0010
0000
0001
0010
0100
0100
0000
,
0001
0100
1000
0000
0000
0000
0000
0000
,
1100
2000
3002
0203
,
0310
0000
0100
0000
2000
0000
0000
0000
0000
0000
0000
0000
,
3001
0000
0000
0000
0010
0000
0000
0000
2000
0000
0000
0000
0000
0000
0000
3200
0000
0000
0000
0000
0000
0320
0000
0000
,
0000
0031
1000
0002
0000
0000
0103
0000
,
0020
0000
0000
0000
0000
0000
0000
0000
0000
1030
0000
0000
0001
0000
0000
0000
0010
0000
0000
0000
0010
0000
0000
0000
,
0100
0000
0010
0000
0010
0000
0001
0000
1000
0000
0010
0100
,
0001
1000
0100
0020
0000
0032
0000
2003
,
0000
3010
0100
0002
0000
0000
2003
0000
,
3100
0010
0100
0020
0000
0000
0100
0000
,
0031
0000
0000
0000
1000
0000
0000
0000
0020
0000
0000
0000
0000
0000
0000
0130
0000
0000
1000
0000
0000
0002
0000
0000
,
0000
0023
0000
2030
0000
3001
0001
0020
,
0000
0230
0000
2300
0000
0000
0000
0000
,
3001
0200
0320
2030
,
3200
0320
0230
0302
,
2003
0000
0000
3010
0100
1000
0001
0200
,
0000
0000
0000
0310
0000
0000
0100
0000
0000
0001
0000
0000
1000
0000
0000
0000
1000
0000
0000
0000
0001
0000
0010
0000
,
0100
1000
0001
0000
1000
0001
0010
0001
,
1000
0000
0010
0000
0100
0000
0000
0000
0001
0000
0000
0100
0000
0000
0001
0000
,
1000
0100
0010
0000
0001
1000
0100
1000
,
0001
0000
0101
0000
0100
0100
0010
0000
,
1000
0010
0100
0000
0001
1000
0010
1000
,
0001
0010
0100
0000
1100
0000
1000
0001
,
0010
0001
1000
0000
0001
0100
0010
1000
,
0100
0000
1000
0001
0010
0100
1000
0000
,
0001
0100
0010
1000
0100
0000
1000
0100
,
0010
0100
0001
0000
1000
0010
0100
0010
,
0001
0000
1000
0010
0100
0010
0001
0000
,
1000
0000
0100
0000
0010
0000
0100
0000
0001
0000
0000
0000
1000
0000
0000
1000
,
0000
0001
0010
0100
1000
0010
0100
0001
,
0010
0100
1000
0010
0100
0001
0010
0100
,
2000
0000
0000
0010
0000
0000
3100
0000
0002
0000
0000
0010
0000
0000
0103
0000
,
2000
0000
0000
0010
0000
0000
3001
0000
0000
0010
0000
0000
0010
0000
0100
0000
,
2000
0000
0000
0001
0000
0000
3010
0000
0002
0000
0000
1000
0000
0000
0013
0000
,
2000
3200
0320
0032
,
2003
0000
0000
0100
0000
0000
3010
0000
0002
0000
0000
0100
0000
0000
0013
0000
,
2000
0000
0000
0100
0000
0000
3001
0000
0000
0100
0000
0000
0100
0000
0010
0000
,
2000
0000
0000
0100
0000
0000
3000
0000
0002
0000
0000
0100
0000
0000
0003
0000
,
1000
0001
0010
0200
0000
0300
0101
0000
,
1000
0001
0010
0100
0000
0100
0001
0000
,
1000
0001
0100
0020
0000
0030
0011
0000
,
0001
0000
0000
0000
,
0000
0000
0000
0000
,
0000
0000
0000
0000
,
1000
0001
0010
0200
0000
0300
0101
0000
,
1000
0001
0010
0100
0000
0100
0001
0000
,
1000
0001
0100
0020
0000
0030
0011
0000
,
0001
1000
0100
0010
0001
1000
0020
0000
,
0130
0001
1000
0200
0000
0300
0101
0000
,
0100
0001
1000
0100
0000
0100
0001
0000
,
2001
0000
0000
0010
0000
0000
3001
0000
,
1000
0010
1000
0010
0000
0100
0001
0100
,
0001
1000
0100
0020
0000
0030
1010
0000
,
0001
1000
0100
0010
0000
0010
1000
0000
,
0001
1000
0010
0200
0000
0300
1100
0000
,
1000
0001
0010
0100
1000
0001
0200
0000
,
0310
1000
0001
0020
0000
0030
1010
0000
,
0010
1000
0001
0010
0000
0010
1000
0000
,
1002
0000
0000
0103
0010
0100
0010
1000
,
0000
0001
1000
0001
0010
0001
1000
0010
,
0002
0000
0000
2003
0000
0000
0000
0000
,
3002
0000
0000
2003
0000
0000
0000
0000
,
3100
0001
1000
0010
0000
0010
0100
1000
,
0001
0100
0010
0100
0001
1000
0200
0000
,
0310
0001
1000
0010
0000
0010
0001
0100
,
0010
1000
0001
0010
0000
0010
1000
0100
,
0010
0001
1000
0010
0000
0010
0001
0100
,
0010
1000
0001
0010
0000
0010
1000
0001
,
0010
0100
0010
1000
0000
1000
0001
1000
,
0010
0100
0010
0001
0000
0001
1000
0001
,
0010
0100
0010
1000
0000
1000
0001
1000
,
0010
0100
0010
0001
1000
0100
0010
0100
,
0002
0000
0000
0010
0000
0000
0003
0000
2000
0000
0000
0010
0000
0000
3000
0000
,
0002
0000
0000
0000
,
0013
0001
1000
0001
0010
0001
1000
0000
,
0010
0100
0010
0100
0001
2000
0000
0000
,
3001
0010
0100
0000
1000
0010
0100
0000
,
0001
0010
0100
0000
1000
0010
1000
0001
,
0100
0001
1000
0001
0100
0001
1000
0000
,
0100
0010
0100
0010
0001
2000
0000
0000
,
3001
0100
0010
0000
1000
0100
0010
0000
,
0001
0100
0010
0000
1000
0100
1000
0001
,
0020
0000
0000
0000
,
0000
0000
0230
0000
0000
0302
0000
0000
,
2003
0000
0000
0000
0000
3020
0000
0000
0000
0000
0032
0000
0000
0000
0000
0000
,
0203
0000
0000
0320
,
1030
0001
0010
0001
1000
0001
0010
0001
,
0100
0010
1000
0100
0010
0001
0100
0010
,
1000
0000
0100
0000
0001
0000
0010
0000
1000
0000
0100
0000
,
0001
0000
0010
0000
1000
0000
0100
0000
0001
0000
0010
0000
,
1000
0000
0100
0000
0001
0000
0010
0000
1000
0000
0100
0000
,
0001
0000
0010
0000
1000
0000
0100
0000
0001
0000
0010
0000
,
1000
0000
0100
0000
0001
0000
0010
0000
1000
0000
0100
0000
,
0001
0000
0010
0000
1000
0000
0100
0000
0001
0000
0010
0000
,
1000
0000
0100
0000
0001
0000
0010
0000
1000
0000
0100
0000
,
0001
0000
0010
0000
1000
0000
0100
0000
0001
0000
0010
0000
,
1000
0000
0000
0000
,
0001
0000
0000
0000
;

//--------------- dance-single - ----------------
#NOTEDATA:;
#STEPSTYPE:dance-single;
#DESCRIPTION:;
#DIFFICULTY:Hard;
#METER:17;
#RADARVALUES:0,0,0,0,0;
#CREDIT:Talkion;
#NOTES:
0000
0000
0000
0000
,
0000
0000
0000
0000
,
0000
0000
0000
0000
,
0000
0000
0000
0000
,
0000
0000
0000
0000
,
0000
0000
0000
0000
,
0000
0000
0000
0000
,
0000
0000
0000
0000
,
0000
0000
0000
0000
,
0201
0000
0000
0000
,
0000
0000
0000
0000
,
0000
0000
0000
0000
,
0310
0010
1000
0100
0010
0001
1001
0000
,
1200
0000
0000
0000
,
0000
0000
0000
0000
,
0000
0000
0000
0000
,
0310
0000
0010
0000
0001
0000
0000
0001
0000
0000
1000
0010
0200
0000
0000
0000
,
0301
0000
1000
0100
1000
0000
0001
0000
1000
0100
1000
0000
0001
0000
0000
0000
,
1000
0000
0001
0100
0001
0000
1000
0000
0001
0100
0001
0000
1000
0000
0000
0000
,
0001
0000
1000
0100
1000
0000
0001
0000
1000
0100
1000
0000
0001
0000
0000
0000
,
1000
0000
0100
0010
0001
0000
0100
0000
0010
0100
0010
0000
2000
0000
0000
0000
,
3001
0010
0001
1000
0010
1000
0100
0000
,
1000
0100
1000
0001
0100
0001
0010
0000
,
0001
0010
0100
1000
0010
0100
0001
0000
,
1000
0001
0010
1000
0000
1020
0000
0000
,
0130
0000
1000
0000
0001
0000
1000
0000
0010
0000
0000
0010
0000
0000
0100
0000
,
0001
0100
0001
0000
1000
0100
1000
0000
0001
0000
0000
0001
0000
0000
0100
0000
,
0010
0000
1000
0000
0001
0000
1000
0000
0100
0000
0000
0100
0000
0000
0010
0000
,
0001
0010
0001
0000
1000
0010
1000
0000
0001
0000
0000
0000
0011
0000
0000
0000
,
0010
0000
0001
0000
1000
0000
0001
0000
0100
0000
0000
0100
0000
0000
0010
0000
,
1000
0010
1000
0000
0001
0010
0001
0000
1000
0000
0000
1000
0000
0000
0010
0000
,
0100
0000
0001
0000
1000
0000
0001
0000
0010
0000
0000
0010
0000
0000
0100
0000
,
1000
0100
1000
0000
0001
0100
0001
0000
1000
0100
0000
1000
0001
0000
0001
0000
,
1000
0000
0010
0100
0001
0000
1000
0000
0010
0100
0001
0000
1000
0000
0000
0000
,
0001
0000
0010
0100
1000
0000
0001
0000
0010
0100
1000
0000
0001
0000
0000
0000
,
1000
0000
0010
0100
0001
0000
1000
0000
0010
0100
0001
0000
1000
0000
0000
0000
,
0001
0000
0010
0100
1000
0000
0010
0000
0100
0010
0100
0000
0002
0000
0000
0000
,
1003
0100
1000
0001
0100
0001
0010
0000
,
0001
0010
0001
1000
0010
1000
0100
0000
,
1000
0100
1000
0001
0100
0001
0010
0000
,
1000
0000
0010
0100
1000
0000
0000
0000
0000
0000
0000
0000
0000
0000
0000
0000
,
1100
0000
0000
1000
0000
1000
0001
0000
0001
0100
0000
0100
,
0010
0000
0100
0000
2000
0000
0000
0000
0000
0000
0000
0000
,
3001
0000
0000
0000
0010
0000
0000
0000
2000
0000
0000
0000
0000
0000
0000
3200
0000
0000
0000
0000
0000
0320
0000
0000
,
0000
0031
1000
0002
0000
0000
0103
0000
,
0020
0000
0000
0000
0000
0000
0000
0000
0000
1030
0000
0000
0001
0000
0000
0000
0010
0000
0000
0000
0010
0000
0000
0000
,
0100
0000
0010
0000
0010
0000
0001
0000
1000
0000
0010
0100
,
0001
1000
0100
0020
0000
0032
0000
2003
,
0000
3010
0100
0002
0000
0000
2003
0000
,
3200
0000
0000
0310
0000
0001
1000
0000
0001
0010
0000
0001
,
1000
0000
0000
0000
0010
0000
0000
0000
0200
0000
0000
0000
0000
0000
0000
0310
0000
0000
0001
0000
0000
2000
0000
0000
,
0000
3200
0000
0302
0000
1003
1000
0200
,
0000
0320
0000
0032
0000
0000
0000
0000
,
1003
0000
0000
0001
0010
0100
1000
0000
0000
0001
0100
0010
,
1000
0000
0000
0001
0010
0100
1000
0001
1000
0010
0100
0010
,
0002
0000
0000
1003
0100
0001
0010
0200
,
0000
0000
0000
1300
0000
0000
0100
0000
0000
0010
0000
0000
0001
0000
0000
0000
1000
0000
0000
0000
0010
0000
0100
0000
,
0001
0000
1000
0000
0100
0000
0020
0000
0000
0000
0000
0000
0031
0000
0000
0001
0000
0000
1000
0000
0000
0010
0000
0000
,
0100
0000
0010
0100
0001
0000
0000
0000
1000
0000
0000
0100
0000
0000
1000
0000
,
0001
0010
0001
1000
0001
0001
0010
0100
,
1000
0000
0001
1000
0010
0000
0000
0000
0100
0000
0100
0000
0001
0000
0000
1000
,
0100
0000
0000
1000
0100
0000
0000
0000
1000
0000
0001
0000
0100
0000
0001
0000
,
1000
0000
0000
0000
0000
0000
0100
0000
0000
1000
0000
0000
0001
0000
0000
0000
0000
0000
0000
0000
0100
0000
0000
0000
0010
0000
0000
0000
0000
0000
0000
0000
0100
0000
0000
0000
0010
0000
0000
0000
0000
0000
0010
0000
0000
0000
0000
0000
,
1000
0000
0001
0000
0010
0000
0000
0000
0001
0010
0001
0000
1000
0000
0010
0000
,
0100
0000
0000
0000
0001
0100
0001
0000
1000
0000
0100
0000
0010
0000
0000
0000
,
0001
0010
0001
0000
1000
0000
0010
0000
0100
0000
0000
0000
0001
0100
0001
0000
,
1000
0000
0100
0000
0010
0000
0000
0000
0100
0001
0100
0000
0010
0000
0001
0000
,
1000
0000
0000
0000
0010
0001
0010
0000
0100
0000
0001
0000
1000
0000
0000
0000
,
0100
0001
0100
0000
0010
0000
0001
0000
1000
0000
0000
0000
0010
0000
0000
0001
,
0000
1000
0100
0001
1000
0100
0001
1000
,
0010
0000
0100
0000
1000
0000
0001
0000
0100
0000
0010
0000
0100
0010
0100
0010
,
2000
0000
0000
3001
0000
1000
0100
1000
0001
0100
0010
2000
0000
3001
0100
0001
,
1000
0100
0010
0002
0000
1003
0010
0100
0000
0001
1000
0100
1000
0100
0010
0000
,
0002
0000
0000
1003
0000
0001
0010
0001
1000
0010
0100
0002
0000
1003
0010
1000
,
0002
0000
0000
0013
0200
0000
0000
1300
0001
1000
0001
0100
0000
0020
0000
0000
,
2030
0000
0000
3001
0000
1000
0100
1000
0001
0100
0010
2000
0000
3001
0100
0001
,
1000
0100
0010
0002
0000
1003
0010
0100
0000
0001
1000
0100
1000
0100
0010
0000
,
0200
0000
0000
0001
0000
0000
0300
0000
0020
0000
0000
1000
0000
0000
0030
0000
,
1100
0100
0001
0020
0000
0030
0110
0000
,
1100
0100
0001
0020
0000
0100
0130
0000
,
1100
0100
0001
2000
0000
3000
1001
0000
,
0001
0000
0000
0000
,
0000
0000
0000
0000
,
0000
0000
0000
0000
,
1100
0100
0001
0020
0000
0030
0110
0000
,
1100
0100
0001
0020
0000
0100
0130
0000
,
1100
0100
0001
2000
0000
3000
1001
0000
,
0001
0000
0100
0000
0010
0000
1000
0000
0001
0000
0010
0100
1000
0000
0001
0000
,
0010
0010
1000
0200
0000
0300
0110
0000
,
0011
0010
1000
0200
0000
0010
0310
0000
,
0021
0000
0130
0021
0000
0000
0130
0000
,
1000
0000
0100
0000
0010
0000
0001
0000
1000
0000
0010
0100
0001
0000
1000
0000
,
0010
0010
0001
0200
0000
0000
0310
0000
,
1010
0010
0001
0200
0000
0010
0310
0000
,
1010
0010
0001
2000
0000
3000
1001
0000
,
0001
0000
0010
0000
0100
0000
1000
0000
0001
0000
0100
0010
1000
0000
0001
0000
,
0100
0100
1000
0020
0000
0000
0130
0000
,
0101
0100
1000
0020
0000
0100
0130
0000
,
0201
0000
0310
1000
1000
1000
0001
0010
,
0100
1000
0001
1000
0100
1000
0001
0100
,
2000
0000
0000
3002
0000
0000
0000
0000
,
2003
0000
0000
3002
0000
0000
0000
0000
,
0013
0010
0001
1000
0100
1000
0001
0100
,
0001
0000
1000
0000
0100
0000
0010
0000
0001
1000
0001
1000
0002
0000
0000
0000
,
0103
0100
1000
0001
0010
0001
1000
0001
,
0100
0000
0100
0000
1000
0000
0100
0000
0100
0000
0001
0000
1000
0010
1000
0000
,
0010
0000
0010
0000
0001
0000
1000
0000
0100
0000
1000
0000
0001
0010
0001
0000
,
0010
0000
0010
0000
1000
0000
0001
0000
0100
0010
0100
0010
0200
0000
0000
0000
,
1300
0000
1000
0000
0010
0100
0002
0000
0000
0000
1003
0000
0100
0010
0100
0000
,
0001
0000
0001
0000
0010
0100
2000
0000
0000
0000
3001
0000
0100
0010
0100
0000
,
1000
0000
1000
0000
0010
0100
0002
0000
0000
0000
1003
0000
0100
0010
0100
0000
,
0001
0100
1000
0010
0001
0010
1000
0100
,
0002
0000
0000
0203
0000
0000
0000
0000
2300
0000
0000
3020
0000
0000
0000
0000
,
0230
0000
0000
0000
,
0301
0000
1000
0100
1000
0000
0001
0000
0100
0000
0010
0000
0100
0000
0001
0000
,
1000
0000
0100
0010
0100
0000
1000
0000
0001
0000
0100
0000
0100
0000
0100
0000
,
0001
0000
1000
0010
0100
0000
0001
0000
1000
0000
0001
0010
0100
0000
1000
0000
,
0001
0000
1000
0010
0100
0000
0001
0000
1000
0001
1000
0001
2000
0000
0000
0000
,
3001
0000
1000
0010
1000
0000
0001
0000
0010
0000
0100
0000
0010
0000
0001
0000
,
1000
0000
0010
0100
0010
0000
1000
0000
0001
0000
0010
0000
0010
0000
0010
0000
,
0001
0000
1000
0100
0010
0000
0001
0000
1000
0000
0001
0100
0010
0000
1000
0000
,
0001
0000
1000
0100
0010
0000
0001
0000
1000
0001
1000
0001
2000
0000
0000
0000
,
3020
0000
0000
0000
,
0000
0000
0230
0000
0000
2300
0000
0000
,
3002
0000
0000
0000
0000
0023
0000
0000
0000
0000
2030
0000
0000
0000
0000
0000
,
3200
0000
0000
0320
,
0031
0000
1000
0100
0010
0000
0001
0000
0100
0000
0010
0000
0100
0000
0001
0000
,
1000
0000
0100
0010
0100
0000
1000
0000
0001
0000
0100
0000
0100
0000
0100
0000
,
0001
0100
0010
1000
0100
1000
0001
0010
0100
1000
0010
1000
,
0001
0100
0010
1000
0100
1000
0001
0010
0100
1000
0010
1000
,
0001
0100
0010
1000
0100
1000
0001
0010
0100
1000
0010
1000
,
0001
0100
0010
1000
0100
1000
0001
0010
0100
1000
0010
1000
,
0001
0100
0010
1000
0100
1000
0001
0010
0100
1000
0010
1000
,
0001
0100
0010
1000
0100
1000
0001
0010
0100
1000
0010
1000
,
0001
0100
0010
1000
0100
1000
0001
0010
0100
1000
0010
1000
,
0001
0100
0010
1000
0100
1000
0001
0010
0100
1000
0010
1000
,
0001
0000
0000
0000
,
0001
0000
0000
0000
;

//--------------- dance-single - ----------------
#NOTEDATA:;
#STEPSTYPE:dance-single;
#DESCRIPTION:;
#DIFFICULTY:Challenge;
#METER:19;
#RADARVALUES:0,0,0,0,0;
#CREDIT:Talkion;
#NOTES:
0000
0000
0000
0000
,
0000
0000
0000
0000
,
0000
0000
0000
0000
,
0000
0000
0000
0000
,
0000
0000
0000
0000
,
1001
0000
0000
0000
0000
1000
0000
0000
1000
0000
0000
0000
0000
1000
0000
0001
,
0010
0000
0000
0000
0000
0010
0000
0000
0010
0000
0000
0010
0000
0001
0000
1000
,
0010
0000
0000
0000
0000
0010
0000
0000
0010
0000
0000
0000
0000
0010
0000
0010
,
0000
0000
0000
0000
,
0201
0000
M000
00M0
000M
M000
00M0
000M
M000
00M0
000M
M000
00M0
000M
M000
00M0
,
000M
M000
00M0
000M
M000
00M0
000M
M000
00M0
000M
M000
00M0
000M
M000
00M0
000M
,
M000
00M0
000M
M000
00M0
000M
M000
00M0
000M
M000
00M0
000M
M000
00M0
000M
M000
,
0310
0000
1000
0000
0010
0100
0001
0000
1000
0001
1000
0001
0010
0000
0000
0000
,
1200
0000
000M
00M0
M000
000M
00M0
M000
000M
00M0
M000
000M
00M0
M000
000M
00M0
,
M000
000M
00M0
M000
000M
00M0
M000
000M
00M0
M000
000M
00M0
M000
000M
00M0
M000
,
000M
00M0
M000
000M
00M0
M000
000M
00M0
M000
000M
00M0
M000
000M
00M0
M000
000M
,
0310
0000
0010
0000
0001
0000
1000
0010
0000
1000
0010
0100
0002
0000
0000
0000
,
1003
0100
1000
0100
0010
0000
1000
0100
1000
0100
0010
0000
1001
0000
0000
0000
,
0001
0100
0001
0100
0010
0000
0001
0100
0001
0100
0010
0000
1001
0000
0000
0000
,
1000
0001
1000
0001
0010
0000
1000
0001
1000
0001
0010
0000
1001
0000
0000
0000
,
0001
0000
0000
1000
0000
0000
0001
0000
0000
1000
0000
0000
0010
0000
0000
0000
0000
0000
0001
0000
0000
1000
0000
0000
0100
0000
0000
0010
0000
0000
0001
0000
0000
0000
0000
0000
1000
0000
0000
0000
0010
0000
0000
0000
1000
0000
0000
0000
,
0001
0010
0001
0010
0100
0000
0001
0010
0001
0010
0100
0000
1001
0000
0000
0000
,
1000
0010
1000
0010
0100
0000
1000
0010
1000
0010
0100
0000
1001
0000
0000
0000
,
0001
1000
0001
0010
0100
0000
0001
1000
0001
0010
0100
0000
1001
0000
0000
0000
,
1000
0010
0100
0001
0010
0001
1000
0000
0000
0000
1020
0000
0000
0000
0000
0000
,
0130
0000
0010
0000
0100
0010
1000
0000
1001
0000
0000
0011
0000
0000
0001
1000
,
0100
0010
0001
0000
0010
0001
1000
0000
1001
0000
0000
1010
0000
0000
0010
1000
,
0001
0010
0100
0000
0010
0100
1000
0000
1001
0000
0000
0101
0000
0000
0001
1000
,
0010
0100
0001
1000
0100
0010
0001
1000
0010
0000
0000
0110
0000
0000
0110
0000
,
0010
0000
0100
0000
0010
0100
0001
0000
1001
0000
0000
1100
0000
0000
1000
0001
,
0010
0100
1000
0000
0100
1000
0001
0000
1001
0000
0000
0101
0000
0000
0100
0001
,
1000
0100
0010
0000
0100
0010
0001
0000
1001
0000
0000
1010
0000
0000
1000
0001
,
0100
0010
1000
0001
0010
0100
1000
0001
0010
0001
1000
0010
1000
0001
0010
0001
,
1000
0010
1000
0010
0100
0000
1000
0001
0010
0001
0100
0000
1001
0000
0000
0000
,
0001
0010
0001
0010
0100
0000
0001
1000
0010
1000
0100
0000
1001
0000
0000
0000
,
1000
0010
1000
0010
0100
0000
1000
0001
0010
0001
0100
0000
1001
0000
0000
0000
,
0001
0000
0000
0010
0000
0000
0001
0000
0000
0010
0000
0000
0100
0000
0000
0000
0000
0000
0001
0000
0000
1000
0000
0000
0010
0000
0000
0100
0000
0000
1000
0000
0000
0000
0000
0000
0100
0000
0000
0000
0010
0000
0000
0000
0100
0000
0000
0000
,
0001
1000
0001
1000
0100
0000
0001
1000
0100
1000
0010
0000
1001
0000
0000
0000
,
1000
0001
1000
0001
0100
0000
1000
0001
0100
0001
0010
0000
1001
0000
0000
0000
,
0001
0100
0010
1000
0100
0000
0001
0100
0010
1000
0100
0000
1001
0000
0000
0000
,
1000
0000
0001
0010
1000
0000
0000
0000
0000
0000
0000
0000
0000
0000
0000
0000
,
0011
0000
0000
0001
0010
0001
1000
0010
0100
0001
0010
0001
,
1000
0000
0100
0000
0002
0000
0000
0000
0000
0000
0000
0000
,
1003
0000
0000
0000
0010
0000
0000
0000
0002
0000
0000
0000
0000
0000
0000
0203
0000
0000
0000
0000
0000
0320
0000
0000
,
0000
1030
0001
2000
0000
0000
3100
0000
,
0020
0000
0000
0000
0000
0000
0000
0000
0000
0000
0000
0000
0000
0000
0000
0000
0000
0000
0031
0000
0000
0010
0000
0000
0100
0000
0000
0000
0000
0000
0000
0000
1000
0000
0000
0000
0000
0000
0000
0000
1000
0000
0000
0000
0000
0000
0000
0000
,
0001
0000
0100
0000
0100
0000
0010
0000
1000
0000
0010
0100
,
0001
1000
0100
0020
0000
0032
0000
2003
,
0000
3010
0100
0002
0000
0000
2003
0000
,
3100
0000
0000
0010
0000
0000
0001
0000
1000
0000
0100
0000
1000
0000
0001
0000
0100
0000
0001
0000
1000
0000
0100
0000
,
0020
0000
0000
0000
0230
0000
0000
0000
0302
0000
0000
0000
0000
0000
0000
1003
0000
0000
0010
0000
0000
0002
0000
0000
,
0000
0000
2003
0000
0000
0000
3020
0000
0000
0000
0130
0010
0100
0000
0002
0000
,
0000
0023
0000
0230
0000
0000
0000
0000
,
1300
0000
0000
0001
0100
0001
1000
0100
0010
0001
1000
0010
,
0100
0010
1000
0001
0010
0100
1000
0001
0100
0010
0100
1000
,
0002
0000
0000
0000
0000
0000
0013
0100
0001
0000
1000
0000
0100
0000
0002
0000
,
0000
0000
0000
0103
0000
0000
0010
0000
0000
0001
0000
0000
0011
0000
0000
0000
1100
0000
0000
0000
1000
0000
0001
0000
,
0010
0100
1000
0000
0001
0000
0100
0000
0010
0100
0010
0000
1000
0010
1000
0000
,
0001
0000
0010
0100
1000
0000
0001
0000
0100
0000
0000
0100
0000
0000
0100
0000
,
0010
1000
0010
0000
1000
0001
1000
0000
0001
0010
0001
0010
0100
1000
0100
1000
,
0001
0000
1000
0010
1000
0000
0001
0000
0100
0010
0100
0010
1000
0000
0001
0010
,
0100
0000
0000
0000
0000
0000
0010
0000
0000
0100
0000
0000
1000
0000
0000
0000
0000
0000
0001
0000
0000
0100
0000
0000
0001
0000
0000
0000
0000
0000
1000
0000
0000
0000
0000
0000
0100
0000
0000
0010
0000
0000
0001
0000
0000
0000
1000
0000
,
0000
0000
0001
0000
0000
0000
1000
0000
0000
0010
0000
0000
0100
0000
0000
0000
0000
0000
0000
0000
0001
0000
0000
0000
0100
0000
0000
0000
0000
0000
0000
0000
0001
0000
0000
0000
0100
0000
0000
0010
0000
0000
0100
0000
0000
0010
0000
0000
,
1000
0000
0001
0000
0010
0000
0000
0000
0001
0100
0010
0000
1000
0001
1000
0001
,
0010
0000
0000
0000
0000
0000
0100
0000
0000
0000
0000
0000
1000
0000
0000
0001
0000
0000
1000
0000
0000
0001
0000
0000
0010
0000
0000
0000
0000
0000
0001
0000
0000
0000
0000
0000
1000
0000
0000
0000
0000
0000
0010
0000
0000
0000
0100
0000
,
0000
0000
0010
0000
0000
0000
0100
0000
0000
0001
0000
0000
1000
0000
0000
0000
0000
0000
0001
0000
0000
0000
0000
0000
0010
0000
0000
0100
0000
0000
0010
0000
0000
0100
0000
0000
1000
0000
0000
0000
0000
0000
0001
0000
0000
0000
0000
0000
,
0100
0000
0000
0000
0000
0000
0000
0000
0000
0010
0000
0000
1000
0000
0000
0000
0000
0000
0000
0000
0000
0001
0000
0000
1000
0000
0000
0000
0000
0000
0000
0000
0000
0010
0000
0000
1000
0000
0000
0000
0001
0000
0000
0000
1000
0000
0000
0000
,
0001
0000
0000
0000
0000
0000
0000
0000
0000
0000
0000
0000
0100
0000
0000
0001
0000
0000
0010
0000
0000
0000
0000
0000
0001
0000
0000
0000
1000
0000
0000
0000
0001
0000
0000
0000
1000
0000
0000
0000
0000
0000
0100
0000
0000
1000
0000
0000
,
0010
0000
0000
0000
0000
0000
0000
0000
0000
0000
0000
0000
0100
0000
0000
0000
0010
0000
0000
0000
0100
0000
0000
0000
0010
0000
0000
0000
0000
0000
1000
0000
0000
0000
0000
0000
0001
0000
0000
0010
0000
0000
0000
0000
0000
0010
0000
0000
,
1000
0000
1000
0100
0000
0100
0001
0000
0001
0010
0000
0010
1000
0000
0001
0100
,
0010
1000
0001
0010
0100
1000
0010
1000
0001
0100
0010
1000
0100
1000
0001
0010
,
M200
0000
0000
1300
0000
0001
0001
0001
0100
0010
1000
0002
0000
0013
0100
1000
,
0001
0010
0001
2000
0000
3100
0010
0001
0000
1000
0010
0100
0010
1000
0002
0000
,
0023
0000
0000
0130
0000
1000
0100
0010
0001
1000
0010
0200
0000
0301
1000
0001
,
0020
0000
0000
0130
2000
0000
0000
3001
0010
0001
0100
0020
0000
0031
0001
0010
,
0200
0000
0000
0301
0000
1000
1000
1000
0100
0010
0001
2000
0000
3010
0100
0001
,
1000
0010
1000
0002
0000
0103
0010
2000
0000
3001
0010
0100
0010
0001
2000
0000
,
3020
0000
0000
0100
0000
0000
1030
0000
0002
0000
0000
0010
0000
0000
1003
0000
,
1100
0000
0100
0001
1000
0000
2002
0000
0000
0000
3003
0000
1010
0000
0000
0000
,
0101
0000
0100
1000
0001
0000
1002
0000
0000
0000
0010
0000
0013
0000
0000
0000
,
1100
0000
0100
0001
1000
0000
2001
0000
0000
0000
0010
0000
3010
0000
0100
0000
,
0001
0000
0000
0000
,
0000
0000
0000
0000
,
0000
0000
0000
0000
,
1100
0000
0100
0001
1000
0000
2002
0000
0000
0000
3003
0000
1010
0000
0000
0000
,
0101
0000
0100
1000
0001
0000
1002
0000
0000
0000
0010
0000
0013
0000
0000
0000
,
1100
0000
0100
0001
1000
0000
2001
0000
0000
0000
0010
0000
3010
0000
0100
0000
,
0001
0000
1000
0100
0010
0000
0100
0010
0001
0000
1000
0010
0100
0000
0001
1000
,
0010
0000
0010
0001
1000
0000
2002
0000
0000
0000
3003
0000
1100
0000
0000
0000
,
0011
0000
0010
1000
0001
0000
1002
0000
0000
0000
0100
0000
0103
0000
0000
0000
,
1020
0000
0130
1020
0000
0000
0130
0000
,
1010
0000
1000
0000
0001
0000
0010
0100
1000
0000
0001
1000
0010
0100
0001
1000
,
0010
0000
0010
0001
0100
0000
2002
0000
0000
0000
3003
0000
1100
0000
0000
0000
,
0011
0000
0010
1000
0100
0000
1002
0000
0000
0000
0100
0000
0103
0000
0000
0000
,
1010
0000
0010
0001
0100
0000
2001
0000
0000
0000
0100
0000
3100
0000
0010
0000
,
0001
0000
1000
0010
0100
0000
0010
0100
0001
0000
1000
0100
0010
0000
0001
1000
,
0100
0000
0100
0001
0010
0000
2002
0000
0000
0000
3003
0000
1010
0000
0000
0000
,
0101
0000
0100
1000
0010
0000
1002
0000
0000
0000
0010
0000
0013
0000
0000
0000
,
1200
0000
0000
0000
0310
0000
0001
1000
0010
1000
0010
1000
0001
0000
0010
0000
,
0100
0000
1000
0100
1000
0100
1000
0100
0010
0000
0001
1000
0010
0000
1000
0010
,
0200
0000
0000
1000
0000
0000
0310
0000
,
0201
0000
0000
1000
0000
0000
0310
0000
,
0101
0000
0100
1000
0010
0000
0102
0000
0000
0000
1003
0000
0100
0010
0001
0000
,
1000
0000
0010
0000
0100
0000
0001
0000
1000
0100
1000
0100
0010
0001
1000
0001
,
0100
0000
0100
1000
0010
0000
1000
0010
1000
0000
0010
0100
0001
0000
1000
0000
,
0100
0000
0100
0001
0010
0000
0001
0010
0001
0000
1000
0000
0100
1000
0001
1000
,
0010
0000
0010
0001
0100
0000
0001
0100
0010
0000
1000
0000
0001
0000
0100
0001
,
0010
0000
0010
1000
0100
0000
1000
0000
0001
0100
0010
0100
0001
1000
0100
0010
,
1000
0000
1000
0100
0010
0100
0002
0000
0000
0000
0103
0000
1000
0001
0100
0010
,
0001
0000
0001
0100
0010
0100
2000
0000
0000
0000
3100
0000
0001
1000
0100
0010
,
1000
0000
1000
0100
0010
0100
0002
0000
0000
0000
0103
0000
1000
0001
0100
0010
,
1000
0001
0010
0100
1000
0001
0100
0010
1000
0001
0010
0100
1000
0001
1000
0001
,
02M0
0000
0000
1000
0000
0000
0000
0000
0320
0000
0000
0001
0000
0000
0000
0000
,
0230
0000
0000
0000
M000
M000
M000
M000
,
0301
0000
1000
0100
1000
0000
0001
0000
1000
0100
1000
0000
0001
0000
0100
0000
,
0010
0000
1000
0001
1000
0000
0010
0000
1000
0001
2000
0000
0100
0000
3001
0000
,
0010
0000
0100
0010
0001
0000
1000
0000
0010
0000
0100
0010
1000
0000
0001
0000
,
0010
0100
1000
0100
0010
0000
0001
0000
1000
0010
0100
0001
1000
0100
0010
0001
,
1000
0000
0001
0100
0001
0000
1000
0100
1000
0000
0001
0000
0100
0010
0100
0010
,
1000
0000
0001
0010
0001
0000
1000
0010
1000
0000
0002
0000
0010
0000
1003
0000
,
0100
0000
0010
0100
1000
0000
0001
0000
0100
0000
0010
0100
0001
0000
1000
0000
,
0100
0010
0001
0010
0100
0000
1000
0000
0001
0100
0010
1000
0001
0010
0100
1000
,
0002
0000
0000
0000
,
0000
0000
0203
0000
0000
2300
0000
0000
,
3002
0000
0000
0000
0000
0023
0000
0000
0000
0000
2030
0000
0000
0000
0000
0000
,
3200
0000
0000
0320
,
0031
0010
0100
0010
0001
1000
0010
0100
0001
0100
0010
0100
0001
0100
0010
1000
,
0001
0010
0100
1000
0001
0010
0001
1000
0001
0010
0001
1000
0010
0100
0010
0001
,
1000
0100
0001
1000
0100
0001
1000
0010
0001
1000
0010
0001
,
1000
0100
0001
1000
0100
0001
1000
0010
0001
1000
0010
0001
,
1000
0100
0001
1000
0100
0001
1000
0010
0001
1000
0010
0001
,
1000
0100
0001
1000
0100
0001
1000
0010
0001
1000
0010
0001
,
1000
0100
0001
1000
0100
0001
1000
0010
0001
1000
0010
0001
,
1000
0100
0001
1000
0100
0001
1000
0010
0001
1000
0010
0001
,
1000
0100
0001
1000
0100
0001
1000
0010
0001
1000
0010
0001
,
1000
0100
0001
1000
0100
0001
1000
0010
0001
1000
0010
0001
,
1000
0000
0000
0000
,
1000
0000
0000
0000
;
