#TITLE:Acid Bomb;
#SUBTITLE:;
#ARTIST:DJ FX;
#TITLETRANSLIT:;
#SUBTITLETRANSLIT:;
#ARTISTTRANSLIT:;
#GENRE:HARD TEKNO;
#CREDIT:;
#MUSIC:Acid Bomb.ogg;
#BANNER:Acid Bomb.png;
#BACKGROUND:Acid Bomb-bg.png;
#CDTITLE:;
#SAMPLESTART:34.721;
#SAMPLELENGTH:13.707;
#SELECTABLE:YES;
#OFFSET:-0.453;
#BPMS:0.000=140.074;
#STOPS:;
#BGCHANGES:;
#FGCHANGES:;

//--------------- dance-single - mikeintyo ----------------
#NOTES:
     dance-single:
     mikeintyo:
     Beginner:
     4:
     0,0,0,0,0:
0000
0000
0000
0000
,
0000
0000
0000
0000
,
0000
0000
0000
0000
,
0000
0000
0000
0000
,
1000
1000
1000
0000
,
0001
0001
0001
0000
,
1000
1000
1000
0000
,
0001
0001
0001
0001
,
0001
0000
0000
0000
,
1000
0000
0000
0000
,
1001
0000
0000
0000
,
0010
0010
0010
0000
,
0100
0000
0100
0000
,
0100
0100
0100
0000
,
0010
0000
1000
0000
,
0001
0001
0001
0001
,
1001
0000
1000
0000
,
1001
0000
0001
0000
,
0110
0000
0100
0000
,
0010
0010
0010
0010
,
1000
0000
0010
0000
,
1000
0000
0010
0000
,
0100
0000
0001
0000
,
0100
0100
0100
0100
,
1000
0000
0000
0000
,
1000
0000
0000
0000
,
0001
0000
0000
0000
,
0001
0000
0000
0000
,
0010
0000
0100
0000
,
1000
0000
0100
0000
,
1000
0000
1000
0000
,
0100
0100
0100
0100
,
0010
0000
0001
0000
,
1000
0000
0001
0000
,
0010
0000
0100
0000
,
1000
0000
1000
0000
,
1000
0100
1000
0000
,
0001
0010
0001
0000
,
1000
0001
1000
0000
,
0010
0010
0010
0000
,
0100
0010
0100
0000
,
0001
1000
0001
0000
,
1000
0010
1000
0000
,
0100
0100
0100
0000
,
0010
0001
0100
0000
,
0100
0001
0010
0000
,
0010
0100
1000
0000
,
1000
0001
1000
0000
,
1000
0100
0010
0000
,
0010
0100
0001
0000
,
0001
1000
0001
0000
,
0100
0100
0100
0000
;

//--------------- dance-single - mikeintyo ----------------
#NOTES:
     dance-single:
     mikeintyo:
     Easy:
     8:
     0,0,0,0,0:
0000
0000
0000
0000
,
0000
0000
0000
0000
,
0000
0000
0000
0000
,
0000
0000
0000
0000
,
1000
0000
1000
0000
1000
0000
1000
1000
,
1000
0000
0001
0000
0001
0000
0001
0001
,
0001
0000
0100
0000
0100
0000
0100
0100
,
0100
0010
0100
0010
,
0110
0000
1000
0000
0100
0000
0000
1000
,
0001
0001
0001
0001
,
0100
0010
0100
0000
0010
0000
0000
0010
,
0100
0001
0100
0010
,
1000
0000
1000
0000
1000
0000
0000
0100
,
0010
0000
0010
0000
0010
0000
0000
0001
,
0010
0010
0010
0100
,
1001
1001
1001
1001
,
1001
0000
1000
0000
0010
0000
0100
0010
,
0100
0000
0001
0000
0100
0000
0010
1000
,
0010
0000
0100
0000
0010
0000
1000
0100
,
1000
1000
1000
1000
,
0001
0000
0000
0001
1000
0000
0000
1000
,
0001
0000
0000
0001
1000
0000
0000
1000
,
0010
0000
0000
0010
0100
0000
0000
0100
,
0010
0010
0010
0010
,
1000
0100
1000
0100
,
0010
0100
0010
0100
,
0010
0001
0100
0010
,
1000
0010
0100
0010
,
0100
0000
0010
0000
0100
0000
0000
0010
,
0100
0000
0000
0010
0100
0000
0000
0010
,
0100
0000
0000
0010
1000
0000
0000
0001
,
1000
0001
0001
0001
,
1000
0100
0010
0001
,
1000
0100
0010
0001
,
1000
0100
1000
0000
0100
0010
0100
0000
,
0010
0001
0010
0000
0001
1000
0001
0000
,
1001
0000
0010
0100
,
1001
0000
0000
0000
0100
0010
0100
0000
,
1001
0000
0000
0000
0010
0100
0010
0000
,
1001
0001
1000
0100
,
0010
0000
0010
0000
0100
0000
0000
1000
,
0100
0000
0010
0001
0010
0000
0000
0100
,
0010
0000
0100
0010
0100
0000
0100
0000
,
1000
0100
0010
0001
,
1001
0001
1000
1000
,
0001
0010
0100
1000
,
0010
0100
0001
0010
,
0100
1000
0100
1000
,
0010
0100
0010
0100
,
0010
1000
0001
1000
,
0010
0000
1001
0000
,
0010
0010
0010
0110
;

//--------------- dance-single - mikeintyo ----------------
#NOTES:
     dance-single:
     mikeintyo:
     Medium:
     12:
     0,0,0,0,0:
0000
0000
0000
0000
,
0000
0000
0000
0000
,
0000
0000
0000
0000
,
0000
0000
0000
0000
,
1000
0000
0000
0001
0000
0000
0001
0000
1000
0000
0000
0010
0000
0000
0010
0000
,
1000
0000
0000
0100
0000
0000
0100
0000
1000
0000
0000
0010
0000
0000
0010
0000
,
0100
0000
0000
0001
0000
0000
0001
0000
0100
0000
0000
0010
0000
0000
0010
0000
,
0110
1001
0110
1001
,
0001
0000
1000
0000
0001
0000
1000
0100
1000
0000
0000
0000
0001
0000
0001
0000
,
0001
0000
0100
0000
0010
0000
1000
0010
1000
0000
1000
0000
0010
0000
1000
0000
,
0001
0000
0100
0000
0010
0000
1000
0100
1000
0000
0000
0000
1000
0000
1000
0000
,
1000
0000
1000
0000
0100
0000
1000
0010
1000
0000
0100
0000
0010
0000
0001
0000
,
0001
0010
0001
0100
0000
0000
0010
1000
,
0100
0010
0001
0010
0100
0000
1000
0100
,
1000
0100
0010
0100
1000
0000
0100
1000
,
1100
0000
0110
0000
1001
0000
1001
1000
,
0100
0000
0000
0010
0000
0000
0001
0000
0100
0000
0000
1000
0000
0000
0100
0000
,
0001
0000
0000
0001
0000
0000
0001
0000
1000
0000
0000
1000
0000
0000
1000
0000
,
0010
0000
0000
0100
0000
0000
0001
0000
0100
0000
0000
0010
0000
0000
1000
0000
,
0100
1000
0100
1000
0100
1000
0100
0010
,
0001
0000
0000
0010
0000
0000
0001
0000
1000
0000
0000
0100
0000
0000
1000
0000
,
0010
0000
0000
0010
0000
0000
0010
0000
0100
0000
0000
0100
0000
0000
0100
0000
,
0010
0000
0000
0010
0000
0000
0100
0000
0001
0000
0000
0001
0000
0000
0100
0000
,
0010
0100
0010
0100
0100
0010
0100
0010
,
1010
0000
0000
1000
0000
0000
0010
0000
0100
0000
0000
0100
0000
0000
0100
0000
,
0010
0000
0000
1000
0000
0000
0100
0000
0010
0000
0000
0010
0000
0000
0010
0000
,
0100
0000
0000
1000
0000
0000
0010
0000
0100
0000
0000
0010
0000
0000
0100
0000
,
0001
0100
1000
0100
0001
0010
1000
0010
,
0001
0000
0000
1000
0000
0000
0010
0000
1000
0000
0000
0100
0000
0000
0010
0000
,
0001
0000
0000
0010
0000
0000
0001
0000
0100
0000
0000
0010
0000
0000
0100
0000
,
0010
0000
0000
0010
1000
0000
0010
0000
0100
0000
0000
0100
0001
0000
0100
0000
,
0010
1010
0110
0101
,
0010
1000
0010
0000
0100
0000
0010
0000
,
0100
0001
0100
0000
0001
0100
0010
0000
,
1000
0100
0010
0001
1000
0100
0010
0001
,
0110
1100
1010
0101
,
0010
0000
0001
1000
0100
0000
1000
0001
,
0010
0001
0100
0001
0010
0000
0001
0100
,
0001
1000
0010
0100
0010
0000
1000
0010
,
0100
0001
0100
1000
0100
0001
0010
0001
,
0100
0010
0100
0010
1000
0000
0100
0010
,
0001
0010
0100
0010
0001
0000
0001
1000
,
0010
1000
0001
0100
0010
0000
1000
0100
,
0010
0001
0010
0001
1000
0100
0001
0100
,
1000
0000
0001
0100
0001
0000
0001
0100
,
0001
0010
0100
0010
0100
0000
1000
1000
,
0010
0100
0100
0010
1000
0000
0100
0010
,
0001
0010
0010
0100
1000
0010
1000
0010
,
0100
0001
1000
0010
0100
0000
0001
1000
,
0010
0010
0100
0100
0010
0000
1000
0100
,
0010
0100
1000
0100
0010
0000
0001
0100
,
1000
0100
0010
1000
0001
0100
0010
0110
;

//--------------- dance-single - mikeintyo ----------------
#NOTES:
     dance-single:
     mikeintyo:
     Hard:
     14:
     0,0,0,0,0:
0000
0000
0000
0000
,
0000
0000
0000
0000
,
0000
0000
0000
0000
,
0000
0000
0000
0000
,
0000
0000
0000
0001
0000
0000
0001
0000
0000
0000
0000
1000
0000
0000
1000
0000
,
0000
0000
0000
0001
0000
0000
0001
0000
0000
0000
0000
0100
0000
0000
0100
0000
,
0000
0000
0000
0001
0000
0000
0001
0000
0000
0000
0000
1000
0000
0000
1000
0000
,
0000
0000
0000
0001
0000
0000
0001
0000
0000
0000
0000
0010
0000
0000
0010
0000
,
0100
0000
0000
1000
0100
0000
0010
0000
0001
0000
0000
0100
0010
0000
0100
0000
,
0001
0000
0000
0100
0000
0000
0100
0010
0100
0000
0000
0010
0000
0000
1000
0010
,
1000
0000
0000
0001
0000
0000
0100
0000
0100
0000
0000
0010
0100
0000
0010
0000
,
0010
0000
1000
0010
0100
0000
0100
0001
0000
0000
0100
0001
0010
0000
0001
0000
,
0001
0010
0100
0000
1000
0000
0100
0000
1000
0010
0100
0000
0001
0000
0100
0000
,
0001
1000
0100
0000
0010
0000
0100
0000
1000
0001
0100
0000
0010
0000
0100
0000
,
0010
0000
0000
1000
0010
0000
0100
0000
0001
0000
0000
0010
0100
0000
0010
0000
,
0011
0000
1001
0000
1010
0000
1001
0001
,
0010
0000
0000
0100
0010
0000
0001
1000
0010
0000
0000
0100
0010
0000
0100
0010
,
0100
0000
0000
0001
0100
0000
0010
0100
0001
0000
0000
0010
0100
0000
1000
0100
,
1000
0000
0000
0001
0100
0000
0010
0000
0100
0000
0000
0001
0100
0000
0010
1000
,
0100
0001
0100
1000
0010
0001
0010
1000
,
0010
0000
0000
0100
0010
0000
0100
0000
0101
0000
0000
0001
0010
0000
0100
0000
,
1100
0000
0000
0100
1000
0000
0001
0000
1001
0000
0000
0001
0010
0000
0100
0000
,
0110
0000
0000
1000
0100
0000
0010
0000
0011
0000
0000
1000
0010
0000
1000
0000
,
0010
1010
0000
0101
0000
0011
0000
1100
,
1001
0000
0000
0100
0010
1000
0000
1000
0100
0000
0000
0010
0100
0000
1000
0000
,
0100
0000
0000
0010
0100
0000
1000
0000
0100
0000
0000
0010
0100
0000
1000
0000
,
0010
0100
0001
0010
0000
0000
0010
0000
0001
0010
0001
0000
1000
0000
0001
0000
,
1001
0000
1100
0000
1010
0010
0110
0010
,
1010
0000
0000
0100
0010
0000
0100
0000
1001
0000
0000
0010
0100
0000
0010
0000
,
1001
0000
0000
0100
0010
0000
0100
0000
1001
0000
0000
0100
0010
0000
0100
0000
,
1010
0010
0000
0100
0101
0100
0000
0010
,
1010
0000
0100
0000
0101
0000
0001
0000
0010
0100
0000
0010
0100
0000
1000
0000
,
0001
1000
0100
0100
0010
0010
0001
0001
,
1000
0000
0100
0000
0010
0000
0001
0000
1000
0000
0100
0010
0001
0000
0100
0000
,
0010
0000
0100
0010
0100
0000
0001
0000
1000
0000
0100
0010
0100
0000
1000
0000
,
0100
0110
0010
0011
0001
1001
1000
1010
,
0010
0100
0010
1000
0010
0000
0100
0000
0001
0000
0010
0100
0010
0000
0001
0000
,
0100
0010
0100
0001
0100
0000
0010
0000
1000
0000
1000
0100
1000
0000
0001
0000
,
0010
0000
0000
0100
0000
0000
1000
0010
0100
0010
0000
0100
0010
0000
1000
0010
,
1000
0100
0000
0100
0010
0000
0100
1000
0100
0010
0000
0010
0001
0000
0001
0100
,
1000
0000
0000
0100
0010
0000
1000
0000
0100
1000
0000
0001
0100
0000
0010
0000
,
1000
0000
0000
0001
1000
0000
0100
0000
0010
0001
0000
0010
0100
0000
1000
0000
,
0100
0000
0010
0100
0010
0000
0001
0000
0100
0010
0000
0010
0100
0000
0010
0000
,
1000
0000
0100
0010
0100
0000
1000
0100
0010
0100
0000
0010
0100
0000
1000
0000
,
0010
0000
0000
0010
0100
0000
0000
0010
0100
0001
0000
0100
0010
0000
0010
0000
,
0010
0000
1000
0010
0100
0000
0100
0000
0100
0000
0010
1000
0100
0000
1000
0000
,
1000
0000
0010
0100
0010
0000
1000
0000
0001
0000
0100
0010
0100
0000
0001
0000
,
0100
0000
0010
0100
0010
0000
1000
0000
0100
0000
0010
0100
0010
0000
0100
0000
,
1000
0000
0010
0100
1000
0000
1000
0100
0000
0100
0000
0100
0010
0000
0001
0010
,
0100
0000
0010
1000
0100
0000
0010
0100
0000
0100
0000
0100
0010
0000
0001
0000
,
0010
0000
0000
0100
1000
0000
0100
0000
0010
0001
0010
0100
0010
0000
0100
0000
,
1000
0000
0000
0010
0100
0000
0010
0000
0100
0001
0100
0010
1000
0000
1000
0001
;

//--------------- dance-single - mikeintyo ----------------
#NOTES:
     dance-single:
     mikeintyo:
     Challenge:
     16:
     0,0,0,0,0:
0000
0000
0000
0000
,
0000
0000
0000
0000
,
0000
0000
0000
0000
,
0000
0000
0000
0000
,
1000
0000
0000
0001
1000
0000
0100
0000
1000
0000
0000
1000
0001
0000
1000
0000
,
0001
0000
0000
0100
0001
0000
0010
0000
0001
0000
0000
0001
1000
0000
0010
0000
,
0100
0000
0000
0010
0100
0000
0001
0000
0100
0000
0000
0100
0010
0000
1000
0000
,
0010
0000
0000
1000
0010
0000
0100
0000
0010
0000
0000
0010
1000
0000
0100
0000
,
0001
0000
0100
0000
1000
0000
0001
0010
1000
0000
0000
0000
0010
0000
0100
0000
,
1000
0000
0010
0000
0100
0000
0010
0000
0001
0000
1000
0100
0010
0000
1000
0000
,
0100
0000
0001
0000
0100
0000
1000
0000
0001
0000
0000
0010
0100
0000
1000
0000
,
0010
0000
0001
0000
1000
0000
0100
0000
0001
0000
0000
0100
0010
0000
0100
0000
,
0001
0000
0100
1000
0001
0000
1000
0100
0001
0000
0000
0100
0010
0000
1000
0000
,
0100
0000
1000
0010
0100
0000
0001
0100
0010
0000
0000
1000
0010
0000
0100
0000
,
0001
0000
0000
0001
1000
0000
1000
0100
0010
0100
0000
0100
0001
0000
0001
0100
,
1000
0100
0010
0001
0001
0010
1000
0010
,
0001
0000
0000
0010
0001
0000
0100
0010
1000
0000
0001
0100
1000
0000
0001
0010
,
1000
0000
0000
0100
1000
0000
0010
0100
0001
0000
1000
0100
0001
0000
1000
0010
,
0001
0000
0000
0010
0100
0000
1000
0100
0010
0000
0000
0001
1000
0000
0001
0000
,
0100
1000
1000
0100
0001
0001
0100
0010
,
1000
0000
0000
0100
0000
0000
0100
0000
1000
0000
0000
0001
0000
0000
0100
0000
,
0010
0000
0000
0010
0000
0000
0100
0000
0001
0000
0000
0100
0000
0000
0001
0000
,
0010
0000
0000
0001
0000
0000
0010
0000
0100
0000
0000
1000
0000
0000
0100
0000
,
0010
0001
0010
0100
0010
1000
0001
0100
,
1000
0000
1000
0100
0010
1000
0000
0010
0001
0000
0001
0100
1000
0100
0000
0100
,
0001
0000
0010
0100
0010
0100
0000
0001
1000
0000
0010
0001
1000
0000
0010
0100
,
1000
0000
0001
1000
0100
0000
0010
1000
0100
0000
0010
0100
0010
0000
0001
0010
,
0100
0000
1000
0010
0100
0000
0001
0010
0100
0000
1000
0100
0010
0001
0010
0100
,
1000
0000
0000
1000
0100
0000
0010
0000
0010
0000
0000
0001
0010
0000
0100
0000
,
0100
0000
0000
1000
0100
0000
0010
0000
0010
0000
0000
0100
0010
0000
0010
0000
,
1001
0000
0000
0100
0010
0000
1010
0000
1001
0000
0000
0010
0100
0000
1100
0000
,
1001
0100
0001
0010
0001
0100
1000
1000
,
0100
0100
0100
0100
0010
0010
0010
0010
,
1000
1000
1000
1000
0001
0001
0001
0001
,
1000
0100
1000
0100
1000
0100
1000
0100
0010
0001
0010
0001
0010
0001
0010
0001
,
1000
0100
1000
0100
0010
0001
0010
0001
1000
0100
0010
0001
1000
0001
0010
0100
,
1000
0100
0001
1000
0010
0000
0100
0000
1000
0000
0001
0000
0100
0000
0001
0000
,
0010
0100
0001
1000
0010
0000
0100
0000
1000
0000
0100
0000
0010
0000
0001
0000
,
0100
0000
0010
1000
0100
0000
0010
0100
0000
0001
0000
0100
1000
0000
0010
0100
,
0001
0100
1000
0100
0001
0000
0010
0100
0000
0001
0000
1000
0010
0000
0100
0000
,
1000
0100
0001
0100
1000
0000
1000
0001
0000
0001
1000
0001
0100
0000
0001
0100
,
0010
0001
0010
0100
1000
0000
0001
0010
0000
0100
0000
0010
1000
0000
1000
0010
,
0001
0000
0010
0100
0001
0000
0010
0100
0000
0100
0000
1000
0100
0000
0100
0010
,
0001
0010
0010
1000
0100
0000
1000
0100
0000
0100
0010
0000
1001
0000
0000
0000
,
0001
0000
0000
0100
0100
0000
0010
0000
0001
0000
0000
0100
0100
0000
1000
0000
,
0010
0000
0000
0100
0100
0000
1000
0001
1000
0100
0000
0010
0010
0000
0100
0000
,
0001
0000
0000
0001
1000
0000
0100
0000
0010
0000
0000
0100
0010
0000
0100
0000
,
1000
0000
0000
1000
0100
0000
0001
0100
1000
0010
0000
0100
0001
0000
1000
0000
,
0010
0000
0000
1000
0000
0000
0001
0010
0001
0010
0000
0001
1000
0000
1000
0000
,
0010
0000
0100
0000
1000
0000
0001
0000
0010
0100
0010
0100
0001
0000
0001
0010
,
0100
0000
0000
1000
0100
0000
0100
0000
1000
0000
0000
0001
0100
0000
0100
0000
,
0001
0000
0000
1000
0001
0000
0001
0000
1000
0000
0000
0001
1000
0000
1000
0001
;
