#VERSION:0.83;
#TITLE:ARTEMiS;
#SUBTITLE:;
#ARTIST:BlackY;
#TITLETRANSLIT:;
#SUBTITLETRANSLIT:;
#ARTISTTRANSLIT:;
#GENRE:;
#CREDIT:;
#MUSIC:ARTEMiS.ogg;
#BANNER:ARTEMiS-bn.png;
#BACKGROUND:ARTEMiS-bg.png;
#CDTITLE:;
#SAMPLESTART:72.581;
#SAMPLELENGTH:15.000;
#SELECTABLE:YES;
#OFFSET:0.967;
#BPMS:0.000=186.000;
#STOPS:;
#BGCHANGES:;
#FGCHANGES:;

//--------------- dance-single - ----------------
#NOTEDATA:;
#STEPSTYPE:dance-single;
#DESCRIPTION:;
#DIFFICULTY:Medium;
#METER:12;
#RADARVALUES:0,0,0,0,0;
#CREDIT:Talkion;
#NOTES:
0000
0000
0000
0000
,
0000
0000
0000
0000
,
0000
0000
0000
0000
,
0000
0000
0000
0000
,
0000
0000
0000
0000
,
0011
0000
0000
0000
1100
0000
0000
1002
,
0000
0103
0010
1000
,
0001
0010
0100
0001
,
0100
0010
0002
1003
,
1010
0000
0000
0000
0100
0000
0000
0000
0001
0000
0000
0001
0000
0000
0001
0000
,
0010
0000
0000
0000
0100
0000
0000
0000
1000
0000
0000
1000
0000
0000
1000
0000
,
0010
0000
0000
0000
0100
0000
0000
0000
0001
0000
0000
0001
0000
0000
0001
0000
,
0010
0000
0000
0000
0100
0000
0000
0000
1000
0000
0000
1000
0000
0000
1000
0000
,
0001
0000
0000
0201
0000
0000
0000
0000
0010
0000
0000
0310
0000
0000
0010
0000
,
1000
0000
0000
1200
0000
0000
0000
0000
0010
0000
0000
0310
0000
0000
0010
0000
,
0001
1000
0001
1000
0001
1000
0001
1000
,
0020
0000
0000
0000
,
0130
0010
1000
1001
,
0001
0010
0001
0000
1000
0010
1000
0000
,
0002
0000
0023
0000
1030
0010
1000
0000
,
0020
0000
0000
0000
0032
0000
0000
0000
1003
0000
0000
1000
0000
0000
0010
0000
,
0200
0001
0320
1000
,
0130
0000
0001
0100
0001
0100
0001
0000
,
2000
0000
3200
0000
0301
0100
0001
0000
,
0200
0000
0000
0000
2300
0000
0000
0000
3001
0000
0000
0001
0000
0000
0100
0000
,
0010
0000
0000
1010
0000
0000
0011
0000
,
0000
1010
0000
0000
0110
0000
1001
0000
,
0110
0000
0000
0101
0000
0000
1100
0000
,
0000
0000
0101
0000
0000
0000
0000
0000
1001
0000
0000
1000
0000
0000
0100
0000
,
0010
0000
0010
0000
0001
0010
0001
0100
,
0010
0000
0010
0000
1000
0010
1000
0100
,
0010
0001
0010
0001
0010
0001
0010
0001
,
1000
0000
0110
0000
,
0002
0000
0003
0000
,
0200
0000
0300
0000
,
2000
0000
3000
0000
,
0020
0000
0030
0000
,
0002
0000
0003
0000
,
2000
0000
3000
0000
,
0020
1000
0130
0000
,
0200
0001
0310
0000
,
1010
0000
0000
0101
0000
0000
0000
0000
,
0001
0002
0000
0000
1003
0100
1000
0000
,
1100
0000
0000
0011
0000
0000
0010
0010
,
0000
0000
2001
0000
0000
0000
0000
0000
3010
0000
0000
0010
0000
0000
0010
0000
,
0100
0000
0101
0000
1000
0100
0000
0002
,
0103
0000
0000
1000
0000
0000
0100
0000
0000
1000
0000
0000
0002
0000
0000
0000
,
0103
0010
0100
0010
0100
0010
0100
0010
,
1000
0000
0000
0000
,
1001
0000
0000
0000
0001
0000
0000
0000
0010
0000
0000
0010
0000
0000
0010
0000
,
0100
0000
0000
0000
1000
0000
0000
0000
0010
0000
0000
0010
0000
0000
0010
0000
,
0100
0000
0000
0000
0001
0000
0000
0000
0010
0000
0000
0010
0000
0000
0010
0000
,
0100
0000
0000
0000
1000
0000
0000
0000
0010
0000
0000
0010
0000
0000
0010
0000
,
0100
0000
0000
0000
1002
0000
0000
0000
0010
0000
0000
0013
0000
0000
0100
0000
,
1000
0000
0000
0000
2001
0000
0000
0000
0010
0000
0000
3010
0000
0000
0100
0000
,
0001
1000
0100
0010
0001
1000
0100
0010
,
0001
0000
2002
3003
,
0010
0000
1001
0000
1000
0100
0010
0000
,
1000
0100
0010
0000
1000
0001
0100
0000
,
0010
0000
1001
0000
0001
0100
0010
0000
,
0001
0100
1000
0000
0001
0100
1000
0000
,
0100
0010
0100
0010
1000
0000
1100
0000
,
0101
0000
0000
0000
0001
0000
1000
0000
0200
0000
0000
0320
0000
0000
0031
0000
,
2000
0000
0000
3020
0000
0000
0230
0000
0302
0000
0000
0000
0000
0000
0000
0000
,
1003
0000
0001
0000
0010
0001
0010
0001
,
0100
0000
1001
0000
0001
0010
0100
0000
,
0001
0010
0100
0000
0001
1000
0010
0000
,
0100
0000
1001
0000
1000
0010
0100
0000
,
1000
0010
0001
0000
1000
0010
0001
0000
,
0010
0000
0000
0000
0010
0000
0100
0000
0001
0000
0000
0001
0000
0000
0001
0000
,
1000
0000
0000
0000
1000
0000
0100
0000
0001
0000
0000
0001
0000
0000
1000
0000
,
0010
0000
0001
0000
0010
0000
0001
0000
2000
0000
0000
3020
0000
0000
0130
0000
,
0002
0000
0000
0023
0000
0000
0230
0000
0000
0000
0000
0000
1300
0000
0000
0000
,
0001
0100
0001
1000
0100
1000
0001
0000
,
0100
0000
0010
1000
0010
1000
0001
0000
,
1000
0000
0010
0000
1000
0000
0000
0001
0000
0000
0001
0000
0010
0000
0000
0010
,
0000
0000
0100
0000
1000
0000
0100
0000
1000
0000
0000
0001
0000
0000
1000
0000
,
0001
0100
0001
1000
0100
1000
0001
0000
,
1000
0000
0000
1000
0000
0000
0010
0000
0001
0000
0000
0001
0000
0000
0010
0000
,
2000
0000
3001
0000
1000
0010
0100
0001
,
1000
0000
1000
0000
0000
0000
0000
0000
0001
0000
0000
0001
0000
0000
0001
0000
,
0010
0100
1000
0001
0010
0100
1000
0000
,
0001
0000
0000
0001
0000
0000
0100
0000
1000
0000
0000
1000
0000
0000
0100
0000
,
0001
1000
0001
0000
1000
0100
0010
0001
,
1000
0000
0110
0000
0001
0010
0000
1000
,
0010
0000
0001
0000
1000
0010
0100
0001
,
0010
0000
0010
0000
0001
0010
0100
1000
,
0010
0100
0001
0010
0100
1000
0010
0100
,
0002
0000
0000
0000
1003
0100
1000
0001
,
0020
0000
0000
0000
,
0000
0000
0000
0030
,
0200
0000
0000
0000
,
0000
0000
0000
0300
,
1000
0000
0001
0010
0100
0000
1000
0000
,
0001
0000
1000
0010
0100
0000
0001
0000
,
1000
0000
0000
1000
0000
0000
0100
0000
0020
0000
0000
0000
0030
0000
0000
0000
,
0110
0110
0000
0000
0000
0000
1001
0000
,
0010
0000
1001
0000
0000
1100
0000
1100
,
0000
0000
0001
0000
0000
0100
0000
0000
1000
0000
0000
0010
0000
0000
0002
0000
,
1003
0000
0001
0010
0100
0001
0100
1000
,
0000
0000
0001
0000
0000
0010
0000
0000
1000
0000
0000
0100
0000
0000
0001
0000
,
1000
0100
1000
0001
0100
0001
1000
0000
,
0001
0000
0010
0000
0100
0000
0010
0000
1000
0000
0000
1000
0000
0000
0001
0000
,
0100
1000
0100
1000
0001
0100
0010
1000
,
0001
0000
0000
0010
0000
0000
2001
0000
0000
0000
0000
0000
3020
0000
0000
0000
,
0130
0000
0001
0010
0100
0100
0000
1001
,
0000
0000
0110
0000
0000
0110
0000
0000
0110
0000
0000
0110
0000
0000
0110
0000
;

//--------------- dance-single - ----------------
#NOTEDATA:;
#STEPSTYPE:dance-single;
#DESCRIPTION:;
#DIFFICULTY:Hard;
#METER:15;
#RADARVALUES:0,0,0,0,0;
#OFFSET:0.967;
#BPMS:0.000=186.000;
#SPEEDS:0.000=1.000=0.000=0,
372.000=1.333=12.000=0
;
#SCROLLS:0.000=1.000,
132.000=0.750,
164.000=1.000,
356.000=0.750
;
#CREDIT:Talkion;
#NOTES:
0000
0000
0000
0000
,
0000
0000
0000
0000
,
0000
0000
0000
0000
,
0000
0000
0000
0000
,
0000
0000
0000
0000
,
1100
0000
0000
0000
0101
0000
0000
0120
,
0000
1030
0000
0001
0000
0010
0100
1000
,
0001
0000
0100
0010
0000
1000
0100
0010
,
0000
0001
0000
0200
0310
1000
0100
0010
,
0001
0000
0000
0000
1000
0000
0000
0000
0010
0000
0000
0010
0000
0000
0100
0000
,
0001
0000
0000
0000
1000
0000
0000
0000
0100
0000
0000
0100
0000
0000
0010
0000
,
0110
0000
0000
0000
0001
0000
0000
0000
0100
0000
0000
0100
0000
0000
0010
0000
,
1000
0000
0000
0000
0001
0000
0000
0000
0010
0000
0000
0010
0000
0000
0100
0000
,
1000
0000
0000
0010
0000
0000
0001
0000
0011
0000
0000
0110
0000
0000
1010
0000
,
1000
0000
0000
0100
0000
0000
0001
0000
0101
0000
0000
0110
0000
0000
1100
0000
,
1000
0001
0010
0001
0100
0001
0010
0001
,
2000
3020
0032
0203
2300
3020
0032
0203
,
1300
0001
0110
1001
,
1000
0000
0100
0000
1000
0000
0001
0100
0001
0000
1000
0100
1000
0000
0001
0000
,
0020
0000
0130
1000
0100
1000
0001
0001
,
0100
0000
0000
0000
0010
0000
0000
0000
1010
0000
0000
1010
0000
0000
0101
0000
,
0001
1000
0100
0010
0001
0100
0010
1000
,
0100
0000
0010
0000
0001
0000
1000
0100
1000
0000
0001
0100
0001
0000
1000
0000
,
0020
0000
0130
0001
0100
0001
1000
1000
,
0100
0000
0010
0000
0001
0010
0001
0000
0011
0000
0000
0011
0000
0000
1100
0000
,
1000
0100
0001
1000
0010
0001
1000
0010
,
0001
1000
0100
0001
1000
0100
0110
0000
,
0001
0010
1000
0001
0100
1000
0001
0100
,
1000
0000
0001
0000
0010
0000
1000
0000
1010
0000
0000
1010
0000
0000
0101
0000
,
0001
1000
0100
0010
0001
0100
0001
1000
,
0100
0010
0001
0100
0001
1000
0010
1000
,
0001
0010
0010
0010
1000
0010
0001
0100
,
1000
0000
0000
0000
0000
0000
0000
0000
0110
0000
0000
0100
0000
0000
0010
0000
,
2000
0000
0000
3001
0000
1000
0100
0020
,
0000
0100
0000
2030
0000
0000
3020
0000
,
0032
0000
0000
0010
0000
0000
1000
0000
,
0103
0000
0000
0000
0000
0000
0000
0000
0001
0000
0000
0100
0000
0000
0001
0000
,
2000
0000
0000
0000
0000
0000
3100
0000
0000
0000
0010
0000
0000
0001
0000
0000
,
2000
0000
0000
3020
0000
0000
0100
0000
,
0031
0000
0000
0010
0100
0010
0100
0000
0000
0001
0100
0010
,
2000
0000
0000
0000
3010
0000
0000
0000
0002
0000
0000
0000
0013
0100
1000
0001
,
0020
0000
0030
1001
0000
0000
1000
0100
,
0010
0000
0012
0000
0000
0000
1003
0000
0010
0000
0100
0000
0001
0100
0010
0100
,
0002
0000
0003
0110
0000
1000
0100
0100
,
0000
0000
0012
0000
0000
0000
1003
0000
0010
0000
0000
0010
0000
0000
0010
0000
,
0100
0000
1001
0000
0001
0011
0000
1000
,
1010
0000
0000
0011
0000
0000
1010
0000
0000
0011
0000
0000
0001
1000
0001
1000
,
0001
0100
0100
0100
1000
0100
0001
0010
,
1000
0000
0010
0010
0100
0000
1001
0000
,
0010
0000
0000
0000
1001
0000
0000
1000
0100
0000
0000
0100
0000
0000
0100
0000
,
0010
0000
0000
0000
1001
0000
0000
0001
0100
0000
0000
0100
0000
0000
0100
0000
,
0010
0000
0000
0000
1001
0000
0000
1000
0100
0000
0000
0100
0000
0000
0010
0000
,
0001
0000
1000
0000
0001
0000
0010
0000
0001
0000
1000
0010
0100
0000
0010
0000
,
1000
0000
0001
0000
0010
0000
1000
0000
1010
0000
0000
0110
0000
0000
0011
0000
,
0001
0000
1000
0000
0010
0000
0001
0000
0011
0000
0000
0110
0000
0000
1010
0000
,
1000
0001
0010
1000
0002
0203
2300
3020
,
0030
0100
0000
0001
1002
0013
0010
0000
,
0001
0000
1000
0100
0010
0000
0001
0000
1000
0100
0010
0000
0001
0000
0100
0000
,
0000
0110
0000
1001
0000
1000
0010
0100
,
0001
0000
1000
0100
0010
0000
0100
0000
0001
0100
0010
0000
0001
0000
1000
0000
,
0000
1010
0000
0011
0000
0001
1000
0100
,
0010
0000
0001
0000
1000
0001
1000
0000
0010
0000
0100
0000
0001
0000
0100
0000
,
1000
0000
0000
0000
1100
0000
0100
0000
0002
0000
0000
0023
0000
0000
0230
0000
,
1300
0000
0000
1000
0000
0000
0001
0000
0200
0000
0000
0320
0000
0000
2030
0000
,
3002
0000
0000
0000
0013
0000
0000
0000
0110
0000
0000
0110
0000
0000
0100
0000
,
1000
0000
0001
0100
0010
0000
1000
0000
0001
0100
0010
0000
1000
0000
0100
0000
,
0000
0000
0110
0000
0000
0000
1001
0000
0000
0000
0001
0000
0100
0010
0100
0020
,
0000
0000
0030
0000
1001
0000
1000
0000
0100
0010
1000
0000
0010
0000
0001
0000
,
0000
0011
0000
1010
0000
1000
0001
0100
,
0010
0000
1000
0000
0100
0000
0010
0000
0011
0000
0000
0011
0000
0000
1100
0000
,
1000
0000
0001
0000
0100
0000
1000
0000
1100
0000
0000
1100
0000
0000
0110
0000
,
0010
0000
1000
0000
0001
0010
0100
1000
0001
0000
0100
0010
0000
1000
0100
0000
,
0010
0000
0010
0000
0001
0000
1000
0010
0000
1000
0010
0000
0100
0000
0001
0000
,
0010
0000
1001
0001
0010
0100
0001
0100
,
1000
0001
1000
0010
0001
0010
0100
0001
,
1000
0000
0100
0000
0001
0000
0100
0010
0000
0100
0010
0000
0001
0000
1000
0010
,
0000
0100
0001
0000
1000
0000
0100
0000
0001
0000
0000
0101
0000
0000
2100
0000
,
0000
0001
3001
0100
0010
1000
0001
0010
,
1000
0000
0010
0100
0000
0010
0100
0000
1000
0000
0001
0100
0000
0010
1000
0000
,
0002
0000
0013
0100
1000
0001
0010
0001
,
0100
0000
0100
0000
0000
0000
0010
0000
1010
0000
0000
0011
0000
0000
1010
0000
,
1000
0010
0000
0100
0001
0000
1000
0000
0100
0000
0010
0000
1000
0000
0010
0000
,
0001
0000
1000
0010
0000
1000
0010
0000
0100
0000
0000
0110
0000
0000
1001
0000
,
0001
0010
1000
0010
0100
0010
1000
0010
,
0001
0000
0100
0000
0010
0000
0000
0000
1000
0000
1001
0000
0000
0000
0001
0100
,
0001
0000
1000
0000
0100
0000
0010
0000
0001
0000
1000
0010
0000
0100
0001
0000
,
0100
0010
0000
0100
0010
0000
1000
0001
0000
1000
0001
0000
1000
0100
0010
0001
,
1000
0010
0010
0001
0010
0010
1000
0100
,
0010
0000
0001
0000
0100
0000
0010
0000
1000
0010
1000
0000
0001
0010
0100
1000
,
0002
0000
0000
0100
0000
0000
2003
0000
,
0000
0000
3000
0000
,
0002
0000
0000
0010
0000
0000
2003
0000
,
0000
0000
0000
0000
3001
0100
0010
1000
,
0001
0010
0100
0010
1000
0010
0100
1000
,
0001
0000
0100
0000
0010
0000
0100
0000
2000
0000
0000
3200
0000
0000
0301
0000
,
1000
0000
0000
1000
0000
0000
0100
0000
0010
0000
0001
0000
0100
0000
0010
0000
,
0110
0110
0000
0000
0000
0000
1001
0000
,
0001
0000
0010
0001
0100
0000
0001
0000
0010
0001
0100
0000
0000
0000
0110
0000
,
0000
0000
1010
0000
0000
0011
0000
0000
0101
0000
0000
1100
0000
0000
1000
0001
,
1000
0000
0001
0010
0100
0000
1000
0000
0001
0010
0100
0000
0010
0000
1000
0000
,
0000
0000
1010
0000
0000
0011
0000
0000
0101
0000
0000
1100
0000
0000
1000
0000
,
0001
0010
1000
0001
0100
1000
0001
0100
,
1000
0000
0001
0000
0010
0000
0100
0000
0110
0000
0000
0110
0000
0000
1001
0000
,
1000
0000
0001
0000
0010
0100
1000
0001
0010
0000
0100
1000
0000
0010
0100
0000
,
0101
0000
0000
1010
0000
0000
2001
0000
0000
0000
0000
0000
3200
0000
0000
0000
,
0310
0000
0010
0000
0001
1000
0100
1000
0010
0000
0010
0000
0000
0000
0110
0000
,
0000
0000
0101
0000
0000
1100
0000
0000
0101
0000
0000
1100
0000
0000
1001
0000
;

//--------------- dance-single - ----------------
#NOTEDATA:;
#STEPSTYPE:dance-single;
#DESCRIPTION:;
#DIFFICULTY:Challenge;
#METER:18;
#RADARVALUES:0,0,0,0,0;
#OFFSET:0.967;
#BPMS:0.000=186.000;
#SPEEDS:0.000=1.000=0.000=0,
372.000=1.333=12.000=0
;
#SCROLLS:0.000=1.000,
132.000=0.750,
164.000=1.000,
356.000=0.750
;
#CREDIT:Talkion;
#NOTES:
0000
0000
0000
0000
,
0000
0000
0000
0000
,
0000
0000
0000
0000
,
0000
0000
0000
0000
,
0000
0000
0000
0000
,
1100
0000
0000
0000
0101
0000
0000
0120
,
0000
0000
1030
0000
0001
0000
0000
0010
0000
0010
0100
0000
0000
0000
1000
0000
,
0001
0000
0001
0000
0100
0000
0010
0100
0000
0010
0100
0000
0001
0000
1000
0000
,
0100
0000
0000
0000
0000
0000
0010
0000
0000
0000
0000
0000
0001
0000
0000
0000
0000
0000
0100
0000
0010
0000
0100
0000
0010
0000
0000
1000
0000
0000
0001
0000
0000
1000
0000
0000
0100
0000
0000
0000
0000
0000
0100
0000
0000
0010
0000
0000
,
0001
0000
0000
0000
1100
0000
0000
0000
0010
0000
0000
0010
0000
0000
0001
0000
,
0100
0000
0000
0000
1010
0000
0000
0000
0100
0000
0000
0100
0000
0000
0001
0000
,
0010
0000
0000
0000
1100
0000
0000
0000
0010
0000
0000
0010
0000
0000
0001
0000
,
0100
0000
0000
0000
1010
0000
0000
0000
0100
0000
0000
0100
0000
0000
0001
0000
,
0010
0000
0100
1000
0000
0100
1000
0000
1010
0000
0000
0011
0000
0000
1010
0000
,
0010
0000
0100
0001
0000
0100
0001
0000
0011
0000
0000
1010
0000
0000
0011
0000
,
0001
1000
0100
1000
0001
1000
0010
1000
0001
1000
0100
0010
0001
1000
0100
1000
,
0010
0000
0100
0010
1000
0000
0100
0010
0001
0000
0100
0010
1000
0001
0010
0100
,
1000
0001
0110
1001
,
1000
0000
0100
0000
1000
0000
0100
0100
0001
0000
0100
0100
1000
0000
0001
0000
,
0200
0000
0000
0000
0310
0000
1000
0000
0010
0000
1000
0000
0001
0000
0010
0100
,
1000
0000
0001
0000
1000
0000
0000
0000
1010
0000
0000
1010
0000
0000
0101
0000
,
0001
0000
1000
0100
1000
0000
0001
0100
0010
0000
1000
0100
0010
0000
0001
0100
,
0010
0000
1000
0000
0001
0000
0100
0100
1000
0000
0100
0100
0001
0000
1000
0000
,
0200
0000
0000
0000
0310
0000
0001
0000
0010
0000
0001
0000
1000
0000
0010
0100
,
0001
0000
1000
0100
0010
0001
0100
0000
0110
0000
0000
0110
0000
0000
1001
0000
,
1100
0000
0001
0000
0010
0000
0110
0000
1000
0000
0010
0000
0110
0000
0001
0010
,
0100
0000
1001
0000
0010
0001
0100
0000
1001
0000
0010
1000
0100
0000
0000
0000
,
0011
0000
1000
0000
0100
0000
0110
0000
0001
0000
0100
0000
0110
0000
1000
0100
,
0010
0000
1001
0000
0100
1000
0010
0000
0110
0000
0000
0110
0000
0000
1001
0000
,
1000
0000
0100
0000
0010
0000
0001
0000
1000
0010
1000
0000
0001
0010
0001
0000
,
1000
0000
0100
0000
0010
0000
0001
0000
1000
0100
1000
0000
0001
0100
0001
0000
,
0100
0010
1000
0000
1000
0000
1000
0000
0001
1000
0010
0100
0001
0010
0100
1000
,
0001
0000
0000
0000
0000
0000
0000
0000
0110
0000
1000
0010
0100
0010
0100
0001
,
2000
0000
0000
3001
0000
1000
0100
0020
,
0000
0100
0000
2030
0000
0000
3020
0000
,
0032
0000
0000
0010
0000
0000
1000
0000
,
0103
0000
0000
0000
0000
0000
0000
0000
0001
0000
0000
0100
0000
0000
0001
0000
,
2000
0000
0000
0000
0000
0000
3100
0000
0000
0000
0010
0000
0000
0001
0000
0000
,
2000
0000
0000
3020
0000
0000
0100
0000
,
0031
0000
0000
0010
0100
0001
1000
0100
0010
0001
0010
0100
,
1000
0000
0000
0000
0000
0000
0000
0000
0000
0000
0000
0000
0001
0000
0000
0000
0100
0000
0000
0000
0010
0000
0000
0000
1000
0000
0000
0000
0000
0000
0000
0000
0000
0000
0000
0000
0001
0000
0000
0010
0000
0000
0100
0000
0000
1000
0000
0000
,
0001
0000
0000
0000
0000
0000
0101
0000
0000
0000
0000
0000
1000
0000
0100
0010
,
0001
0000
0000
1002
0000
0000
0000
0000
0000
0000
0000
0000
0103
0000
0000
0010
0100
0010
0100
0000
0000
0001
1000
0001
,
1000
0000
0000
1100
0000
0000
0110
0110
,
0000
0000
2001
0000
0000
0000
0000
0000
3010
0000
0000
0010
0000
0000
0010
0000
,
0100
0000
0000
0000
0000
0000
1001
0000
0000
0000
0000
0000
0001
0000
0000
0011
0000
0000
0000
0000
0000
1000
0010
1000
,
0010
0000
0000
0000
0000
0000
0000
0000
0000
1010
0000
0000
0000
0000
0000
0000
0000
0000
0101
0000
0000
0000
0000
0000
0000
0000
0000
1001
0000
0000
0000
0000
0000
0000
0000
0000
1000
0000
0000
0001
0000
0000
0010
0000
0100
0000
0010
0000
,
0100
0000
1000
0000
1000
0000
1000
0000
0001
1000
0010
0100
0001
0010
0100
1000
,
0001
0000
0000
0000
0100
0000
0100
0000
0010
0100
0001
0000
0010
0000
0000
0000
,
1100
0000
0000
0000
0101
0000
0000
1000
0010
0000
0000
0010
0000
0000
0100
0000
,
0101
0000
0000
0000
1100
0000
0000
0001
0010
0000
0000
0010
0000
0000
0100
0000
,
1100
0000
0000
0000
0101
0000
0000
1000
0010
0000
0000
0010
0000
0000
0100
0000
,
0001
0000
0000
0000
0000
0000
1000
0000
0000
0000
0000
0000
0001
0000
0000
0000
0000
0000
0010
0000
0100
0000
0010
0000
0100
0000
0000
0000
0000
0000
0010
0000
0000
0001
0000
0000
1000
0000
0000
0010
0000
0000
0100
0000
0000
0000
0000
0000
,
0001
0000
1000
0000
0100
0000
0010
0100
1000
0000
0001
0100
0000
0010
1000
0000
,
1001
0000
0001
0000
0100
0000
0010
0100
0001
0000
1000
0100
0000
0010
0001
0000
,
1000
0000
0010
0100
0001
1000
0100
0000
1000
0001
0100
0010
1000
0001
0010
0100
,
1000
0000
0000
0000
0000
0000
0000
0000
0110
0000
0001
1000
0000
0010
0100
0000
,
0001
0000
1000
0100
0010
0001
0100
0000
1000
0001
0010
0001
0100
0000
0101
0000
,
0000
0000
1100
0000
0000
0000
1001
0000
0001
1000
0010
0100
0001
1000
0100
0010
,
0001
0000
1000
0010
0100
0001
0010
0000
1000
0001
0100
0010
0001
0000
0011
0000
,
0000
0000
1010
0000
0000
0000
1001
0000
0001
1000
0100
0000
0010
0000
0001
0100
,
0010
0000
1000
0000
0001
1000
0010
0100
0001
0000
1000
0100
0010
0001
1000
0010
,
0100
0000
0001
0000
1000
0000
0100
1000
0010
0000
0000
0100
0000
0000
0001
0000
,
1000
0000
0100
0010
0000
0100
0010
0000
0002
0000
0000
0010
0000
0000
1003
0000
,
1010
0000
0010
0000
0100
0001
0000
0100
0001
0000
1000
0010
1000
0001
0010
0001
,
1000
0000
0001
0100
0010
1000
0100
0000
0001
1000
0010
1000
0100
0000
1100
0000
,
0000
0000
0101
0000
0000
0000
1001
0000
1000
0001
0010
0100
1000
0001
0100
0010
,
1000
0000
0001
0010
0100
1000
0010
0000
0001
1000
0100
0010
1000
0000
1010
0000
,
0000
0000
0011
0000
0000
0000
1001
0000
1000
0010
0100
0000
1000
0000
0100
0000
,
0001
0000
1000
0000
0100
0000
0010
0000
0011
0000
1000
0010
0000
1000
0010
0100
,
0001
0000
1000
0000
0100
0000
0010
0000
0011
0000
0000
0011
0000
0000
1100
0000
,
1000
0000
0001
0100
0001
1000
0010
0100
1000
0000
0001
0010
0000
1000
0100
0000
,
0010
0000
0010
0001
0000
1000
0010
0100
0001
1000
0001
1000
0100
0000
0100
0000
,
0010
0000
0000
0000
1001
0000
0001
0010
0100
0000
1000
0000
0001
0100
0010
1000
,
0001
0000
1000
0100
1000
0000
0001
0100
0010
0100
0010
1000
0001
0000
1000
0100
,
0010
0100
1000
0000
0001
0000
0010
0100
0000
0010
0100
0000
1000
0001
0100
0010
,
0000
0100
0010
0000
1000
0000
0001
0010
0100
0000
0000
1100
0000
0000
0011
0000
,
0001
1000
0100
1000
0001
0000
1000
0010
0100
0000
0001
0000
1000
0010
0100
0001
,
1000
0000
0001
0010
0000
1000
0010
0000
0001
0000
1000
0010
0000
0001
0010
0000
,
2000
0000
0000
0000
3100
0000
0010
0100
1000
0000
0001
0100
0010
0100
0010
1000
,
0001
0000
0010
0100
0000
1000
0001
0000
1000
0010
1000
0001
0010
0001
1000
0010
,
0100
0001
0000
0001
1000
0000
0100
0010
0001
0000
1000
0000
0100
0010
0001
1000
,
0010
0000
0100
0010
0000
0100
0010
0000
1010
0000
0000
0101
0000
0000
1001
0000
,
1000
0100
0010
0000
0001
0100
0010
0000
1000
0100
0010
0100
1000
0001
0100
0010
,
1000
0000
0001
1000
0100
1000
0001
0000
0101
0000
1010
0000
0000
0000
1010
0000
,
1001
0000
0001
0000
0010
0000
0100
0000
1000
0100
1000
0000
0001
0100
0001
0000
,
1000
0000
0010
0000
0100
0000
0001
0000
1000
0100
1000
0100
0010
0001
0010
0001
,
1000
0000
0010
1000
0100
0000
1001
0000
0010
0001
0100
0000
1001
0000
0010
1000
,
0100
0000
1000
0100
0010
0001
1000
0010
0100
0001
0010
0001
0100
0001
0010
0001
,
2000
0000
0000
0010
0000
0000
3002
0000
,
0000
0000
0003
0000
,
2000
0000
0000
0100
0000
0000
3002
0000
,
0000
0000
0000
0000
1003
0010
0100
0001
,
1000
0100
0010
0100
0001
0100
0010
0001
,
1000
0000
0010
0000
0100
0000
0010
0000
0002
0000
0000
0023
0000
0000
1030
0000
,
0001
0000
0010
0100
0000
0010
0100
0000
1000
0000
0001
0000
0100
0000
0010
0000
,
0110
0000
0110
0000
0000
0000
0000
0000
1000
0010
0100
0001
1000
0000
0001
0010
,
0001
0000
1000
0001
0100
0001
0010
0000
1000
0001
0100
0010
0001
0000
0011
0000
,
0000
0000
0110
0000
0000
1001
0000
0000
1100
0000
0000
0101
0000
0000
1000
0010
,
0100
0000
0001
1000
0100
1000
0010
0000
0001
1000
0100
0010
1000
0000
0010
0000
,
0001
0000
1001
0000
0000
1010
0000
0000
0011
0000
0000
0101
0000
0000
1100
0000
,
1000
0100
0010
0001
0100
0000
1000
0100
0010
0001
0100
0000
0001
1000
0010
1000
,
0001
0100
0010
1000
0100
0000
0001
0100
1000
0000
0001
0010
0000
1000
0100
0000
,
0010
0000
0010
0001
1000
0010
0100
0001
1000
0100
0010
1000
0010
0100
1000
0001
,
0010
0000
0000
0110
0000
0000
1002
0000
0000
0000
0000
0000
0203
0000
0000
0000
,
0310
0000
0010
0000
0100
0010
1000
0100
0010
0000
0010
0000
0000
0000
0110
0000
,
0000
0000
0101
0000
0000
1100
0000
0000
0101
0000
0000
1100
0000
0000
1001
0000
;
