#VERSION:0.83;
#TITLE:ARMAGEΔDON;
#SUBTITLE:;
#ARTIST:BlackY;
#TITLETRANSLIT:ARMAGEADON;
#SUBTITLETRANSLIT:;
#ARTISTTRANSLIT:;
#GENRE:;
#CREDIT:;
#MUSIC:ARMAGEADON.ogg;
#BANNER:ARMAGEADON.png;
#BACKGROUND:ARMAGEADON-bg.png;
#CDTITLE:;
#SAMPLESTART:86.058;
#SAMPLELENGTH:15.000;
#SELECTABLE:YES;
#OFFSET:-0.163;
#BPMS:0.000=190.000;
#STOPS:;
#BGCHANGES:;
#FGCHANGES:;

//--------------- dance-single - Marten ----------------
#NOTEDATA:;
#STEPSTYPE:dance-single;
#DESCRIPTION:Marten;
#DIFFICULTY:Medium;
#METER:13;
#RADARVALUES:0,0,0,0,0;
#NOTES:
0000
0000
0000
0000
,
0000
0000
0000
0000
,
0000
0000
0000
0000
,
0000
0000
0000
0000
,
0000
0000
0000
0000
,
1000
0010
0100
0010
1000
0100
0010
0000
,
0001
0010
0100
0010
0001
0100
0010
0000
,
1000
0100
0001
0100
1000
0100
0001
0100
,
2000
0000
0000
3000
,
0020
0000
0000
0000
,
0200
0000
0330
0000
0100
0110
0000
0000
,
1010
0000
0020
0000
1030
1000
0100
0000
,
0010
0001
0100
0101
0000
1001
0000
1100
,
0000
0000
2000
0000
3001
0001
0010
0000
,
0001
0001
0100
0010
1000
1000
0100
0110
,
0000
0000
0020
0000
0031
0001
0100
0000
,
0010
1000
0100
1100
0000
1001
0000
0101
,
0000
0000
0002
0000
1003
1000
0010
0000
,
1000
1000
0001
0001
0010
0110
0000
0000
,
2100
0000
0000
0000
0000
0000
3002
0000
0000
0000
0000
0103
0000
0000
0100
0000
,
0102
0000
0000
0000
0000
0000
1003
0000
0000
0010
0000
0010
0000
0000
1000
0000
,
2100
0000
0000
0000
0000
0000
3010
0000
0000
0000
0100
0000
0000
0100
0000
0000
,
0101
0000
0000
0001
0000
1000
0000
0000
0100
0000
0100
0000
0000
0000
0000
0000
,
0010
0001
1000
0001
0010
0001
1000
0001
,
0100
0010
1000
0001
1000
0010
1000
0100
,
0010
0001
0010
0100
1000
0001
1000
0000
0000
0010
0000
0000
,
0100
0100
0000
0000
0000
0000
0110
0000
,
0010
0000
2000
0000
0000
3200
0000
0000
0320
0000
0000
0032
0000
0000
1003
0000
,
0020
0000
0000
2030
0000
0000
3002
0000
0000
0000
0013
0000
0001
0000
0100
0000
,
0001
0000
0020
0000
0000
0032
0000
0000
0203
0000
0000
0320
0000
0000
1030
0000
,
0200
0000
0000
2300
0000
0000
3020
0000
0000
0000
0130
0000
0010
0000
1000
0000
,
0002
0010
1000
0100
,
2003
0010
0001
3100
,
1000
0100
1000
0100
0001
0100
0001
0100
,
1000
0010
0100
0001
0010
0100
1000
0001
,
0000
0000
0000
0000
1001
0000
0000
0000
0020
0000
0000
2030
0000
0000
3001
0000
,
0020
0000
0000
0032
0000
0000
2003
0000
0000
0000
3010
0000
1000
0000
0100
0000
,
1000
0000
0020
0000
0000
2030
0000
0000
3200
0000
0000
0320
0000
0000
0031
0000
,
0200
0000
0000
0302
0000
0000
0023
0000
0000
0000
0130
0000
0010
0000
0001
0000
,
2000
0100
0100
0000
0001
0000
3010
0000
,
1000
0001
0001
0001
0100
0010
0100
0000
,
0001
0010
0001
0010
1000
0010
1000
0010
,
0002
0000
0000
1003
,
2200
0000
0000
0000
3300
0000
0000
0000
0101
0000
0000
0101
0000
0000
0202
0000
,
0000
0000
0000
0000
0303
0000
0000
0000
0011
0000
0000
0011
0000
0000
0022
0000
,
0000
0000
0000
0000
0033
0000
0000
0000
1010
0000
0000
1010
0000
0000
2010
0000
,
0000
0001
0100
3010
,
0000
0000
0000
0000
1001
0000
0000
0000
0101
0000
0000
1100
0000
0000
0202
0000
,
0000
0000
0000
0000
0303
0000
0000
0000
1010
0000
0000
0011
0000
0000
2020
0000
,
0000
0000
0000
0000
3030
0000
0000
0000
1001
0000
0000
0110
0000
0000
2002
0000
,
0000
0000
0000
0000
,
0000
0000
0000
3003
,
0002
0000
0000
0000
,
0023
0000
0000
0000
,
0230
0000
0000
0000
,
2300
0000
0000
0000
,
3001
0000
0000
0000
0010
0000
0001
0000
0010
0000
0100
0000
,
1000
0000
0000
0000
0010
0000
1000
0000
0010
0000
0100
0000
,
0002
0023
2030
3020
,
0032
0203
0320
1030
,
1001
0000
0000
1100
0000
0000
0110
0000
,
0010
0000
0000
0001
0000
0000
1001
0000
0000
0000
0000
0000
1000
0000
0000
0000
,
1010
0000
0000
0011
0000
0000
1001
0000
,
0000
0000
0001
0000
0000
0010
0000
0000
0100
0000
0000
1000
0000
0000
0001
0000
,
1000
0010
1000
0100
1000
0010
1000
0100
,
0010
0001
0100
0001
0010
0001
0100
0010
,
1000
0100
0010
0001
0000
0000
1000
0010
0100
0001
0000
0000
,
0010
0010
0000
0000
0000
0000
0110
0000
,
1001
0000
0001
0100
0010
0100
0001
1000
,
0100
0000
0000
0010
0000
0000
0001
0000
1000
0000
0010
0000
1000
0000
0100
0000
,
1000
0000
0000
0000
0001
0000
0000
0010
0000
0100
0000
0000
0010
0000
0001
0000
,
1000
0000
0000
0010
0000
0000
0100
0000
0001
0000
0000
1000
0000
0000
0001
0000
,
0010
0000
0001
1000
0100
1000
0001
0010
,
0100
0000
0000
0010
0000
0000
0001
0000
0000
0100
0000
0000
0010
0000
1000
0000
,
0010
0000
0000
0100
0000
0000
0001
0000
2002
0000
0000
0000
3003
0000
0000
0000
,
0120
0000
0000
0000
0000
0000
0000
0000
0100
0000
0000
0100
0000
0000
0130
0000
,
0000
0000
1001
0000
0001
0010
1000
0010
,
0001
0000
0000
1000
0000
0000
0010
0000
0100
0000
0001
0000
0100
0000
0010
0000
,
0000
0000
0110
0000
0010
1000
0100
0010
,
0100
0000
0000
1000
0000
0000
0001
0000
0010
0000
0000
0100
0000
0000
1000
0000
,
0001
0000
0000
0001
0000
0000
0001
0000
1000
0000
0000
1000
0000
0000
1000
0000
,
0000
0010
0000
0000
0010
0000
0100
0000
0001
0000
0010
0000
0100
0000
1000
0000
,
0001
0010
0001
0010
1000
0010
1000
0010
,
0002
0000
0000
1003
,
0001
0010
0100
1000
0001
1000
0100
1000
,
0010
0100
0001
0100
0010
1000
0100
0010
,
0001
0010
0100
1000
0001
0010
0100
1000
,
0001
0000
0100
0000
1000
0000
0100
0000
0001
0000
0000
0001
0000
0000
0001
0000
,
1000
0010
1000
0100
1000
0001
1000
0100
,
0010
0001
0100
0001
1000
0001
0010
0100
,
2000
0000
3002
0000
,
0023
0000
0200
0330
,
2200
0000
0000
0000
3300
0000
0000
0000
0101
0000
0000
0101
0000
0000
0202
0000
,
0000
0000
0000
0000
0303
0000
0000
0000
1010
0000
0000
1010
0000
0000
2020
0000
,
0000
0000
0000
0000
3030
0000
0000
0000
0011
0000
0000
0011
0000
0000
0012
0000
,
0000
0010
1000
0103
,
0001
0000
0100
0000
0001
0000
0010
0000
0100
0000
0000
0100
0000
0000
0200
0000
,
0000
0000
1300
0000
0010
0000
0100
0000
0010
0000
0000
0010
0000
0000
0020
0000
,
0000
0000
0000
0000
1030
0000
0001
0000
1000
0000
0000
0110
0000
0000
2002
0000
,
0000
0000
3003
0000
;

//--------------- dance-single - Marten ----------------
#NOTEDATA:;
#STEPSTYPE:dance-single;
#DESCRIPTION:Marten;
#DIFFICULTY:Hard;
#METER:15;
#RADARVALUES:0,0,0,0,0;
#NOTES:
0000
0000
0000
0000
,
0000
0000
0000
0000
,
0000
0000
0000
0000
,
0000
0000
0000
0000
,
0000
0000
0000
0000
,
1000
0000
0100
0000
0010
0000
0100
0000
0001
0000
0100
0000
1000
0000
0001
1000
,
0001
0000
0100
0000
0010
0000
0100
0000
1000
0000
0100
0000
0001
0000
1000
0001
,
1000
0000
0100
0000
0010
0000
0001
0000
0100
0010
0100
0010
0100
0010
0100
0010
,
2000
0000
0000
3000
,
2002
0000
0000
3000
,
0020
0000
0033
0000
0010
0110
0000
0000
,
1100
0000
1000
0100
0010
0010
0001
0100
,
0001
1000
0001
0000
0100
0000
0110
0000
0000
0000
0101
0000
0000
0000
1001
0000
,
0000
0001
0010
0100
1000
1000
0100
1000
,
0010
0100
0010
0000
1000
0000
0001
0000
0010
0100
0010
0000
0001
0000
1000
0000
,
0001
0000
0010
0000
0001
0001
0100
0010
,
1000
0100
1000
0000
0010
0000
1010
0000
0000
0000
0101
0000
0000
0000
0110
0000
,
0000
0100
0001
0010
0100
0100
1000
0001
,
0010
0001
0010
0000
0100
1000
0100
0000
1000
0000
1001
0000
0000
0000
0000
0000
,
1200
0000
0000
0000
1300
0000
0010
0000
0100
0000
0001
0100
0000
0000
0001
0000
,
0102
0000
0000
0000
0013
0000
0100
0000
1000
0010
0000
0010
0000
0000
1000
0000
,
2010
0000
0000
0000
3010
0000
0100
0000
0001
0010
0000
0100
0010
0000
0001
0000
,
0020
0000
0031
1000
0000
1000
0010
0000
0100
0000
0110
0000
0000
0000
0000
0000
,
1000
0100
0010
0001
1000
0100
0010
0001
,
1000
0010
0100
0001
1000
0010
0100
0001
,
1000
0000
0000
0000
0100
0000
0000
0000
1000
0000
0000
0000
0001
0000
0000
0000
0100
0000
0000
0000
0001
0000
0000
0000
1000
0000
0000
0010
0000
0000
1000
0000
0000
0000
0000
0000
0001
0000
0000
0010
0000
0000
0001
0000
0000
0000
0000
0000
,
1000
1001
0000
0000
0000
0000
0110
0000
,
1001
0000
0002
0000
0000
0023
0000
0000
2030
0000
0000
3020
0000
0000
0031
1000
,
0002
0000
0000
0203
0000
0000
0320
0000
0000
0000
1030
0000
0100
0000
0010
0000
,
0100
0000
2000
0000
0000
3020
0000
0000
0032
0000
0000
0023
0000
0000
1030
0001
,
2000
0000
0000
3200
0000
0000
0320
0000
0000
0000
0031
0000
0100
0001
0100
0001
,
0020
1000
0001
0130
,
0010
0001
1000
0010
0001
0010
1000
1000
,
0001
0100
0010
0001
0010
1000
0100
0010
,
1000
0010
0001
1000
0010
0100
0001
1000
,
0000
0000
0000
0000
0001
0100
0000
0100
0010
0000
0010
2000
0000
0000
3100
1000
,
0200
0000
0000
0320
0000
0000
0032
0000
0000
0000
1003
0000
0010
0000
0010
0000
,
1000
0000
0001
0000
1000
0100
0000
0100
0010
0000
0010
0002
0000
0000
0103
0001
,
0100
0000
0000
0110
0000
0000
2010
0000
0000
0000
3001
0000
1000
0000
0010
0100
,
0020
0100
0100
0000
0001
0000
1030
0000
,
0001
0010
0010
0010
0100
0001
0100
1000
,
0001
0000
0100
0000
0010
0000
1000
0000
0001
1000
0001
1000
0100
0010
0100
0010
,
0002
0000
2000
3003
,
0022
0000
0000
0000
0033
0000
0000
0000
0011
0000
0000
1001
0000
0000
2020
0000
,
0000
0000
0000
0000
3030
0000
0000
0000
1010
0000
0000
1001
0000
0000
0202
0000
,
0000
0000
0000
0000
0303
0000
0000
0000
0101
0000
0000
1001
0000
0000
1200
0000
,
0000
1300
0100
0001
0100
0010
0001
0100
,
0000
0000
0000
0000
2002
0000
3003
0000
0011
0000
0000
1010
0000
0000
0012
0000
,
0000
0000
0013
0000
0001
1000
0000
0000
1100
0000
0000
0101
0000
0000
2100
0000
,
0000
0000
3010
0000
0100
0000
0001
1000
0001
0000
0000
0110
0000
0000
2002
0000
,
0000
0000
0000
0000
,
0000
0000
0000
3003
,
2000
0000
0010
0000
,
3020
0000
0100
0000
,
0230
0000
0001
0000
,
0302
0000
1000
0000
,
1003
0000
0000
0000
0100
0000
0010
0000
0001
0000
1000
0001
,
1000
0000
0010
0000
0100
0010
0100
0000
0001
0000
0010
0000
,
0100
1000
0100
1000
0000
0000
0001
0100
0001
0100
0000
0000
,
0002
0023
0230
1300
,
2002
0000
3003
1200
0000
0000
0310
0000
,
0011
0000
0000
1001
0000
0000
0201
0000
0000
0000
0000
0000
0310
1000
0010
0000
,
2020
0000
3030
0022
0000
0033
2002
0000
,
3003
0000
0001
0000
0000
1000
0000
0000
0010
0000
0000
0100
0000
0000
0001
0000
,
1001
1000
0100
1000
0010
1000
0010
1000
,
0001
0100
0001
0100
0001
0010
0001
0010
,
0100
0000
0000
0000
1000
0000
0000
0000
0100
0000
0000
0000
1000
0000
0000
0000
0001
0000
0000
0000
1000
0000
0000
0000
0010
0000
0000
0100
0000
0000
0010
0000
0000
0000
0000
0000
1000
0000
0000
0001
0000
0000
1000
0000
0000
0000
0000
0000
,
0100
0000
0100
0000
0000
0000
0000
0000
0000
0000
0010
0001
1000
0000
0000
0000
,
1010
0000
0000
0000
1000
0000
0001
0010
0000
0001
0000
0100
0001
0000
1000
0000
,
0010
0000
0000
0110
0000
0000
0100
0010
0100
0000
0001
0000
0010
0000
0100
0000
,
1000
0000
0000
0000
0001
0000
0010
0100
0000
0010
0000
0001
0100
0000
0010
0000
,
1000
0000
0000
1001
0000
0000
1000
0100
1000
0100
0000
0010
0000
0000
0001
0000
,
1000
0000
0000
0000
0010
0000
0100
0001
0000
1000
0000
0001
0010
0000
0001
0000
,
1000
0000
0000
0010
0000
0000
0010
1000
0000
0100
0010
0000
0001
1000
0001
1000
,
0200
0000
0000
2300
0000
0000
3001
0000
0200
0000
0000
0000
0300
0000
0000
0000
,
0110
0000
0000
0000
0000
0000
0000
0000
0100
0000
0000
0100
0000
0000
0100
0000
,
0000
0000
0000
0000
1001
0000
0001
0100
0000
0010
0000
0100
0001
0000
0010
0000
,
0001
0000
0000
1000
0000
0000
0010
1000
0010
0000
0100
0000
0001
1000
0001
2000
,
0000
0000
3000
0000
1100
0000
0100
0010
0000
0001
0000
0010
0100
0000
1000
0000
,
0010
0000
0000
0100
0000
0000
0001
1000
0001
1000
0000
0100
0000
0000
0010
0000
,
0001
0000
0000
0001
0000
0000
0001
0000
1000
0000
0000
1000
0000
0000
1000
0000
,
0010
0100
0000
0010
0100
0000
0001
0000
0010
0000
0100
0000
1000
0001
1000
0000
,
0010
0100
0001
0010
0100
1000
0010
0100
,
0002
0000
0000
1003
,
0001
0100
0010
1000
0100
0010
1000
0010
,
0100
1000
0001
0100
0010
0001
0010
0100
,
0001
0010
1000
0010
0001
1000
0100
0001
,
0100
0000
1000
0000
0010
0000
0100
0000
0001
0000
1000
0100
0000
0010
0001
0000
,
1000
1000
0010
0010
0100
0100
0001
0001
,
1000
0100
0010
0001
0100
0010
1000
0001
,
1000
0010
1000
0000
0001
0000
0100
0000
0001
0010
0001
0000
0010
0000
0100
0000
,
2000
0000
0002
3003
,
0202
0000
0000
0000
0303
0000
0000
0000
0101
0000
0000
0011
0000
0000
2200
0000
,
0000
0000
3300
0000
0000
0000
0000
0000
1100
0000
0000
0101
0000
0000
2020
0000
,
0000
0000
3030
0000
0000
0000
0000
0000
1010
0000
0000
1100
0000
0000
0012
0000
,
0000
1003
0010
0001
0010
0100
0001
1000
,
0020
0000
0000
0000
1030
0000
0100
1000
0200
0000
0310
0000
0001
1000
0002
0000
,
0000
0000
0103
0000
0010
0100
0010
0100
0010
0000
0000
1010
0000
0000
2100
0000
,
0000
0000
3100
0000
0010
0001
0010
0001
0010
0000
0000
0011
0000
0000
2002
0000
,
0000
3003
0000
0000
;

//--------------- dance-single - Marten ----------------
#NOTEDATA:;
#STEPSTYPE:dance-single;
#DESCRIPTION:Marten;
#DIFFICULTY:Challenge;
#METER:17;
#RADARVALUES:0,0,0,0,0;
#NOTES:
0000
0000
0000
0000
,
0000
0000
0000
0000
,
0000
0000
0000
0000
,
0000
0000
0000
0000
,
0000
0000
0000
0000
,
1000
0000
0100
0000
0001
0000
0100
0000
0010
0000
0001
0000
1000
0000
0001
0100
,
0001
0000
0100
0000
1000
0000
0100
0000
0010
0000
1000
0000
0001
0000
1000
0100
,
1000
0100
0010
0100
1000
0001
1000
0010
0100
0001
0100
0010
1000
0100
0010
0001
,
0020
0000
0000
0030
,
2002
0000
0000
0003
,
0200
0000
3300
0000
0100
0110
0000
0000
,
0011
0000
0001
1000
0010
0010
0100
0001
,
1000
0100
1000
0000
0010
0000
0100
0000
0001
1000
0001
0000
0100
0000
0120
0000
,
0000
1030
0100
0001
0100
0100
0010
0001
,
0100
0001
0100
0000
0010
0000
1000
0000
0001
1000
0001
0000
0010
0000
0010
0000
,
0001
1000
0100
1000
0010
0010
0100
0001
,
0010
0001
0010
0000
0100
0000
1000
0000
0010
0001
0010
0000
1000
0000
1020
0000
,
0000
0130
0001
0010
0100
0100
0001
0100
,
1000
0010
0100
0000
0001
0100
0010
0000
0110
0000
0202
0000
0000
0000
0303
0000
,
1002
0000
0000
0000
1003
0000
0100
0010
0001
0000
0100
0001
0000
0000
0101
0000
,
2001
0000
0000
0000
3001
0000
0100
0010
1000
0100
0000
1000
0000
0000
1100
0000
,
1002
0000
0000
0000
1003
0000
0010
0100
0001
0000
0010
0001
0000
0010
0000
0000
,
1001
0000
0001
0100
0000
1000
0100
0000
0101
0000
1100
0000
0000
0000
0000
0000
,
1001
0001
0100
0010
1000
0100
0001
0100
,
1000
0001
0100
1000
0100
0001
0010
0100
,
1000
0000
0000
0000
0010
0000
0000
0000
0001
0000
0000
0000
0010
0000
0000
0000
0100
0000
0000
0000
1000
0000
0000
0000
0100
0000
0000
0010
0000
0000
1000
0000
0000
0010
0000
0000
0100
0000
0000
0001
0000
0000
0010
0000
0000
0100
0000
0000
,
1000
0000
1001
0000
0000
0000
0001
0100
0010
0100
0001
1000
0010
0000
0000
0000
,
0110
0000
0010
0000
1000
0100
0000
0010
0100
0000
1000
0001
0000
0000
0100
0001
,
0010
0000
0001
0100
0000
0010
0200
0000
0000
0000
0301
0010
0001
1000
0001
0010
,
0100
0000
0010
0000
0001
0100
0000
0010
0100
0000
0001
1000
0000
0000
0100
1000
,
0010
0000
1000
0100
0000
0010
0002
0000
0000
0000
1003
0010
0100
0010
1000
0100
,
0020
0000
0031
0100
0001
0010
1000
0010
,
0001
1000
0100
0010
1000
0010
0100
1000
,
0010
1000
0001
0000
0010
0001
0000
0100
0001
0000
1000
0010
0000
1000
0100
0010
,
0001
0100
0010
1000
0001
0100
0010
1000
0100
0010
0001
1000
0100
0010
0001
2000
,
0000
0000
3000
0000
1000
0100
0000
0010
0100
0000
1000
0001
0000
0000
0100
0010
,
1000
0000
0100
0001
0000
0100
1000
0000
0100
0000
0010
0001
1000
0001
0010
0100
,
0010
0000
0001
0000
0100
1000
0000
0100
0010
0000
0100
0001
0000
0000
0001
1000
,
0010
0000
0000
1010
0000
0000
0012
0000
0000
0000
0013
0000
0110
0000
0100
1000
,
0002
0000
0100
0000
0103
0000
0001
0000
1000
0010
0000
0010
0100
0000
0100
0001
,
0000
0001
0010
0000
0010
0000
0010
0000
0100
0000
1000
0000
0010
0100
0001
0000
,
0010
0001
1000
0001
0100
0001
0010
0100
1000
0010
0100
0010
1000
0001
1000
0100
,
0020
0000
0000
0031
,
0201
0000
0000
0000
0301
0010
0001
0010
0001
0000
0000
0011
0000
0000
2100
0000
,
0000
0000
0000
0000
3010
1000
0100
0000
1100
0000
0000
0101
0000
0000
1020
0000
,
0000
0000
0000
0000
0130
0000
0000
0000
1010
0000
0000
1001
0000
0000
0021
0000
,
0000
0000
0031
0010
0001
1000
0010
1000
0001
0010
0100
1000
0010
0100
0001
0100
,
0000
0000
0000
0000
0220
0000
0330
0000
0101
0000
0000
0011
0000
0000
2100
0000
,
0000
0000
3100
1000
0001
1000
0100
0000
1100
0000
0000
0011
0000
0000
0102
0000
,
0000
0000
0013
0000
0100
1000
0001
0010
0100
1000
0000
1010
0000
0000
2002
0000
,
0000
0000
0000
0000
,
0000
0000
0000
3003
,
0002
0000
0010
0000
,
2003
0000
0100
0000
,
3020
0000
0001
0000
,
0230
0000
1000
0000
,
0301
0000
0000
0000
0010
0000
0001
0000
0100
0000
0010
1000
,
0010
0000
0100
0000
0001
0010
0001
0000
1000
0000
0100
0000
,
1000
0010
1000
0100
0001
0100
0010
0001
0100
1000
0100
0001
,
0020
0032
2003
3010
,
2020
0000
3030
0210
0000
0000
0301
0000
,
0011
0000
0000
0110
0000
0000
2200
0000
0000
0000
3300
0000
1000
0001
1000
0000
,
2002
0000
3003
0202
0000
0303
0220
0000
,
0330
0000
1010
0000
0000
0011
0000
0000
0101
0000
0000
1100
0000
0000
0110
0000
,
1001
0001
0100
0001
1000
0100
0010
0001
,
0100
0001
1000
0010
1000
0100
0010
0100
,
1000
0000
0000
0000
0010
0000
0000
0000
0001
0000
0000
0000
1000
0000
0000
0000
0100
0000
0000
0000
0001
0000
0000
0000
1000
0000
0000
0100
0000
0000
0010
0000
0000
0001
0000
0000
0100
0000
0000
0010
0000
0000
1000
0000
0000
0100
0000
0000
,
0010
0000
0011
0000
0000
0000
0000
0000
0000
0000
0010
0001
1000
0000
0000
0000
,
1001
0000
0000
0000
1000
0000
0010
0100
0000
0001
0000
0010
0100
0000
0010
0000
,
0011
0000
0000
1001
0000
0000
0010
1000
0010
0000
0100
0000
0001
0010
0100
1000
,
0001
0000
1000
0000
0010
0000
0100
0001
0000
0010
0000
0001
1000
0000
0010
0000
,
1010
0000
0000
1001
0000
0000
0001
0100
0001
0010
0000
0001
0100
0000
0010
0000
,
1010
0000
0000
0000
1100
0000
0100
0010
0000
1000
0000
0010
0100
0000
1000
0000
,
1010
0000
0000
0110
0000
0000
0100
0001
0000
0010
0001
0000
0010
1000
0010
0001
,
1000
0000
0000
1100
0000
0000
1000
0000
1002
0000
0000
0000
0103
0001
1000
0100
,
0020
0000
0000
0000
0030
0000
0000
0000
0011
0000
0000
1100
0000
0000
1001
0000
,
0000
0000
0000
0000
0110
0000
0010
0001
0000
0100
0000
0010
1000
0000
0001
0000
,
0011
0000
0000
1010
0000
0000
0100
0010
0100
0000
0001
0000
0100
0001
0010
0200
,
0000
0000
0300
0000
1100
0000
1000
0010
0000
0100
0000
0010
1000
0000
0001
0000
,
0011
0000
0000
1001
0000
0000
1000
0100
0001
0100
0000
1100
0000
0000
1001
0000
,
1000
0000
0010
0100
0000
0010
0001
0000
0010
1000
0000
0001
0010
0100
1000
0001
,
0000
1001
0000
0000
1000
0000
0010
0000
1010
0000
1000
0001
0000
0100
0001
0010
,
0100
1000
0001
0100
0001
1000
0100
1000
0010
1000
0001
0010
0100
0010
0001
1000
,
0200
0000
0000
1300
,
0010
0000
0100
0000
0001
0000
0010
0000
1000
0000
0010
0000
0001
0010
0100
0000
,
1000
0000
0010
0000
0001
0000
0010
0000
0100
0000
0001
0000
1000
0100
0010
0100
,
1000
0010
0100
0000
0001
0000
0100
0000
0010
1000
0100
0000
0010
0000
1000
0000
,
0010
0001
1000
0000
0010
1000
0001
0000
0100
0010
1000
0010
0100
0001
1000
0000
,
0010
0010
1000
1000
0001
0001
0010
0010
,
0001
0100
1000
0001
0010
1000
0001
1000
,
0100
0010
0001
1000
0010
1000
0100
1000
0001
0100
0010
0100
0001
1000
0100
0010
,
0001
1000
0010
0100
0010
1000
0001
0010
0100
1000
0001
0010
0100
0000
0000
0000
,
1200
0000
0000
0000
1300
0010
1000
0010
1000
0000
0000
1010
0000
0000
0102
0000
,
0000
0000
0000
0000
0013
0000
0001
0000
0011
0000
0000
0110
0000
0000
1200
0000
,
0000
0000
0310
0001
1000
0001
0100
0000
0110
0000
0000
0101
0000
0000
1002
0000
,
0000
0000
0013
0001
0010
0100
1000
0001
1000
0010
0100
0001
0010
0100
1000
0000
,
0002
0000
0103
0000
1000
0000
0100
0001
0200
0000
0301
0000
0010
0100
2000
0000
,
3000
0000
0010
0000
0100
0001
0100
0010
0100
0000
0000
0110
0000
0000
0102
0000
,
0000
0000
0013
0001
1000
0100
0010
0000
0011
0000
0000
1001
0000
0000
2200
0000
,
0000
3300
0000
0000
;
