#VERSION:0.83;
#TITLE:天火明命;
#SUBTITLE:;
#ARTIST:削除;
#TITLETRANSLIT:AMENOHOAKARI;
#SUBTITLETRANSLIT:;
#ARTISTTRANSLIT:SAKUZYO;
#GENRE:JAPANESQUE ARTCORE;
#ORIGIN:;
#CREDIT:;
#BANNER:AMENOHOAKARI.png;
#BACKGROUND:AMENOHOAKARI-bg.png;
#PREVIEWVID:;
#JACKET:AMENOHOAKARI-jacket.png;
#CDIMAGE:;
#DISCIMAGE:;
#LYRICSPATH:;
#CDTITLE:;
#MUSIC:AMENOHOAKARI.ogg;
#OFFSET:-0.387000;
#SAMPLESTART:56.515999;
#SAMPLELENGTH:15.000000;
#SELECTABLE:YES;
#BPMS:0.000=155.000;
#STOPS:;
#DELAYS:;
#WARPS:;
#TIMESIGNATURES:0.000=4=4;
#TICKCOUNTS:0.000=4;
#COMBOS:0.000=1;
#SPEEDS:0.000=1.000=0.000=0;
#SCROLLS:0.000=1.000;
#FAKES:;
#LABELS:0.000=Song Start;
#BGCHANGES:0.000=AMENOHOAKARI.avi=1.000=0=0=0=StretchNoLoop==CrossFade_Fastest==,
99999=-nosongbg-=1.000=0=0=0 // don't automatically add -songbackground-
;
#KEYSOUNDS:;
#ATTACKS:
;

//---------------dance-single - Daff_4K----------------
#NOTEDATA:;
#CHARTNAME:Daff_4K;
#STEPSTYPE:dance-single;
#DESCRIPTION:Daff_4K;
#CHARTSTYLE:;
#DIFFICULTY:Beginner;
#METER:5;
#RADARVALUES:0.198556,0.280318,0.072015,0.000000,0.000000,193.000000,183.000000,10.000000,0.000000,0.000000,0.000000,0.000000,0.000000,0.000000,0.198556,0.280318,0.072015,0.000000,0.000000,193.000000,183.000000,10.000000,0.000000,0.000000,0.000000,0.000000,0.000000,0.000000;
#CREDIT:Daff_4K;
#NOTES:
0000
0000
0000
0000
,
0000
0000
0000
0000
,
0000
0000
0000
0000
,
0000
0000
0000
0000
,
0000
0000
0000
0000
,
0000
0000
0000
0000
,
1000
0000
1000
0000
,
0001
0000
0001
0000
,
0100
0100
0100
0000
,
0010
0010
0010
0010
,
0000
1001
0000
1000
,
0000
1000
0000
1000
,
0000
0000
0000
0001
,
0000
0001
0000
0001
,
0000
0000
0100
0000
,
0100
0000
0100
0000
,
0000
0000
0010
0000
,
0010
0000
0010
0000
,
0000
0000
1000
1000
,
1000
0000
0001
0001
,
0001
0000
1000
1000
,
1000
0000
0100
0000
,
0010
0000
0100
0100
,
0100
0000
0010
0010
,
0010
0000
0100
0100
,
0100
0000
1001
0000
,
0000
0000
1000
0000
,
1000
0000
0010
0000
,
0000
0000
0100
0000
,
0100
0000
0001
0000
,
0000
0000
0001
0000
,
0001
0000
0010
0000
,
0000
0000
0100
0000
,
0100
0000
1000
0000
,
0000
0000
1001
0000
,
0000
0000
0000
0000
,
0000
0000
0001
0001
,
0001
0000
1000
1000
,
1000
0000
0010
0000
,
0100
0000
0010
0010
,
0010
0000
1000
1000
,
1000
0000
0001
0001
,
0001
0000
0010
0000
,
0010
0000
0100
0100
,
0100
0000
1000
1000
,
1000
0000
0001
0001
,
0001
0000
0010
0000
,
0100
0000
0010
0010
,
0010
0000
0001
0001
,
0001
0000
1000
1000
,
1000
0000
0010
0000
,
0010
0000
0100
0100
,
0100
0000
0001
0001
,
0001
0001
0001
0001
,
0001
0000
1000
1000
,
1000
1000
1000
1000
,
1000
0000
0010
0000
,
0010
0000
0100
0000
,
0100
0000
0110
0000
,
1001
0000
0100
0100
,
0100
0100
0100
0000
,
0000
0000
1001
0000
,
0000
0000
0000
0000
,
0000
0000
0000
0000
,
0000
0000
0000
0000
,
0000
0000
0001
0000
,
0001
0000
1000
0000
,
1000
0000
0100
0100
,
0100
0000
0010
0010
,
0010
0000
0001
0000
,
1000
0000
0001
0001
,
0001
0000
1000
0000
,
0001
0000
1000
1000
,
1000
0000
0010
0010
,
0010
0000
0100
0100
,
0100
0000
0001
0000
,
1000
0000
0100
0000
,
0010
0000
0100
0100
,
0100
0100
0100
0100
,
0100
0000
0010
0010
,
0010
0010
0010
0010
,
0010
0000
0001
0000
,
0001
0000
1000
0000
,
1000
0000
1001
0000
,
0110
0000
0010
0010
,
0010
0000
0110
0000
,
0000
0000
1001
0000
;

//---------------dance-single - Daff_4K----------------
#NOTEDATA:;
#CHARTNAME:Daff_4K;
#STEPSTYPE:dance-single;
#DESCRIPTION:Daff_4K;
#CHARTSTYLE:;
#DIFFICULTY:Easy;
#METER:9;
#RADARVALUES:0.358017,0.498344,0.403284,0.432090,0.000000,348.000000,292.000000,56.000000,60.000000,0.000000,0.000000,0.000000,0.000000,0.000000,0.358017,0.498344,0.403284,0.432090,0.000000,348.000000,292.000000,56.000000,60.000000,0.000000,0.000000,0.000000,0.000000,0.000000;
#CREDIT:Daff_4K;
#NOTES:
0000
0000
0000
0000
,
0000
0000
0000
0000
,
0000
0000
0000
0000
,
0000
0000
0000
0000
,
0000
0000
0000
0000
,
0000
0000
0000
0000
,
1000
1000
0100
0010
,
0001
0001
0100
0010
,
1000
1000
0001
0001
,
0010
0100
1000
0001
,
0200
0310
1000
1000
,
0100
0100
0001
0001
,
0010
1000
0001
0001
,
0100
0100
1000
1000
,
0010
0001
1000
0010
,
0100
1010
0001
0010
,
0100
0011
1000
0001
,
0100
0110
2002
3003
,
1000
0001
0101
1100
,
0102
1003
0011
1010
,
0012
1003
0101
1100
,
0102
1003
0001
0010
,
0100
1000
1100
0101
,
2100
3001
1010
0011
,
2010
3001
1100
0101
,
2100
3001
1001
1000
,
0001
1000
0200
0001
,
0310
0000
0001
0000
1000
0010
1000
0000
,
0100
0010
0002
1000
,
0103
0010
1000
0001
,
0100
0010
0200
1000
,
0310
0000
1000
0000
0001
0010
0001
0000
,
0100
0010
2000
0001
,
3100
0010
0002
1000
,
0103
0010
0220
0000
,
0000
0330
2002
0000
,
3003
1000
0002
0010
,
0203
0010
0301
0010
,
1000
0000
0100
0000
0001
0000
1000
0100
,
1000
0000
0001
0000
0100
0010
0100
0000
,
0001
1000
0001
0000
0020
0000
1000
0000
,
0032
1000
0103
1000
,
0100
0001
0110
1000
,
0110
0001
1000
0010
,
1001
0001
2000
0010
,
3200
0010
1300
0010
,
0001
0000
0100
0000
1000
0000
0001
0100
,
0001
0000
1000
0000
0100
0010
0100
0000
,
1000
0001
1000
0000
0020
0000
0001
0000
,
2030
0001
3100
0001
,
0100
1000
0110
0001
,
0110
0000
1000
0000
0001
0000
0100
0010
,
0100
0000
0001
0000
2001
0000
0000
3100
,
0000
0000
2001
0000
0000
3010
0000
0000
,
1000
0000
0001
0000
1002
0000
0000
0103
,
0000
0000
1002
0000
0000
0013
0000
0000
,
0001
1000
1002
0000
,
2003
0000
3100
0010
,
0001
1000
2002
3003
,
0220
0330
1001
0110
,
2002
3003
0220
0000
,
0330
0000
1001
0000
,
0000
0000
0000
0000
,
0000
0000
0000
0000
,
0000
0000
0000
0000
,
0000
0000
0001
0001
,
0100
0010
1000
1000
,
0100
0010
0001
0001
,
1000
1000
0010
0100
,
0001
1000
0200
0001
,
2300
0001
3020
0001
,
1030
0001
0200
1000
,
0302
1000
0023
1000
,
0031
0000
1000
0000
0001
0100
0001
0000
,
1000
0100
1000
0000
0010
0000
0100
0000
,
0110
0000
1001
0000
0001
0100
0001
0000
,
1000
0100
1000
0000
0010
0100
0010
0000
,
1000
0000
0001
0000
1002
0000
0000
0103
,
0000
0000
1002
0000
0000
0013
0000
0000
,
0001
0000
1000
0000
2001
0000
0000
3100
,
0000
0000
2001
0000
0000
3010
0000
0000
,
1000
0001
2001
0000
,
3002
0000
0103
0010
,
1000
0001
2002
3003
,
0220
0330
1001
0110
,
2002
3003
0220
0000
,
0000
0330
1001
0000
;

//---------------dance-single - Daff_4K----------------
#NOTEDATA:;
#CHARTNAME:Daff_4K;
#STEPSTYPE:dance-single;
#DESCRIPTION:Daff_4K;
#CHARTSTYLE:;
#DIFFICULTY:Medium;
#METER:12;
#RADARVALUES:0.572005,0.622930,0.460896,0.151231,0.151231,556.000000,492.000000,64.000000,21.000000,0.000000,0.000000,0.000000,0.000000,0.000000,0.572005,0.622930,0.460896,0.151231,0.151231,556.000000,492.000000,64.000000,21.000000,0.000000,0.000000,0.000000,0.000000,0.000000;
#CREDIT:Daff_4K;
#NOTES:
// measure 0
0000
0000
0000
0000
,  // measure 1
0000
0000
0000
0000
,  // measure 2
0000
0000
0000
0000
,  // measure 3
0000
0000
0000
0000
,  // measure 4
0000
0000
0000
0000
,  // measure 5
0000
0000
0000
0000
,  // measure 6
1000
0010
0100
0000
1000
0100
0001
1000
,  // measure 7
0001
0010
0100
0000
0001
0100
1000
0001
,  // measure 8
1000
0000
0010
0100
0001
0000
0010
0100
,  // measure 9
1000
1000
0001
0001
0100
0010
0100
0000
,  // measure 10
0110
0000
1001
0000
1000
0100
0010
0100
,  // measure 11
1000
0010
0100
0010
1000
0001
0010
0100
,  // measure 12
0000
1001
0000
1000
0001
0100
0010
0100
,  // measure 13
0001
0010
0100
0010
0001
1000
0010
0100
,  // measure 14
0000
1001
0000
0001
1000
0010
0000
0101
,  // measure 15
0000
1010
0000
1000
0001
0010
0000
1100
,  // measure 16
0000
0011
0000
0001
1000
0010
0000
0110
,  // measure 17
0000
1001
0000
0001
0010
1000
0000
0010
,  // measure 18
0100
0000
0000
0000
1001
0000
0000
0000
1000
0010
0000
0000
0010
0100
0000
0000
,  // measure 19
0100
0001
0000
0000
0011
0000
0000
0000
0010
0100
0000
0000
0100
1000
0000
0000
,  // measure 20
1000
0001
0000
0000
0101
0000
0000
0000
0100
0010
0000
0000
0010
1000
0000
0000
,  // measure 21
1000
0100
0000
0000
0110
0000
0000
0000
0010
0000
0001
0000
0100
0000
0000
0000
,  // measure 22
0100
0000
0010
0000
1000
0000
0000
0000
0001
0010
0000
0000
0010
0100
0000
0000
,  // measure 23
0100
1000
0000
0000
1010
0000
0000
0000
0010
0100
0000
0000
0100
0001
0000
0000
,  // measure 24
0001
1000
0000
0000
1100
0000
0000
0000
0100
0010
0000
0000
0010
0001
0000
0000
,  // measure 25
0001
0100
0000
0000
0110
0000
0000
0000
1001
0000
0000
0000
1000
0000
0100
0000
,  // measure 26
0010
0001
1000
0000
1020
0000
0100
0000
,  // measure 27
0001
0000
0130
0001
1000
1000
0001
0010
,  // measure 28
0100
1000
0010
0100
0002
0000
0010
0000
,  // measure 29
1000
0000
0103
0010
1000
1000
0001
0001
,  // measure 30
0010
0100
1000
0000
0021
0000
0100
0000
,  // measure 31
1000
0000
0130
1000
0001
0001
1000
0010
,  // measure 32
0100
0001
0010
0100
2000
0000
0010
0000
,  // measure 33
3002
0000
0010
0000
1003
0010
0100
0001
,  // measure 34
0010
0100
1000
0000
0220
0000
0000
0000
,  // measure 35
0000
0330
2002
0000
,  // measure 36
3003
0000
0000
0000
0001
0000
1000
0000
0010
0100
0000
0000
0100
0001
0000
0000
,  // measure 37
1000
0100
0000
1001
0000
0010
0001
0100
,  // measure 38
1000
0000
0100
0000
0001
0000
0010
0000
0100
0000
0000
0100
1000
0000
0001
0000
,  // measure 39
0200
0000
0310
1000
0100
0001
1000
0010
,  // measure 40
0001
0000
0100
0000
0010
0000
1000
0000
0001
0010
0000
0000
0010
0100
0000
0000
,  // measure 41
1000
0001
0000
0110
0000
1000
0001
0010
,  // measure 42
1000
0000
0010
0000
0001
0000
1000
0000
1010
0000
0000
0010
0100
0000
0001
0000
,  // measure 43
0011
0000
0000
0010
0100
0000
1000
0000
1010
0000
0000
0000
0101
0000
0000
0000
,  // measure 44
1001
0000
0000
0000
1000
0000
0001
0000
0010
0100
0000
0000
0100
1000
0000
0000
,  // measure 45
0001
0100
0000
1001
0000
0010
1000
0100
,  // measure 46
0001
0000
0100
0000
1000
0000
0010
0000
0100
0000
0000
0100
0001
0000
1000
0000
,  // measure 47
0200
0000
0310
0001
0100
1000
0001
0010
,  // measure 48
1000
0000
0100
0000
0010
0000
0001
0000
1000
0010
0000
0000
0010
0100
0000
0000
,  // measure 49
0001
1000
0000
0110
0000
0001
1000
0010
,  // measure 50
0001
0000
0010
0000
1000
0000
0001
0000
0011
0000
0000
0010
0100
0000
1000
0000
,  // measure 51
1010
0000
0000
0010
0100
0000
0001
0000
0011
0000
0000
0000
1100
0000
0000
0000
,  // measure 52
0110
0000
1001
0000
1000
0010
0001
1000
,  // measure 53
0100
0001
1000
0100
0001
1000
0010
0001
,  // measure 54
0100
0000
1001
0000
0001
0010
1000
0001
,  // measure 55
0100
1000
0001
0100
1000
0001
0010
1000
,  // measure 56
0100
1001
1020
0130
,  // measure 57
0021
0000
0130
0000
1000
0010
0100
0001
,  // measure 58
0010
0100
1000
0001
0201
0000
0310
1000
,  // measure 59
1200
0000
0310
0001
0101
0000
1010
0000
,  // measure 60
1100
0011
0220
0000
,  // measure 61
0330
0000
1001
0000
,  // measure 62
0000
0000
0000
0000
,  // measure 63
0000
0000
0000
0000
,  // measure 64
0000
0000
0000
0000
,  // measure 65
0000
0000
0000
0000
1000
0010
0001
0000
,  // measure 66
0010
1000
0100
0010
0001
0010
1000
0000
,  // measure 67
0010
0001
0100
0010
1000
0100
0010
0000
,  // measure 68
0001
0100
0010
0000
1000
1000
0001
0001
,  // measure 69
0010
0000
0100
0000
0010
0000
0001
0000
1000
0000
0000
1000
0010
0000
0001
0000
,  // measure 70
0010
0000
0000
0010
0100
0000
0001
0000
1000
0000
0000
1000
0100
0000
0000
0100
,  // measure 71
0001
0000
0000
0001
0100
0000
0010
0000
0001
0000
0000
0001
0010
0000
1000
0000
,  // measure 72
0010
0000
0000
0010
0100
0000
1000
0000
0001
0000
0000
0001
0100
0000
0000
0100
,  // measure 73
1000
0000
0000
1000
0100
0000
0010
0000
1000
0000
0001
0000
0010
0000
0000
0000
,  // measure 74
0001
1000
0010
0000
0110
0000
1001
0000
,  // measure 75
1100
0000
0011
0000
0001
0100
0010
0100
,  // measure 76
0001
1000
0100
0010
0100
1000
0010
0100
,  // measure 77
0001
0010
0100
1000
0001
0010
1000
0001
,  // measure 78
0100
1000
0001
0100
1000
0001
0010
1000
,  // measure 79
0100
0000
1001
0000
1000
0010
0001
1000
,  // measure 80
0100
0001
1000
0100
0001
1000
0010
0001
,  // measure 81
0100
1001
0021
0130
,  // measure 82
1020
0000
0130
0000
0001
0010
0100
1000
,  // measure 83
0010
0100
0001
1000
1200
0000
0310
0001
,  // measure 84
0201
0000
0310
1000
1100
0000
0011
0000
,  // measure 85
0101
0000
1010
0000
1000
0100
0010
0001
,  // measure 86
0100
0010
1000
0001
1001
0000
0000
0000
;

//---------------dance-single - Daff_4K----------------
#NOTEDATA:;
#CHARTNAME:Daff_4K;
#STEPSTYPE:dance-single;
#DESCRIPTION:Daff_4K;
#CHARTSTYLE:;
#DIFFICULTY:Hard;
#METER:16;
#RADARVALUES:0.769531,0.840955,0.252052,0.043209,0.604926,748.000000,713.000000,35.000000,6.000000,0.000000,0.000000,0.000000,0.000000,0.000000,0.769531,0.840955,0.252052,0.043209,0.604926,748.000000,713.000000,35.000000,6.000000,0.000000,0.000000,0.000000,0.000000,0.000000;
#CREDIT:Daff_4K;
#NOTES:
// measure 0
0000
0000
0000
0000
,  // measure 1
0000
0000
0000
0000
,  // measure 2
0000
0000
0000
0000
,  // measure 3
0000
0000
0000
0000
,  // measure 4
0000
0000
0000
0000
,  // measure 5
0000
0000
0000
0000
,  // measure 6
1000
0000
0001
0100
0001
0000
1000
0100
1000
0000
0010
0100
0010
0000
1000
0000
,  // measure 7
0001
0000
1000
0100
1000
0000
0001
0100
0001
0000
0010
0100
0010
0000
0001
0000
,  // measure 8
1000
1000
0001
0001
0100
0100
0010
0010
,  // measure 9
1000
0100
1000
0000
0001
0100
0001
0000
0010
0100
0010
0100
0010
0100
0010
0100
,  // measure 10
0010
0000
1001
0000
0001
0100
0010
0100
,  // measure 11
0001
0000
1000
0000
0001
0000
0010
0000
0100
0000
1000
0000
0001
0000
0100
0010
,  // measure 12
0000
0000
0010
1000
0000
0000
1000
0001
1000
0000
0100
0000
0010
0000
0100
0000
,  // measure 13
1000
0000
0001
0000
1000
0000
0010
0000
0100
0000
0001
0000
1000
0000
0100
0010
,  // measure 14
0000
0000
0010
0001
0000
0000
0001
1000
0001
0000
1000
0010
0000
0000
0010
0100
,  // measure 15
0000
0000
0100
0001
0100
0000
0010
0000
1000
0000
0001
0010
0000
0000
0010
0100
,  // measure 16
0000
0000
0100
1000
0100
0000
0010
0000
0001
0000
0100
0010
0000
0000
0010
1000
,  // measure 17
0000
0000
1000
0100
1000
0000
0100
0000
0010
0000
1001
0000
0000
0000
0001
0000
,  // measure 18
0100
0000
0010
0100
0010
0000
1000
0000
0001
0010
0001
0000
0100
0010
0100
0000
,  // measure 19
0001
0010
0001
0010
0001
0000
1000
0000
0010
0100
0010
0000
1000
0100
1000
0000
,  // measure 20
0010
0100
0010
0100
0010
0000
1000
0000
0001
0010
0001
0000
1000
0010
1000
0000
,  // measure 21
0001
0010
0001
0010
0001
0000
0100
0000
0010
0000
1000
0001
1000
0000
0001
0000
,  // measure 22
0010
0000
1000
0000
0001
0000
0100
0000
1000
0010
1000
0000
0100
0010
0100
0000
,  // measure 23
1000
0010
1000
0010
1000
0000
0001
0000
0010
0100
0010
0000
0001
0100
0001
0000
,  // measure 24
0010
0100
0010
0100
0010
0000
0001
0000
1000
0010
1000
0000
0001
0010
0001
0000
,  // measure 25
1000
0010
1000
0010
1000
0000
0100
0000
0010
0000
1001
0000
0000
0000
0001
0000
,  // measure 26
0100
0000
0010
0100
0010
0000
1000
0000
0001
0000
0010
0000
0100
0000
1000
0001
,  // measure 27
0000
0001
0100
0000
0010
0000
1000
0000
0001
1000
0001
0000
0010
0000
0100
1000
,  // measure 28
0000
0100
1000
0000
0010
0000
0100
0000
0001
0000
1000
0000
0100
0000
0010
0001
,  // measure 29
0000
0010
0001
0000
0100
0000
1000
0000
0001
0000
0010
0000
1000
0000
0001
0000
,  // measure 30
1000
0000
0100
0000
0010
0000
0001
0000
1000
0000
0010
0000
0100
0000
0001
1000
,  // measure 31
0000
1000
0100
0000
0010
0000
0001
0000
1000
0001
1000
0000
0010
0000
0100
0001
,  // measure 32
0000
0100
0001
0000
0010
0000
0100
0000
1000
0000
0001
0000
0100
0000
0010
1000
,  // measure 33
0000
0010
1000
0000
0100
0000
0001
0000
1000
0000
0010
0000
0001
0000
1000
0000
,  // measure 34
0001
0000
0100
0010
0100
0000
0001
0000
2002
0000
0000
0000
0000
0000
0000
0000
,  // measure 35
0000
3003
0220
0330
,  // measure 36
1001
0000
0000
0000
1000
0000
0001
0000
0100
0000
0010
0100
0010
0000
1000
0001
,  // measure 37
1000
0000
0001
0000
0010
0000
1000
0000
0010
0000
0100
0010
0100
0000
1000
0000
,  // measure 38
0010
0000
0001
0000
0010
0000
1000
0000
0100
0000
0010
0100
0010
0000
0001
0000
,  // measure 39
0100
0000
0010
0000
1000
0000
0100
1000
0100
0000
0010
0001
0010
0000
0001
0000
,  // measure 40
0100
0000
0010
0100
0010
0000
1000
0000
0001
0000
0010
0001
0010
0000
0100
1000
,  // measure 41
0100
1000
0010
0001
1000
0100
0001
0010
,  // measure 42
1000
0000
0010
0000
0001
0000
1000
0000
1010
0000
0000
0100
0001
0000
0010
0000
,  // measure 43
0011
0000
0000
0100
1000
0000
0010
0000
0110
0000
0000
0000
1001
0000
0000
1000
,  // measure 44
0100
0000
0010
0000
0001
0000
1000
0000
0100
0000
0010
0100
0010
0000
0001
1000
,  // measure 45
0001
0000
1000
0000
0010
0000
0001
0000
0010
0000
0100
0010
0100
0000
0001
0000
,  // measure 46
0010
0000
1000
0000
0010
0000
0001
0000
0100
0000
0010
0100
0010
0000
1000
0000
,  // measure 47
0100
0000
0010
0000
0001
0000
0100
0001
0100
0000
0010
1000
0010
0000
1000
0000
,  // measure 48
0100
0000
0010
0100
0010
0000
0001
0000
1000
0000
0010
1000
0010
0000
0100
0001
,  // measure 49
0100
0001
0010
1000
0001
0100
1000
0010
,  // measure 50
0001
0000
0010
0000
1000
0000
0001
0000
0011
0000
0000
0100
1000
0000
0010
0000
,  // measure 51
1010
0000
0000
0000
0100
0001
0010
0000
0110
0000
0000
0100
1000
0000
0001
0000
,  // measure 52
0100
0000
0010
0100
0010
0000
1000
0000
0001
0010
0001
0010
0001
0000
1000
0100
,  // measure 53
1000
0100
1000
0000
0001
0100
0001
0100
0001
0000
1000
0010
1000
0010
1000
0000
,  // measure 54
0100
0000
0010
0100
0010
0000
0001
0000
1000
0010
1000
0010
1000
0000
0001
0100
,  // measure 55
0001
0100
0001
0000
1000
0100
1000
0100
1000
0000
0001
0010
0001
0010
0001
0000
,  // measure 56
0100
0000
0010
0100
0010
0000
1000
0000
1001
0000
0000
0001
0010
0000
0000
0010
,  // measure 57
1000
0000
0000
1000
0100
0000
0000
0100
0001
0000
1000
0000
0100
0000
0010
0000
,  // measure 58
0001
0000
1000
0001
1000
0000
0010
0000
0110
0000
0000
0100
0001
0000
1000
0000
,  // measure 59
1001
0000
0000
0001
0010
0000
0100
0000
1100
0000
0000
0000
0011
0000
0000
0000
,  // measure 60
1001
0010
0100
0000
2002
0000
0000
0000
,  // measure 61
3003
0110
1001
0000
,  // measure 62
0000
0000
0000
0000
,  // measure 63
0000
0000
0000
0000
,  // measure 64
0000
0000
0000
0000
,  // measure 65
0000
0000
0000
0000
0000
0000
0000
0000
1000
0000
0001
0100
0001
0000
1000
0100
,  // measure 66
1000
0000
0010
0100
0010
0000
1000
0000
0001
0000
1000
0100
1000
0000
0001
0100
,  // measure 67
0001
0000
0010
0100
0010
0000
0001
0000
0100
0000
0010
0100
0010
0000
1000
0000
,  // measure 68
0100
0000
0010
0100
0010
0000
0001
0000
0100
0000
0010
0100
0010
0000
1000
0000
,  // measure 69
0001
0000
0010
0000
0100
0000
1000
0000
1010
0000
0000
0010
0100
0000
0001
0000
,  // measure 70
1001
0000
0000
1000
0100
0000
0001
0000
0100
0000
0010
0100
0010
0000
0001
0000
,  // measure 71
0100
0000
0010
0000
1000
0000
0001
0000
0011
0000
0000
0010
0100
0000
1000
0000
,  // measure 72
1001
0000
0000
0001
0100
0000
1000
0000
0100
0000
0010
0100
0010
0000
1000
0000
,  // measure 73
0100
0000
0010
0000
0001
0000
1000
0000
0010
0000
0100
0001
0100
0000
0001
0000
,  // measure 74
0010
0000
0100
1000
0100
0000
1000
0000
1010
0000
0000
0000
0101
0000
0000
0001
,  // measure 75
1000
0000
0100
0000
0010
0000
0001
0000
1000
0000
0010
0100
0010
0000
1000
0000
,  // measure 76
0001
0000
0010
0100
0010
0000
0001
0000
1000
0000
0010
1000
0010
0000
0100
0001
,  // measure 77
0100
0000
0001
0000
0010
0000
0100
0000
1000
0010
1000
0010
1000
0000
0001
0100
,  // measure 78
0001
0100
0001
0000
1000
0100
1000
0100
1000
0000
0001
0010
0001
0010
0001
0000
,  // measure 79
0100
0000
0010
0100
0010
0000
1000
0000
0001
0010
0001
0010
0001
0000
1000
0100
,  // measure 80
1000
0100
1000
0000
0001
0100
0001
0100
0001
0000
1000
0010
1000
0010
1000
0000
,  // measure 81
0100
0000
0010
0100
0010
0000
0001
0000
1001
0000
0000
1000
0010
0000
0000
0010
,  // measure 82
0001
0000
0000
0001
0100
0000
0000
0100
1000
0000
0001
0000
0100
0000
0010
0000
,  // measure 83
1000
0000
0001
1000
0001
0000
0010
0000
0110
0000
0000
0100
1000
0000
0001
0000
,  // measure 84
1001
0000
0000
1000
0010
0000
0100
0000
0101
0000
0000
0000
1010
0000
0000
0000
,  // measure 85
1001
0000
0010
0000
0100
0000
0000
0000
1001
0000
0000
0001
0100
0000
0010
0000
,  // measure 86
1000
0000
0100
0000
0010
0000
0001
1000
0001
0000
0000
0000
0000
0000
0000
0000
;

//---------------dance-single - Daff_4K----------------
#NOTEDATA:;
#CHARTNAME:Daff_4K;
#STEPSTYPE:dance-single;
#DESCRIPTION:Daff_4K;
#CHARTSTYLE:;
#DIFFICULTY:Challenge;
#METER:17;
#RADARVALUES:0.887842,0.934394,0.295261,0.172836,0.856978,863.000000,822.000000,41.000000,24.000000,16.000000,0.000000,0.000000,0.000000,0.000000,0.887842,0.934394,0.295261,0.172836,0.856978,863.000000,822.000000,41.000000,24.000000,16.000000,0.000000,0.000000,0.000000,0.000000;
#CREDIT:Daff_4K;
#NOTES:
// measure 0
0000
0000
0000
0000
,  // measure 1
0000
0000
0000
0000
,  // measure 2
0000
0000
0000
0000
,  // measure 3
0000
0000
0000
0000
,  // measure 4
0000
0000
0000
0000
,  // measure 5
0000
0000
0000
0000
,  // measure 6
1000
0000
0010
0100
0010
0000
1000
0001
1000
0000
0100
0010
0001
0000
1000
0000
,  // measure 7
0001
0000
0010
0100
0010
0000
0001
1000
0001
0000
0100
0010
1000
0000
0001
0000
,  // measure 8
0010
0000
0010
0000
0100
0000
0100
0000
1000
0000
0001
1000
0001
0000
0100
0000
,  // measure 9
0010
0100
0010
0000
1000
0100
1000
0000
0001
0100
0001
0000
1000
0001
1000
0001
,  // measure 10
1000
0000
MMMM
0000
0001
0100
0100
0010
,  // measure 11
1000
1000
0100
0010
0010
0001
1000
1000
,  // measure 12
0010
0000
0100
0000
0001
0000
1000
0001
1000
0000
0100
0000
0100
0000
0010
0000
,  // measure 13
0001
0001
0100
0010
0010
1000
0001
0001
,  // measure 14
0010
0000
0100
0000
1000
0000
0001
1000
0001
0000
1000
0010
0100
0000
0100
0001
,  // measure 15
1000
0000
1000
0100
0010
0000
0001
0000
1000
0000
0001
0010
0100
0000
0100
1000
,  // measure 16
0001
0000
0001
0100
0010
0000
1000
0000
0001
0000
1000
0100
1000
0000
0001
0100
,  // measure 17
0001
0000
0010
0100
0010
0000
0001
0000
1000
0000
2002
0000
3003
0000
0001
0000
,  // measure 18
0100
0000
0010
0100
0010
0000
1000
0000
0001
0010
0100
0010
0001
0010
0100
0010
,  // measure 19
0001
0010
0100
0010
0001
0000
1000
0000
0010
0100
0001
0100
0010
0100
0001
0100
,  // measure 20
0010
0100
0001
0100
0010
0000
1000
0000
0100
0010
0001
0010
0100
0010
0001
0010
,  // measure 21
0100
0010
0001
0010
0100
0000
1000
0000
0001
0000
0100
0010
0100
0000
0001
0010
,  // measure 22
0001
0000
1000
0010
1000
0000
0001
0000
1000
0010
0100
0010
1000
0010
0100
0010
,  // measure 23
1000
0010
0100
0010
1000
0000
0001
0000
0010
0100
1000
0100
0010
0100
1000
0100
,  // measure 24
0010
0100
1000
0100
0010
0000
0001
0000
0100
0010
1000
0010
0100
0010
1000
0010
,  // measure 25
0100
0010
1000
0010
0100
0000
0001
0000
0011
0000
1100
0000
1000
0000
0010
0100
,  // measure 26
0010
0000
0100
0000
0001
0000
1000
0001
1000
0000
0010
0000
0001
0000
0010
0100
,  // measure 27
0010
0000
1000
0000
0001
0000
0010
0000
0100
1000
0100
1000
0001
0000
0100
0010
,  // measure 28
0000
0010
1000
0000
0100
0000
0001
0000
1000
0000
0010
0000
0001
1000
0001
1000
,  // measure 29
0010
0000
0100
0010
0100
0000
0001
0000
0010
0000
0100
0000
0010
0000
0001
0000
,  // measure 30
1000
0000
0010
0100
0010
0000
0100
0000
0001
0000
0010
0000
1000
0000
0010
0100
,  // measure 31
0010
0000
0001
0000
1000
0000
0010
0000
0100
0001
0100
0001
1000
0000
0100
0010
,  // measure 32
0000
0010
0001
0000
0100
0000
1000
0000
0001
0000
0010
0000
1000
0001
1000
0001
,  // measure 33
0010
0000
0100
1000
0001
1000
0001
0000
0100
0010
0100
0000
0001
0010
0001
0000
,  // measure 34
1000
0010
1000
0000
0100
0010
0100
2000
0002
0000
0000
0000
0000
0000
0000
0000
,  // measure 35
3003
0000
0001
1000
0001
1000
0010
0200
0020
0000
0000
0000
0000
0000
0330
0000
,  // measure 36
MMMM
0000
0000
0000
1000
0100
0010
0001
0100
0000
0001
1000
0100
0000
1000
0001
,  // measure 37
0100
0000
0001
1000
0100
0000
0010
0000
0001
0000
0100
0010
0100
0000
0001
0010
,  // measure 38
0001
0000
1000
0010
1000
0000
0100
0000
0010
0000
0001
1000
0010
0000
0100
0010
,  // measure 39
1000
0000
0001
1000
0100
0000
0010
0000
0001
0010
0100
0010
0001
0000
1000
0000
,  // measure 40
0010
0100
0001
0100
0010
0000
1000
0001
0010
0000
0001
1000
0010
0000
1000
0001
,  // measure 41
0010
0000
0001
1000
0010
0000
0100
0000
0001
0000
1000
0100
1000
0000
0001
0100
,  // measure 42
0001
0000
0010
0100
1000
0000
0001
0000
0101
0000
0010
0000
1000
0001
1000
0000
,  // measure 43
1100
0000
0010
0000
0001
1000
0001
0000
0101
0000
0010
0000
1100
0000
0010
0000
,  // measure 44
1001
0000
1000
0000
0001
0100
0010
1000
0100
0000
1000
0001
0100
0000
0001
1000
,  // measure 45
0100
0000
1000
0001
0100
0000
0010
0000
1000
0000
0100
0010
0100
0000
1000
0010
,  // measure 46
1000
0000
0001
0010
0001
0000
0100
0000
0010
0000
1000
0001
0010
0000
0100
0010
,  // measure 47
0001
0000
1000
0001
0100
0000
0001
0000
1000
0010
0100
0010
1000
0000
0001
0000
,  // measure 48
0010
0100
1000
0100
0010
0000
0001
1000
0010
0000
1000
0001
0010
0000
0001
1000
,  // measure 49
0010
0000
1000
0001
0010
0000
0100
0000
1000
0000
0001
0100
0001
0000
1000
0100
,  // measure 50
1000
0000
0010
0100
0001
0000
1000
0000
1100
0000
0010
0000
0001
1000
0001
0000
,  // measure 51
0101
0000
0010
0000
1000
0001
1000
0000
0100
0010
0100
0000
1000
0010
1000
0000
,  // measure 52
0001
0010
0001
0000
0100
0000
0010
0000
1000
0100
0010
0100
1000
0000
0001
0010
,  // measure 53
0100
0010
0001
0000
1000
0010
0100
0010
1000
0000
0001
0100
0010
0100
0001
0000
,  // measure 54
0010
0100
1000
0010
0100
0001
1000
0000
0001
0100
0010
0100
0001
0000
1000
0010
,  // measure 55
0100
0010
1000
0000
0001
0010
0100
0010
0001
0000
1000
0100
0010
0100
1000
0000
,  // measure 56
0010
0100
0001
0010
0100
1000
0001
0000
0202
0000
0303
0000
2200
0000
3300
0000
,  // measure 57
0022
0033
2020
3030
1000
0100
0010
0001
,  // measure 58
0100
0000
0010
0100
0010
0000
1000
0000
1100
0000
0010
0001
0010
0000
0001
0000
,  // measure 59
0101
0000
0010
1000
0010
0000
1000
0000
1100
0000
0010
0000
0101
0000
0010
0000
,  // measure 60
1001
0000
0100
0010
0100
0000
0010
0000
2002
0000
0000
0000
0000
0000
3003
0000
,  // measure 61
MMMM
0110
1001
0000
,  // measure 62
0000
0000
0000
0000
,  // measure 63
0000
0000
0000
0000
,  // measure 64
0000
0000
0000
0000
,  // measure 65
0000
0000
0000
0000
0000
0000
0000
0000
0001
0000
1000
0100
1000
0000
0001
0010
,  // measure 66
0001
0000
1000
0010
0100
0000
0001
0000
1000
0000
0001
0100
0001
0000
1000
0010
,  // measure 67
1000
0000
0001
0010
0100
0000
1000
0000
0001
0000
0100
0010
0100
0000
0001
0000
,  // measure 68
1000
0000
0100
0010
0100
0000
1000
0000
0001
0100
0001
0000
1000
0100
1000
0000
,  // measure 69
0010
0100
0010
0100
0010
0000
1000
0000
1100
0000
0010
0100
0010
0000
0001
0000
,  // measure 70
0101
0000
0010
0100
0010
0000
1000
0000
0100
0000
0010
0001
0100
0000
0010
1000
,  // measure 71
0100
0000
0010
0001
1000
0001
0100
0000
0101
0000
0010
0100
0010
0000
1000
0000
,  // measure 72
1100
0000
0010
0100
0010
0000
0001
0000
0100
0000
0010
1000
0100
0000
0010
0001
,  // measure 73
0100
0000
0010
1000
0001
1000
0100
0010
0001
0000
1000
0010
0100
0000
0001
0000
,  // measure 74
1000
0000
0001
0010
0100
0000
1000
0000
1010
0000
0101
0000
0011
0000
1100
0000
,  // measure 75
1001
0000
0001
0010
0001
0000
1000
0010
1000
0000
0100
0010
0100
0000
1000
0001
,  // measure 76
0100
0000
0001
1000
0100
0000
0010
0001
1000
0001
0100
0010
1000
0000
0010
1000
,  // measure 77
0001
1000
0100
0010
0001
0000
1000
0000
0001
0100
1000
0100
0001
0000
1000
0010
,  // measure 78
0001
0010
1000
0000
0001
0010
1000
0010
0001
0000
1000
0100
0001
0100
1000
0000
,  // measure 79
0001
0100
0010
1000
0100
0010
0001
0000
1000
0100
0001
0100
1000
0000
0001
0010
,  // measure 80
1000
0010
0001
0000
1000
0010
0001
0010
1000
0000
0001
0100
1000
0100
0001
0000
,  // measure 81
1000
0100
0010
0001
0100
0010
1000
0000
2200
0000
3300
0000
0202
0000
0303
0000
,  // measure 82
2020
3030
0022
0033
0001
0100
0010
1000
,  // measure 83
0100
0000
0010
0100
0010
0000
0001
0000
0101
0000
0010
1000
0010
0000
1000
0000
,  // measure 84
1100
0000
0010
0001
0010
0000
0001
0000
0101
0000
0010
0000
1100
0000
0010
0000
,  // measure 85
1001
0000
0100
0010
0100
0000
1001
0000
0001
0010
0001
0010
0100
1000
0100
1000
,  // measure 86
0010
0100
0010
0100
0001
0000
1000
0000
MMMM
0000
0000
0000
0000
0000
0000
0000
;
