#TITLE:AFRO KNUCKLE;
#SUBTITLE:;
#ARTIST:猫叉Master+;
#TITLETRANSLIT:;
#SUBTITLETRANSLIT:;
#ARTISTTRANSLIT:;
#GENRE:;
#CREDIT:;
#MUSIC:AFRO KNUCKLE.ogg;
#BANNER:AFRO KNUCKLE.png;
#BACKGROUND:AFRO KNUCKLE-bg.png;
#CDTITLE:;
#SAMPLESTART:87.477;
#SAMPLELENGTH:15.000;
#SELECTABLE:YES;
#OFFSET:-0.581;
#BPMS:0.000=145.000;
#STOPS:;
#BGCHANGES:-4.350=AFRO KNUCKLE.avi=1.000=0=0=0=StretchNoLoop====,
99999.000=-nosongbg-=1.000=0=0=0=StretchNoLoop====
;
#FGCHANGES:;

//--------------- dance-single - Chrononical ----------------
#NOTES:
     dance-single:
     Chrononical:
     Beginner:
     3:
     0,0,0,0,0:
0000
0000
0000
0000
,
0000
0000
0000
0000
,
0000
0000
0000
0000
,
0000
0000
0000
0000
,
1001
0000
1000
0000
,
0001
0000
1000
0000
,
1001
0000
1000
0000
,
0010
0000
0100
0000
,
0110
0000
0010
0000
,
1000
0000
0001
0000
,
1001
0000
1000
0001
,
1000
0000
0100
0010
,
0100
0000
0100
0100
,
0100
0000
0010
0010
,
0020
0000
0130
0100
,
0100
0000
1000
0000
,
0001
0000
0001
0001
,
0001
0000
1000
1000
,
1000
0000
0001
1000
,
0001
0000
1000
0001
,
1000
0000
0001
0001
,
0001
0000
1000
1000
,
1000
0000
0010
0010
,
0010
0000
0100
0001
,
0100
0000
0010
1000
,
0010
0000
0100
0100
,
0100
0000
0001
0001
,
0001
0000
0100
0100
,
0100
0000
0010
0000
,
0020
0000
0000
0000
,
1030
0000
1000
0000
,
2000
0000
0000
0000
,
3001
0000
0010
0000
,
0100
0000
1000
0000
,
0001
0000
0100
0000
,
0010
0000
1000
0000
,
0001
0000
1000
0000
,
0001
0000
1000
0000
,
0010
0000
0100
0000
,
0010
0000
0100
0000
,
0001
0000
0010
0000
,
0100
0000
1000
0000
,
0001
0000
0010
0000
,
0100
0000
1000
0001
,
1000
0000
0010
0000
,
0010
0000
0010
0010
,
0010
0000
1000
0000
,
2000
0000
0000
3000
,
1001
0000
0001
0000
,
0001
0000
0001
0000
,
1000
0000
1000
0000
,
0010
0010
0010
0000
,
0100
0000
0100
0100
,
0100
0000
0001
0001
,
0001
0000
1000
1000
,
2000
0000
3010
0010
,
0010
0000
0100
0100
,
0100
0000
0001
0001
,
0001
0000
0010
0010
,
0010
0000
0100
0000
,
1000
0000
0001
1000
,
0001
0000
1000
0100
,
1000
0000
0001
0100
,
0002
0000
1003
0100
,
1000
0000
0001
0001
,
0001
0000
1000
1000
,
1000
0000
0100
0100
,
0100
0000
0010
0010
,
0010
0000
0000
0001
,
0001
0000
1000
0000
,
1000
0000
0000
0001
,
0001
0000
1000
0000
,
0001
1000
0001
2000
,
3000
0000
0000
0000
;

//--------------- dance-single - Chrononical ----------------
#NOTES:
     dance-single:
     Chrononical:
     Easy:
     8:
     0,0,0,0,0:
0000
0000
0000
0000
,
0000
0000
0000
0000
,
0000
0000
0000
0000
,
0000
0000
0000
0000
,
1001
0000
1000
0000
,
0001
0000
0000
0000
0100
0000
0010
1000
,
0001
0000
0010
0000
,
0100
0000
0000
0000
1000
0000
0010
0100
,
0001
0000
1000
0000
,
0010
0000
0000
0000
0100
0000
0010
1000
,
0010
0100
0001
0010
,
0100
1000
0001
1000
,
1001
0000
0001
0000
1000
0010
0100
0000
,
0001
0000
1000
0000
0001
0010
0001
0000
,
2000
0000
0000
0000
3001
0100
0001
0000
,
1000
0100
0010
0001
,
1000
0000
1001
0000
0001
0100
0001
0000
,
1000
0000
0100
0000
1000
0100
1000
0000
,
0001
0010
0100
1000
,
0002
0000
1003
0001
,
1001
0000
1000
0000
0001
0010
0100
0000
,
1000
0000
0010
0000
0100
0010
1000
0000
,
0002
0000
0000
0000
1003
0010
1000
0000
,
0001
0100
0010
1000
,
0001
0000
0000
0000
1000
0000
0000
0000
0000
0000
0000
0001
0000
0000
0000
0001
,
0000
0000
1000
0000
0010
0100
0010
0000
,
1000
0100
0010
0001
,
2000
0000
3002
0203
,
0302
0000
1000
1000
,
2003
0000
0000
0000
,
3020
0000
0100
0100
,
0230
0000
0302
0023
,
0230
0000
2300
3020
,
0230
0000
0302
0023
,
0230
2300
3200
0320
,
0032
2003
3002
2003
,
3001
0000
1000
0000
0010
0100
0010
0000
,
1000
0000
0100
0000
0010
0001
0010
0000
,
0001
0000
1000
0000
0010
0100
0010
0000
,
1000
0000
0001
0000
1000
0001
1000
0000
,
1001
0000
0001
0000
1000
0100
1000
0000
,
0001
0100
0001
0000
1000
0100
1000
0000
,
0001
0010
0100
1000
,
0001
0100
0010
1000
,
0002
0013
0100
0010
,
0001
0010
0100
0010
,
0002
0103
0010
0100
,
0020
0000
0000
0000
,
1030
0000
0001
0100
0001
0000
1000
0000
,
0001
1000
0001
0010
,
1000
0001
0100
1000
,
0001
0010
1000
0010
,
0011
0000
0001
1000
,
1001
0000
0001
0000
1000
0100
1000
0000
,
0001
0000
1000
0000
0010
0100
0010
0000
,
2000
0000
0000
0000
3001
0010
0100
0000
,
1000
0010
0100
0001
,
0001
0000
1000
0000
0010
0100
0001
0000
,
1000
0000
0001
0000
1000
0100
0010
0000
,
0001
0100
0010
1000
,
0001
0010
0100
1000
,
0001
0000
1000
0000
0010
0100
0010
0000
,
1000
0000
0001
0000
0010
0100
0010
0000
,
0002
0000
0000
0000
1003
0100
1000
0000
,
0010
0100
0010
1000
,
0001
0000
0010
0000
0100
0010
0001
0000
,
1000
0000
0001
0000
0100
0010
1000
0000
,
0001
0010
0100
1000
,
0002
0000
0000
0000
0003
0000
1000
0001
,
1000
0010
0100
0001
,
2000
0000
0000
0000
3000
0000
0001
1000
,
0001
0000
0000
0001
0000
0000
0000
0000
1000
0000
0000
1000
0000
0000
0000
0000
,
0010
0000
0000
0000
0100
0000
0000
0000
0001
0000
0000
0002
0000
0000
0000
0000
,
0003
0000
0000
0000
;

//--------------- dance-single - Chrononical ----------------
#NOTES:
     dance-single:
     Chrononical:
     Medium:
     10:
     0,0,0,0,0:
0000
0000
0000
0000
,
0000
0000
0000
0000
,
0000
0000
0000
0000
,
0000
0000
0000
0000
,
1001
0000
1000
0010
0100
0000
0001
0000
,
0100
0000
0010
0000
0100
0000
0001
0010
,
0001
0000
1000
0100
0010
0000
0100
0000
,
1000
0000
0010
0000
0100
0000
0010
1000
,
0010
0000
0100
0010
0100
0000
0001
0000
,
0010
0000
0001
0000
1000
0000
0010
0100
,
0001
0000
1000
0000
0001
0000
0010
0100
,
2000
3020
0130
0001
,
1001
0000
1000
0000
0010
0100
0010
1000
,
0001
0000
0100
0000
0001
0010
0100
0010
,
0002
0000
0100
0000
0103
0010
0100
0010
,
2000
3200
0302
0023
,
1030
0000
1010
0000
0010
1000
0010
0100
,
0001
0000
0011
0000
0010
0100
1000
0100
,
0020
0032
0203
0320
,
2030
0000
3001
0000
0100
0000
0100
0001
,
1000
0000
1001
0000
0001
0010
0001
0010
,
0100
0000
1100
0000
1000
0010
0100
0001
,
0100
0101
0100
0110
,
0010
1010
1100
1001
,
0001
1000
0001
1000
,
1010
0000
1000
0000
0001
0100
0010
0100
,
0002
0023
2030
3200
,
0302
0000
0203
0320
,
2030
0000
3001
0000
0100
0010
0100
0000
,
0002
0023
0230
2300
,
3001
0000
0010
0100
0010
0100
0010
0001
,
2000
0000
3020
0230
,
0302
0013
0200
2300
,
3020
0130
0200
0320
,
2030
3010
0100
0001
,
2000
3200
0320
0032
,
1003
1010
0010
0110
,
0100
0101
0001
1001
,
0001
0011
0010
0110
,
0100
1100
1000
0001
,
1001
0000
1000
0000
0010
0100
0001
0000
,
1000
0100
0010
0000
1000
0100
0010
0000
,
1000
0001
0010
0000
0001
0100
0010
0000
,
1000
0100
0010
0001
0010
0100
1000
0001
,
1000
1001
0001
0101
,
0100
0000
0010
1000
0010
0000
0110
0000
,
1000
0100
0010
0001
1000
0010
0100
0001
,
2000
0000
3001
1000
,
1001
0000
1000
0100
0010
0000
0001
0010
,
0100
0000
1000
0010
0100
0010
1000
0001
,
1000
0010
0100
0000
1000
0010
0100
0000
,
1000
0010
0001
0010
1000
0000
0001
0000
,
2001
0000
3001
0010
,
0110
0000
0100
0000
1000
0010
0100
0001
,
0010
0000
0100
0000
0010
0001
0010
0100
,
0010
0000
0011
0000
0001
1000
0010
0100
,
0010
0110
1001
0110
,
1001
0000
1010
0000
1000
0010
0100
0001
,
0010
0000
0100
0000
1000
0100
0010
0001
,
0020
0031
0200
0310
,
2000
3100
0110
0011
,
1001
0000
1100
0000
1000
0010
0100
1000
,
0100
0000
0001
0000
0001
0010
0100
0001
,
0100
0000
1100
0000
1000
0010
0001
0010
,
1000
1010
1001
0110
,
1001
0000
0001
0000
0010
1000
0010
0001
,
1000
0000
1001
0000
0001
0100
1000
0100
,
0001
1001
0110
1001
,
0110
0000
1000
0010
0100
0001
0010
0001
,
1000
0010
0100
0001
,
1001
1000
1001
0001
,
0100
0000
0000
0200
0000
0000
0000
0000
0301
0000
0000
0002
0000
0000
0000
0000
,
1003
0000
0100
0000
0010
0000
0001
0000
1000
0000
0000
2002
0000
0000
0000
0000
,
3003
0000
0000
0000
;

//--------------- dance-single - Chrononical ----------------
#NOTES:
     dance-single:
     Chrononical:
     Hard:
     13:
     0,0,0,0,0:
0000
0000
0000
0000
,
0000
0000
0000
0000
,
0000
0000
0000
0000
,
0000
0000
0000
0000
,
2000
0000
0000
0000
3010
0000
0100
0000
0001
0000
0000
0010
0000
0000
0100
0000
,
1000
0000
0000
0010
0000
0000
0100
0000
0020
0000
0000
1000
0030
0000
1000
0000
,
0020
0000
0000
0000
0130
0000
0001
0000
0010
0000
0000
1000
0000
0000
0010
0000
,
0100
0000
0000
0001
0000
0000
0100
0000
2000
0000
0000
0010
3000
0000
0010
0000
,
0200
0000
0000
0000
0310
0000
1000
0000
0010
0000
0000
0001
0000
0000
0010
0000
,
1000
0000
0000
0001
0000
0000
0010
0000
1000
0000
0000
0010
0000
0000
0001
0000
,
0020
0000
0000
0000
0031
0000
0010
0000
0100
0000
0000
1000
0000
0000
0001
0000
,
0002
2003
3020
0230
,
0302
0000
0000
0000
1003
0000
0100
0000
0010
0001
0000
0100
0000
0010
0000
2000
,
0000
0000
0000
0000
3001
0000
0100
0000
0010
1000
0000
0010
0000
0100
0000
0020
,
0000
0000
0000
0000
1000
0000
0000
0000
1030
0100
0000
0010
0000
0001
0000
0020
,
0000
0032
0203
0320
,
2030
0000
0000
0000
3100
0000
0001
0000
0100
0010
0000
0001
0000
0100
0000
0002
,
0000
0000
0000
0000
1003
0000
0010
0000
0001
0010
0000
0100
0000
0010
0000
2000
,
0000
3020
0230
0302
,
0023
0000
0000
0000
0000
0000
0000
0000
0000
0000
0000
0000
0130
0000
0000
0000
0000
0000
1000
0000
0000
0100
0000
0000
1000
0000
0000
0000
0010
0000
0000
0000
0100
0000
0000
0000
0001
0000
0000
0000
0000
0000
0010
0000
0000
0000
0000
0000
,
0200
0000
0000
0000
1300
0000
0001
0000
0010
0100
0000
1000
0000
0001
0000
2000
,
0000
0000
0000
0000
3010
0000
0100
0000
0001
0010
0000
0001
0000
0100
0000
0002
,
0000
0000
0000
0000
0010
0000
0000
0000
0013
0100
0000
1000
0000
0010
0000
2000
,
0000
3020
0230
0302
,
1003
0000
0000
0000
0100
0000
0000
0000
0010
0000
0000
0000
0001
0000
0000
0000
0000
0000
0100
0000
0000
0000
0000
0000
1000
0000
0000
0100
0000
0000
0000
0000
0000
0010
0000
0000
0000
0000
0000
1000
0000
0000
0000
0000
0000
0002
0000
0000
,
0000
0000
0000
0000
0103
0000
0100
0000
0010
1000
0000
0100
0000
1000
0000
0002
,
0000
2003
3200
0302
,
0023
1000
2030
3020
,
2030
0000
0000
0000
0010
0000
0000
0000
3010
0000
0010
0000
0100
0010
0000
2000
,
0000
0100
0100
3200
,
0320
0000
0000
0000
0031
0000
0001
0000
0010
0000
0010
0000
0100
1000
0000
2000
,
0000
0010
3020
0230
,
0302
1000
2003
3200
,
0320
0001
0032
0203
,
0320
0000
0000
0000
1000
0000
0000
0000
0001
0000
0000
0000
1030
0000
0010
0100
,
0002
0023
0230
2300
,
3001
0000
0000
0010
0001
0000
0000
0100
0010
0000
0000
1000
0100
0000
0000
1000
,
0010
0000
0000
0100
0010
0000
0000
0100
0001
0000
0000
0010
0001
0000
0000
1000
,
0001
0000
0000
0001
0100
0000
0000
0100
0010
0000
0000
0010
1000
0000
0000
1000
,
0001
0000
0000
0001
0010
0000
0000
0010
0100
0000
0000
0100
1000
0000
0000
1000
,
0001
0000
0000
0100
0010
0000
0000
0100
0010
0000
0000
0100
0010
0000
0000
1000
,
0001
0000
0000
0010
0100
0000
0000
0010
0100
0000
0000
0010
0100
0000
0000
1000
,
0001
0000
0000
1000
0010
0000
0000
1000
0010
0000
0000
1000
0010
0000
0000
1000
,
0001
0000
0000
1000
0100
0000
0000
1000
0100
0000
0000
1000
0100
0000
0000
1000
,
0001
0000
0000
0000
0100
0000
0010
0000
0100
0000
0000
1000
0000
0000
0100
0000
,
0010
0000
0000
0001
0000
0000
0010
0000
0100
0000
0010
1000
0000
0000
0001
0000
,
1000
0000
0000
0000
0100
0000
0010
0000
0100
0000
0000
0001
0000
0000
0100
0000
,
0010
0001
1000
0001
,
1001
0000
0000
0000
1000
0000
0010
0000
0100
0000
0000
0100
0000
0000
0010
0000
,
1000
0000
0000
0100
0000
0000
0100
0000
0010
0000
0001
0010
0000
0000
0001
0000
,
1000
0010
1000
0010
0000
0000
0100
0001
0100
0001
0000
0000
,
0010
0001
0010
0001
0010
0001
0020
0000
0000
0000
0000
0000
,
0230
0000
1300
0001
,
2001
0000
0000
0000
3010
0000
0100
0000
0001
0010
0000
1000
0000
0010
0000
0002
,
0000
0000
0000
0000
0103
0000
0010
0000
1000
0010
0000
0001
0000
0010
0000
2000
,
0000
0000
0000
0000
0010
0000
0000
0000
3010
0100
0000
1000
0000
0100
0000
0002
,
0000
0023
0230
2300
,
3002
0000
0000
0000
0013
0000
1000
0000
0010
0001
0000
0100
0000
0010
0000
2000
,
0000
0000
0000
0000
3010
0000
0001
0000
0010
0100
0000
0001
0000
0100
0000
0002
,
0000
0023
0230
2300
,
3020
0000
0000
0000
0000
0000
1000
0000
0000
0000
0000
0000
1030
0000
0100
0000
1000
0000
0100
0000
0000
0010
0000
0000
,
0002
0000
0000
0000
0013
0000
1000
0000
0010
0001
0000
1000
0000
0010
0000
0200
,
0000
0000
0000
0000
0310
0000
0010
0000
1000
0010
0000
0001
0000
0010
0000
2000
,
0000
0000
0000
0000
0010
0000
0000
0000
3010
0001
0000
0010
0000
1000
0000
0002
,
0000
0000
0013
0100
0020
0000
0230
0000
,
2300
0000
0000
0000
3100
0000
0001
0000
0100
0010
0000
0001
0000
0100
0000
0020
,
0000
0000
0000
0000
0130
0000
0100
0000
0001
0100
0000
1000
0000
0100
0000
0020
,
0000
2030
3200
0320
,
0032
0000
1000
0000
1003
0000
0100
0010
,
0002
2003
3020
0230
,
0320
0000
1000
0000
1030
0100
0010
0100
,
0110
0000
0000
0011
0000
0000
0001
0000
0101
0000
0000
1001
0000
0000
1000
0000
,
0010
0000
0000
0000
0100
0000
0000
0000
0001
0000
0000
0000
0010
0000
0000
0000
0001
0000
0000
0000
0100
0000
0000
0000
0001
0000
0000
0000
0000
0000
0000
0000
0000
2002
0000
0000
0000
0000
0000
0000
0000
0000
0000
0000
0000
0000
0000
0000
,
3003
0000
0000
0000
;
