#VERSION:0.83;
#TITLE:113% Cookie Tin;
#SUBTITLE:;
#ARTIST:Z-i-v Sound Team "Karl w/ a K";
#TITLETRANSLIT:;
#SUBTITLETRANSLIT:;
#ARTISTTRANSLIT:;
#GENRE:;
#ORIGIN:;
#CREDIT:;
#BANNER:113% Cookie Tin banner.png;
#BACKGROUND:113% Cookie Tin bg.png;
#PREVIEWVID:;
#JACKET:;
#CDIMAGE:;
#DISCIMAGE:;
#LYRICSPATH:;
#CDTITLE:;
#MUSIC:113% Cookie Tin.ogg;
#OFFSET:0.000000;
#SAMPLESTART:20.807999;
#SAMPLELENGTH:13.866669;
#SELECTABLE:YES;
#BPMS:0.000=112.500,
125.250=75.000,
157.000=112.500,
170.000=225.000,
279.000=150.000,
280.500=131.250,
282.000=112.500,
288.000=75.000,
297.000=225.000;
#STOPS:126.250=1.600;
#DELAYS:;
#WARPS:;
#TIMESIGNATURES:0.000=4=4;
#TICKCOUNTS:0.000=4;
#COMBOS:0.000=1;
#SPEEDS:0.000=1.000=0.000=0;
#SCROLLS:0.000=1.000;
#FAKES:;
#LABELS:0.000=Song Start;
#BGCHANGES:;
#KEYSOUNDS:;
#ATTACKS:
;

//---------------dance-single - ----------------
#NOTEDATA:;
#CHARTNAME:;
#STEPSTYPE:dance-single;
#DESCRIPTION:;
#CHARTSTYLE:;
#DIFFICULTY:Challenge;
#METER:17;
#RADARVALUES:0.662883,1.163344,0.250069,0.131981,1.097527,668.000000,630.000000,36.000000,19.000000,8.000000,3.000000,18.000000,15.000000,0.000000,0.662883,1.163344,0.250069,0.131981,1.097527,668.000000,630.000000,36.000000,19.000000,8.000000,3.000000,18.000000,15.000000,0.000000;
#CREDIT:Karl with a K;
#NOTES:
// measure 0
0000
0000
0000
0000
,  // measure 1
0000
0000
0000
0000
,  // measure 2
0000
0000
0000
0000
,  // measure 3
0000
0000
0000
0000
0000
0000
1000
0000
0001
0100
0000
0010
0000
0000
0010
1000
0001
1000
0002
0000
1003
0001
0010
0001
,  // measure 4
1000
0000
0001
0010
0000
0100
0010
0000
0010
1000
0000
0010
0100
0000
0001
0010
0000
0000
0400
0000
0000
1300
0100
0010
,  // measure 5
0001
0100
0010
1000
0010
1000
0001
0010
0100
1000
0010
0100
0001
0010
0001
1000
0100
1000
0001
0100
0001
1000
0100
1000
,  // measure 6
0100
1000
0100
1000
0001
1000
0001
1000
0001
0010
0001
0010
0001
0000
0000
1000
0000
0010
0000
0000
0010
1000
0000
0000
,  // measure 7
0100
0000
0000
0100
0000
0000
0010
0000
0000
0100
0000
0000
0001
0000
0000
0100
0000
0000
0010
0000
0010
0000
0000
0001
,  // measure 8
4000
0000
0000
3100
0000
0000
1000
0000
0000
0001
0000
0010
0000
0000
0010
0001
0000
0000
0100
0000
0000
0100
0000
0000
,  // measure 9
0010
0000
0000
0100
0000
0000
1000
0000
0000
0100
0000
0000
0001
0000
1000
0001
0000
1000
0010
0000
1000
0000
0000
0001
,  // measure 10
1000
0000
0000
0010
0000
0000
0100
0000
0000
0001
0000
1000
0001
0000
0000
0010
0000
0000
0100
0000
0000
0100
0000
0000
,  // measure 11
0010
0000
0010
0000
0000
0001
1000
0000
0001
0010
0000
0100
0010
0000
0001
0000
0000
1000
0000
0000
0010
0000
0000
0100
,  // measure 12
0000
0000
0001
1000
0000
0000
0010
0000
0000
1000
0000
0000
1000
0000
0000
0001
0000
0001
0000
0000
0100
0001
0000
0100
,  // measure 13
0010
0000
1000
0000
0000
0001
1000
0000
0000
0010
0000
0000
0100
0000
0000
0001
0000
1000
0100
0000
0000
0010
0000
0000
,  // measure 14
0001
0000
0000
0001
0000
0000
0010
0000
0010
0000
0000
0100
1000
0000
1000
0001
0000
0100
0010
0000
1000
0000
0000
0001
,  // measure 15
0000
0000
0010
0000
0000
0100
0000
0000
1000
0001
0000
0000
0010
0000
0000
0001
0000
0000
1000
0000
0000
0010
0000
0010
,  // measure 16
0000
0000
1000
0010
0000
0000
0110
0000
0000
0000
0000
0110
0000
0000
0000
0001
0000
0010
0001
0000
1000
0010
0000
0000
,  // measure 17
1001
0000
0000
0000
0000
1001
0000
0000
1000
0010
0000
0100
0001
0000
0010
0100
0000
1000
0001
0000
1000
0010
0000
0000
,  // measure 18
0100
0000
0010
0000
0000
0010
0100
0000
0000
0001
0000
0000
0010
0000
0000
0001
0000
0000
1000
0000
0000
0100
0000
0000
,  // measure 19
1000
0000
0000
0000
0000
0000
0010
0000
0000
0000
0010
0000
0000
0000
0000
0000
1000
0000
0001
0000
0000
0000
0000
0000
1000
0000
0000
0010
0000
0000
0001
0000
0000
1000
0000
0000
0100
0000
0000
0001
0000
0000
1000
0000
0000
0001
0000
0000
,  // measure 20
0000
0000
0000
1000
0000
0000
0000
1000
0000
0010
0000
0000
0000
0000
0000
0010
0000
0000
0000
0000
0000
1000
0000
0000
0000
0010
0000
1000
0000
0000
0000
1000
0000
0001
0000
0000
0000
0010
0000
0000
0000
0000
0000
0100
0000
0000
0000
0000
,  // measure 21
0000
0100
0000
1000
0000
0000
0000
0000
0000
0001
0000
0000
0000
0000
0000
1000
0000
0000
0000
0000
0000
0100
0000
0000
0000
1000
0000
0001
0000
0000
0000
1000
0000
0010
0000
0000
0000
0000
0000
0100
0000
0000
0000
0010
0000
0000
0000
0000
,  // measure 22
0000
1000
0000
0001
0000
0000
0000
0100
0000
0002
0000
0000
0000
0000
0000
1003
0000
0000
0000
2000
0000
0000
0000
0000
0000
3001
0000
0100
0000
0000
0000
0000
0000
0001
0000
0000
0000
0001
0000
0010
0000
0000
0000
0100
0000
0000
0000
0000
,  // measure 23
0000
1000
0000
0010
0000
0000
0000
0100
0000
0001
0000
0000
0000
0000
0000
1000
0000
0000
0000
0000
0000
0100
0000
0000
0000
0000
0000
0020
0000
0000
0000
0000
0000
0001
0000
0000
0000
0000
0000
0031
0000
0000
0000
0000
0000
1000
0000
0000
,  // measure 24
0000
0001
0000
0000
0000
0000
0000
0001
0000
1000
0000
0000
0000
0000
0000
0010
0000
0000
0000
0000
0000
1000
0000
0000
0000
0010
0000
0000
0000
0000
0000
0010
0000
1000
0000
0000
0000
0010
0000
0000
0000
0100
0000
0000
0000
0001
0000
0000
,  // measure 25
0000
0000
0000
0010
0000
0000
0000
0000
0000
0001
0000
0000
0000
0000
0000
0001
0000
0000
0000
0010
0000
0000
0000
0000
0000
0010
0000
0001
0000
0000
0000
0001
0000
0000
0000
0001
0000
0000
0000
0010
0000
0000
0000
0000
0000
0100
0000
0000
,  // measure 26
0000
0000
0000
1000
0000
0000
0000
0000
0000
0010
0000
0000
0000
1000
0000
0001
0000
0000
0000
1000
0000
0001
0000
0000
0000
0000
0000
0010
0000
0000
0000
0001
0000
1000
0000
0000
0000
0000
0000
0001
0000
0000
0000
0100
0000
0001
0000
0000
,  // measure 27
0000
0000
0000
1000
0000
0000
0000
0010
0000
0000
0000
0000
0000
0010
0000
1000
0000
0000
0000
0100
0000
0000
0000
0000
0000
0010
0000
0000
0000
0000
0000
0001
0000
1000
0000
0000
0000
0010
0000
0100
0000
0000
0000
0001
0000
0010
0000
0000
,  // measure 28
0000
0000
0000
0001
0000
0000
0000
0000
0000
1000
0000
0000
0000
0001
0000
0010
0000
0000
0000
0000
0000
0001
0000
0000
0000
1000
0000
0000
0000
0000
0000
0010
0000
0100
0000
0000
0000
0000
0000
0100
0000
0000
0000
0010
0000
1000
0000
0000
,  // measure 29
0000
0000
0000
1000
0000
0000
0000
0001
0000
1000
0000
0000
0000
0000
0000
0001
0000
0000
0000
0010
0000
0000
0000
0000
0000
0010
0000
0001
0000
0000
0000
0100
0000
0000
0000
0000
0000
0001
0000
1000
0000
0000
0000
0100
0000
1000
0000
0000
,  // measure 30
0000
0001
0000
1000
0000
0000
0000
0001
0000
0100
0000
0000
0000
0010
0000
0000
0000
0000
0000
0010
0000
0100
0000
0000
0000
0000
0000
0000
0000
0000
0000
0110
0000
0000
0000
0000
0000
0000
0000
1001
0000
0000
0000
0000
0000
4000
0000
0004
,  // measure 31
0000
0000
0000
0000
0000
0000
0000
0000
0000
0000
0000
0000
0000
0000
0000
0000
0000
0000
0000
0000
0000
0000
0000
0000
0000
0000
0000
0000
0000
0000
0000
0000
0000
0000
0000
0000
0000
0000
0000
0000
0000
0000
0000
0000
0000
0000
0000
0000
0000
0000
0000
0000
3003
0000
0000
0000
0000
0000
0000
0000
2002
0000
0000
0000
0000
0000
0000
0000
0000
0000
0000
0000
0000
0000
0000
0000
0000
0000
0000
0000
0000
0000
0000
0000
0000
0000
0000
0000
0000
0000
0000
0000
0000
0000
0000
0000
3003
0000
0000
0000
0000
0000
0000
0000
0000
0000
0000
0000
MMMM
0000
0000
0000
0000
0000
0000
0000
0000
0000
0000
0000
0000
0000
0000
0000
0000
0000
0000
0000
0000
0000
0000
0000
0010
0000
0000
0000
0000
0000
0000
0000
0000
0000
0000
0000
0000
0000
0000
0000
0000
0000
0000
0000
0000
0000
0000
0000
0000
0000
0000
0000
0000
0000
0000
0000
0000
0000
0000
0000
0000
0000
0000
0000
0000
0000
1000
0000
0000
0000
0000
0000
0000
0000
0000
0000
0000
0000
0000
0000
0000
0000
0000
0000
,  // measure 32
0000
0000
0000
0001
0000
0000
0000
0000
0000
0000
L000
0000
0000
0000
0000
0000
0100
0000
0000
0000
0000
0000
0000
0001
0000
0000
0000
0000
0000
0000
0L00
0000
,  // measure 33
0000
0000
0000
0000
0000
0100
0000
0000
0000
0000
0000
0000
0001
0000
0000
0000
0000
0000
0000
0L00
0000
0000
0000
0000
0000
0000
1000
0000
0000
0000
0000
0000
,  // measure 34
0000
0001
0000
0000
0000
0000
0000
L000
0000
0000
0000
0000
0000
0000
1000
0000
0000
0000
0000
0000
0100
0000
0000
0000
0000
0000
L000
0000
0000
0000
0000
0000
,  // measure 35
0010
0000
0000
0000
0000
0000
0001
0000
0000
0000
0000
0100
0000
0000
0000
0000
0000
0L00
0000
0000
0000
0000
1000
0000
0000
0000
0000
0000
0001
0000
0000
0000
,  // measure 36
0000
0000
L000
0000
0000
0000
0000
0000
0100
0000
0000
0000
0000
0000
0001
0000
0000
0000
0000
0000
0L00
0000
0000
0000
0000
0000
0100
0000
0000
0000
0000
0001
,  // measure 37
0000
0000
0000
0L00
0000
0000
0000
0000
1000
0000
0000
0000
0001
0000
0000
0000
L000
0000
0000
0000
0010
0000
0000
0000
0001
0000
0000
1000
0000
0000
0000
000L
,  // measure 38
0000
0000
0100
0000
0000
0000
1000
0000
0000
0000
0L00
0000
0000
0000
0100
0000
0000
0000
1000
0000
0000
0000
0L00
0000
0000
0000
0100
0000
0000
1000
0000
0L00
,  // measure 39
0000
0000
0000
0001
0000
0000
1000
0000
0000
000L
0000
0000
0001
0000
0000
0000
1000
0000
0000
0000
0100
0000
0000
0000
1000
0000
0000
0000
0100
0000
0000
0000
1000
0000
0000
0000
0001
0000
0000
0000
0100
0000
0000
0000
0001
0000
0000
0000
,  // measure 40
0100
0001
0010
0001
0100
0001
0100
0000
0010
1000
0100
1000
0100
0000
1000
0010
,  // measure 41
1000
0010
0001
1000
0100
0001
1000
0010
0001
1000
0100
0001
1000
0010
0001
0010
,  // measure 42
1000
0001
0100
0001
1000
0100
1000
0001
0100
0001
1000
0100
4000
0000
0000
0000
0000
0000
3001
0000
0000
0100
0000
0000
,  // measure 43
0001
1000
1000
0100
0010
0100
1000
0001
,  // measure 44
0100
0001
0001
0100
0010
0100
0001
1000
,  // measure 45
0100
0010
0100
1000
0100
0010
0001
0100
,  // measure 46
0010
0100
0001
0100
0010
0100
0001
0100
,  // measure 47
0001
0100
0100
1000
0010
0100
0001
0010
,  // measure 48
0010
0000
1000
0000
0010
0000
0100
0000
0001
0000
0100
0000
0001
1000
0001
1000
,  // measure 49
0100
0000
0000
0000
0000
0000
0000
0000
0010
0000
0000
0000
0000
0000
0000
0000
0000
0000
0000
0000
0000
0011
0000
0000
0000
0000
0000
0000
0000
0000
0000
0000
0000
0000
1010
0000
0000
0000
0000
0000
0000
0000
0000
0000
0000
0000
0000
1001
0000
0000
0000
0000
0000
0000
0000
0000
0000
0000
0000
0000
0101
0000
0000
0000
,  // measure 50
0000
0000
0000
0000
0000
0000
0000
0000
0000
1100
0000
0000
0000
0000
0000
0000
0000
0000
0000
0000
0000
0000
1001
0000
0000
0000
0000
0000
0000
0000
0000
0000
0000
0000
0000
0110
0000
0000
0000
0000
0000
0000
0000
0000
0000
0000
0000
0000
0010
0000
0000
0000
0000
0000
0000
0000
1000
0000
0000
0000
0000
0000
0000
0000
,  // measure 51
0100
1000
1000
0100
0010
0100
0010
0001
,  // measure 52
0100
0001
0001
0100
0010
0100
0010
1000
,  // measure 53
0100
1000
0010
1000
0100
1000
0001
0010
,  // measure 54
0001
0100
0001
0010
0001
0100
0001
1000
,  // measure 55
0100
1000
1000
0100
0001
0100
1000
0001
,  // measure 56
0100
0000
0000
0000
0000
0000
0001
0000
0000
0000
0000
0000
0001
0000
0000
0000
0000
0000
0100
0000
0000
0000
0000
0000
1000
0000
0000
0000
0000
0000
0100
0000
0000
0000
0000
0000
0004
0000
0000
0000
0000
0000
0000
0003
0000
0000
0000
0000
,  // measure 57
0000
0000
0041
0000
0000
0000
0000
0000
0000
0030
0000
0000
0000
0000
0000
0000
0410
0000
0000
0000
0000
0000
0000
0300
0000
0000
0000
0000
0000
0000
4100
0000
0000
0000
0000
0000
0000
3000
0000
0000
0000
0000
0000
0000
1004
0000
0000
0000
,  // measure 58
0000
0000
0000
0003
0000
0000
0000
0000
0000
0000
4001
0000
0000
0000
0000
0000
0000
0000
0000
0000
0000
0000
0000
0000
3040
0000
0000
0000
0000
0000
0000
0000
0000
0000
0000
0000
1030
0000
0000
0100
0000
0000
1000
0000
0000
0100
0000
0000
,  // measure 59
1000
0100
1000
0100
1000
0000
0000
0000
0011
0000
0000
0000
1010
0000
0000
0000
,  // measure 60
0101
0000
0000
0000
1100
0000
0000
0000
1001
0000
0000
0000
0001
0100
0001
0100
,  // measure 61
0001
0100
0001
0100
0001
0000
0100
0000
0001
0000
0100
0000
0001
0000
1000
0000
,  // measure 62
0001
0000
1000
0000
0010
0000
0001
0000
0010
0000
1000
0000
0040
0400
0000
0000
,  // measure 63
0000
0000
0000
0000
,  // measure 64
0000
0000
0000
0000
,  // measure 65
0000
0000
0000
0000
,  // measure 66
0000
0000
0000
0000
0000
0000
0000
0000
0330
0000
0000
0000
1000
0010
1000
0010
,  // measure 67
1000
0010
1000
0010
1000
0000
0000
0000
0001
0000
0010
0000
0001
0000
1000
0000
,  // measure 68
0010
0000
1000
0000
0000
0000
0000
0000
0000
0000
0000
0000
0001
0010
0001
0010
,  // measure 69
0001
0010
0001
0010
0001
0000
0100
0000
1000
0000
0100
0000
0001
0000
0010
0000
,  // measure 70
0100
1000
0010
1000
2200
3300
1100
0202
,  // measure 71
0303
0101
2002
3003
1001
2020
3030
1010
,  // measure 72
0011
0000
0000
0000
0000
0000
0100
0000
0000
0000
0000
0000
0120
0000
0000
0000
0000
0000
0130
0000
0000
0000
0000
0000
1001
0000
0000
0000
4000
0400
0040
0004
,  // measure 73
0000
0000
0000
0000
,  // measure 74
0000
3333
2222
0000
0000
3333
0000
0000
,  // measure 75
0000
0000
0000
0000
,  // measure 76
0000
MMMM
0000
0000
0000
0000
0000
0000
;

//---------------dance-single - ----------------
#NOTEDATA:;
#CHARTNAME:;
#STEPSTYPE:dance-single;
#DESCRIPTION:;
#CHARTSTYLE:;
#DIFFICULTY:Hard;
#METER:14;
#RADARVALUES:0.522963,0.799441,0.152820,0.250069,0.760628,527.000000,505.000000,22.000000,36.000000,0.000000,0.000000,20.000000,0.000000,0.000000,0.522963,0.799441,0.152820,0.250069,0.760628,527.000000,505.000000,22.000000,36.000000,0.000000,0.000000,20.000000,0.000000,0.000000;
#CREDIT:;
#NOTES:
// measure 0
0000
0000
0000
0000
,  // measure 1
0000
0000
0000
0000
,  // measure 2
0000
0000
0000
0000
,  // measure 3
0000
0000
0000
0000
0000
0000
0001
0000
0000
0100
0000
0010
0000
0000
0000
0100
0000
0000
0010
0000
1000
0000
0000
0000
,  // measure 4
0100
0000
0010
0001
0000
0100
0001
0000
0001
1000
0000
0001
0100
0000
0020
0000
0000
0000
1030
0000
0000
0100
0000
0010
,  // measure 5
0001
0000
0100
0010
0000
1000
0100
0000
0010
0001
0000
0100
0010
0000
1000
0100
0000
0010
0001
0000
0100
0010
0000
1000
,  // measure 6
0100
0000
0010
0100
0000
0010
0100
0000
0010
0100
0000
0010
0001
0000
0000
0001
0000
0010
0000
0000
0010
0100
0000
0000
,  // measure 7
1000
0000
0000
1000
0000
0000
0010
0000
0000
0001
0000
0000
0010
0000
0000
1000
0000
0000
0010
0000
0010
0000
0000
0100
,  // measure 8
0000
0000
0000
1000
0000
0000
0100
0000
0000
0100
0000
0010
0000
0000
0010
0100
0000
0000
0001
0000
0000
0001
0000
0000
,  // measure 9
0010
0000
0000
1000
0000
0000
0010
0000
0000
0001
0000
0000
0010
0000
0001
1000
0000
0000
0010
0000
1000
0000
0000
0000
,  // measure 10
0001
0000
0000
1000
0000
0000
0100
0000
0000
0000
0000
1000
0001
0000
0000
0010
0000
0000
0001
0000
0000
0000
0000
0000
,  // measure 11
0001
0000
0000
0000
0000
0000
1000
0000
0001
1000
0000
0001
0010
0000
0001
0000
0000
1000
0000
0000
0010
0000
0000
0100
,  // measure 12
0000
0000
0000
0001
0000
0000
0010
0000
0000
0001
0000
0000
0100
0000
0000
0001
0000
0000
0000
0000
1000
0001
0000
0100
,  // measure 13
0010
0000
1000
0000
0000
0000
0001
0000
0000
1000
0000
0000
0100
0000
0000
0000
0000
0100
1000
0000
0000
0001
0000
0000
,  // measure 14
0100
0000
0000
0000
0000
0000
0010
0000
0000
0000
0000
0000
0100
0000
0001
1000
0000
0001
0010
0000
0001
0000
0000
0000
,  // measure 15
1000
0000
0000
0001
0000
0000
0100
0000
0000
0001
0000
0000
0010
0000
0000
0001
0000
0000
0100
0000
0000
0001
0000
0001
,  // measure 16
0000
0000
1000
0001
0000
0000
1001
0000
0000
0000
0000
1001
0000
0000
0000
0010
0000
0000
0001
0000
0000
0100
0000
0000
,  // measure 17
0110
0000
0000
0000
0000
0110
0000
0000
0000
0100
0000
0000
0001
0000
0000
1000
0000
0000
0001
0000
0000
0010
0000
0000
,  // measure 18
0000
0000
0010
0000
0000
0000
0100
0000
0000
1000
0000
0000
0010
0000
0000
1000
0000
0000
0001
0000
0000
0100
0000
0000
,  // measure 19
0100
0000
0000
0000
0000
0000
0010
0000
0000
0000
0000
0000
0000
0000
0000
0000
1000
0000
0000
0000
0000
0000
0000
0000
0001
0000
0000
0010
0000
0000
0001
0000
0000
0010
0000
0000
0001
0000
0000
0010
0000
0000
0001
0000
0000
1000
0000
0000
,  // measure 20
0000
0000
0000
0000
0000
0000
0000
0001
0000
0010
0000
0000
0000
0000
0000
0000
0000
0000
0000
0000
0000
0010
0000
0000
0000
0001
0000
1000
0000
0000
0000
0000
0000
0001
0000
0000
0000
1000
0000
0000
0000
0000
0000
0200
0000
0000
0000
0000
,  // measure 21
0000
0000
0000
0300
0000
0000
0000
0000
0000
1000
0000
0000
0000
0000
0000
0010
0000
0000
0000
0000
0000
1000
0000
0000
0000
0001
0000
0000
0000
0000
0000
0001
0000
2000
0000
0000
0000
0000
0000
0000
0000
0000
0000
0000
0000
3001
0000
0000
,  // measure 22
0000
0010
0000
0001
0000
0000
0000
1000
0000
0002
0000
0000
0000
0000
0000
0000
0000
0000
0000
2003
0000
0000
0000
0000
0000
0000
0000
3200
0000
0000
0000
0000
0000
0300
0000
0000
0000
1000
0000
0010
0000
0000
0000
0100
0000
0000
0000
0000
,  // measure 23
0000
0001
0000
0010
0000
0000
0000
0100
0000
2000
0000
0000
0000
0000
0000
3002
0000
0000
0000
0000
0000
0203
0000
0000
0000
0000
0000
0320
0000
0000
0000
0000
0000
1030
0000
0000
0000
0000
0000
0001
0000
0000
0000
0000
0000
0100
0000
0000
,  // measure 24
0000
0001
0000
0000
0000
0000
0000
1000
0000
0000
0000
0000
0000
0000
0000
0020
0000
0000
0000
0000
0000
0000
0000
0000
0000
0000
0000
1030
0000
0000
0000
0000
0000
1000
0000
0000
0000
0010
0000
0000
0000
0100
0000
0000
0000
0001
0000
0000
,  // measure 25
0000
0000
0000
0010
0000
0000
0000
0000
0000
0200
0000
0000
0000
0000
0000
0000
0000
0000
0000
0000
0000
0310
0000
0000
0000
0000
0000
0001
0000
0000
0000
0010
0000
0000
0000
0001
0000
0000
0000
0010
0000
0000
0000
0000
0000
0100
0000
0000
,  // measure 26
0000
0000
0000
1000
0000
0000
0000
0000
0000
1000
0000
0000
0000
0001
0000
1000
0000
0000
0000
0100
0000
1000
0000
0000
0000
0000
0000
0001
0000
0000
0000
1000
0000
0001
0000
0000
0000
0100
0000
0000
0000
0000
0000
0100
0000
0020
0000
0000
,  // measure 27
0000
0000
0000
0030
0000
0000
0000
0010
0000
0000
0000
0000
0000
0000
0000
0020
0000
0000
0000
2030
0000
0000
0000
0000
0000
3002
0000
0000
0000
0000
0000
0103
0000
0001
0000
0000
0000
1000
0000
0100
0000
0000
0000
1000
0000
0020
0000
0000
,  // measure 28
0000
0000
0000
0030
0000
0000
0000
0000
0000
0010
0000
0000
0000
0100
0000
0001
0000
0000
0000
0000
0000
1000
0000
0000
0000
0100
0000
0000
0000
0000
0000
0010
0000
0001
0000
0000
0000
0000
0000
0000
0000
0000
0000
0000
0000
0010
0000
0000
,  // measure 29
0000
0000
0000
0100
0000
0000
0000
0010
0000
0001
0000
0000
0000
0000
0000
0001
0000
0000
0000
1000
0000
0000
0000
0000
0000
1000
0000
0010
0000
0000
0000
1000
0000
0000
0000
0000
0000
0001
0000
0010
0000
0000
0000
0001
0000
0000
0000
0000
,  // measure 30
0000
1000
0000
0010
0000
0000
0000
1000
0000
0100
0000
0000
0000
0000
0000
2000
0000
0000
0000
0000
0000
3001
0000
0000
0000
0000
0000
0000
0000
0000
0000
0110
0000
0000
0000
0000
0000
0000
0000
0110
0000
0000
0000
0000
0000
0220
0000
0000
,  // measure 31
0000
0000
0000
0000
0000
0000
0000
0000
0330
0000
2002
0000
0000
0000
0000
0000
3003
0000
0000
0000
0000
0000
0010
0000
0000
0000
0000
0000
0000
1000
0000
0000
,  // measure 32
0000
0000
0000
0001
0000
0000
0000
0000
0000
0000
1000
0000
0000
0000
0000
0000
0100
0000
0000
0000
0000
0000
0000
1000
0000
0000
0000
0000
0000
0000
0001
0000
,  // measure 33
0000
0000
0000
0000
0000
0100
0000
0000
0000
0000
0000
0000
0001
0000
0000
0000
0000
0000
0000
0010
0000
0000
0000
0000
0000
0000
0001
0000
0000
0000
0000
0000
,  // measure 34
0000
1000
0000
0000
0000
0000
0000
0010
0000
0000
0000
0000
0000
0000
1000
0000
0000
0000
0000
0000
0100
0000
0000
0000
0000
0000
0010
0000
0000
0000
0000
0000
,  // measure 35
0001
0000
0000
0000
0000
0000
1000
0000
0000
0000
0000
0100
0000
0000
0000
0000
0000
0010
0000
0000
0000
0000
0001
0000
0000
0000
0000
0000
1000
0000
0000
0000
,  // measure 36
0000
0000
0010
0000
0000
0000
0000
0000
0100
0000
0000
0000
0000
0000
0001
0000
0000
0000
0000
0000
0010
0000
0000
0000
0000
0000
0100
0000
0000
0000
0000
1000
,  // measure 37
0000
0000
0000
0010
0000
0000
0000
0000
1000
0000
0000
0000
0001
0000
0000
0000
0010
0000
0000
0000
0001
0000
0000
0000
1000
0000
0000
0001
0000
0000
0000
0010
,  // measure 38
0000
0000
0100
0000
0000
0000
1000
0000
0000
0000
0010
0000
0000
0000
0100
0000
0000
0000
0001
0000
0000
0000
0010
0000
0000
0000
0100
0000
0000
1000
0000
0010
,  // measure 39
0000
0000
0000
1000
0000
0000
0001
0000
0000
0010
0000
0000
0001
0000
0000
0000
0000
0000
0000
0000
0001
0000
0000
0000
0000
0000
0000
0000
0001
0000
0000
0000
0000
0000
0000
0000
1000
0000
0000
0000
0000
0000
0000
0000
1000
0000
0000
0000
,  // measure 40
0000
1000
0010
0000
0010
0000
0010
0000
0100
0000
0100
0000
0100
0000
0001
1000
,  // measure 41
0001
0000
0000
0100
0000
0000
0001
0000
0000
1000
0000
0000
0100
0000
0000
1000
0000
0000
0001
0000
0000
0100
0000
0000
0001
0000
0000
1000
0000
0000
0100
0000
0000
1000
0000
0000
0004
0000
4000
0000
0000
0000
0000
0000
0000
0000
0000
0000
,  // measure 42
0000
0000
0000
3003
1001
0000
1000
0100
,  // measure 43
1000
0100
0010
0001
0010
0001
1000
0010
,  // measure 44
1000
0010
0100
0001
0100
0001
1000
0100
,  // measure 45
0010
0001
1000
0010
0100
0001
1000
0001
,  // measure 46
0100
0010
1000
0001
0010
0100
1000
0010
,  // measure 47
1000
0010
0100
0001
0100
0001
0010
0001
,  // measure 48
0010
0000
0001
0000
1000
0000
0100
0000
1000
0000
0100
0000
1000
0001
1000
0001
,  // measure 49
1000
0000
0000
0000
0000
0000
0000
0000
0002
0000
0000
0000
0000
0000
0000
0000
0000
0000
0000
0000
0000
0023
0000
0000
0000
0000
0000
0000
0000
0000
0000
0000
0000
0000
0230
0000
0000
0000
0000
0000
0000
0000
0000
0000
0000
0000
0000
2300
0000
0000
0000
0000
0000
0000
0000
0000
0000
0000
0000
0000
3020
0000
0000
0000
,  // measure 50
0000
0000
0000
0000
0000
0000
0000
0000
0000
2030
0000
0000
0000
0000
0000
0000
0000
0000
0000
0000
0000
0000
3002
0000
0000
0000
0000
0000
0000
0000
0000
0000
0000
0000
0000
0203
0000
0000
0000
0000
0000
0000
0000
0000
0000
0000
0000
0000
0310
0000
0000
0000
0000
0000
0000
0000
1000
0000
0000
0000
0000
0000
0000
0000
,  // measure 51
0010
1000
0001
0100
0001
0100
0001
0010
,  // measure 52
0001
0010
0100
1000
0100
1000
0001
0010
,  // measure 53
0100
1000
0001
0100
0010
1000
0001
1000
,  // measure 54
0010
0100
0001
1000
0100
0010
0001
0100
,  // measure 55
0001
0100
0010
1000
0010
1000
0100
1000
,  // measure 56
0100
1000
0001
0010
0001
0010
0004
0000
,  // measure 57
0000
0043
0000
0000
0000
0000
0000
0000
0034
0000
0000
0000
0000
0000
0000
4003
0000
0000
0000
0000
0000
0000
3400
0000
,  // measure 58
0000
0000
0000
0000
0000
0000
0000
0000
0000
0000
0340
0000
0000
0000
0000
0000
0000
0000
0000
0000
0000
0000
0000
0000
0031
0000
0000
0000
0000
0000
0000
0000
0000
0000
0000
0000
0004
0000
0000
0400
0000
0000
0000
0000
0000
0000
0000
0000
,  // measure 59
0000
0000
0000
0303
0101
0000
0000
0000
1001
0000
0000
0000
1001
0000
0000
0000
,  // measure 60
1001
0000
0000
0000
1001
0000
0000
0000
1001
0000
0000
0000
4000
0400
0000
0000
,  // measure 61
0000
0000
0000
3300
1100
0000
0000
0000
0010
0000
0100
0000
0010
0000
0100
0000
,  // measure 62
0010
0000
0100
0000
0010
0000
0100
0000
0010
0000
0100
0000
4000
0004
0000
0000
,  // measure 63
0000
0000
0000
0000
,  // measure 64
0000
0000
0000
0000
,  // measure 65
0000
0000
0000
0000
,  // measure 66
0000
0000
0000
0000
0000
0000
0000
0000
3003
0000
0000
0000
0004
0040
0000
0000
,  // measure 67
0000
0000
0000
0033
0011
0000
0000
0000
1000
0000
0010
0000
1000
0000
0001
0000
,  // measure 68
0010
0000
0001
0000
0000
0000
0000
0000
0000
0000
0000
0000
4000
0040
0000
0000
,  // measure 69
0000
0000
0000
3030
1010
0000
0000
0000
0000
0000
0000
0000
1000
0000
0100
0000
,  // measure 70
0010
0001
0010
0001
0200
0300
0100
0002
,  // measure 71
0003
0001
2000
3000
1000
0020
0030
0010
,  // measure 72
0110
0000
0000
0000
0000
0000
2002
0000
0000
3003
0000
0000
1001
0000
4000
0004
,  // measure 73
0000
0000
0000
0000
,  // measure 74
3003
1001
0000
0000
;
