#TITLE:1116;
#SUBTITLE:;
#ARTIST:Dustup;
#TITLETRANSLIT:;
#SUBTITLETRANSLIT:;
#ARTISTTRANSLIT:;
#GENRE:;
#CREDIT:;
#MUSIC:1116.ogg;
#BANNER:1116.png;
#BACKGROUND:1116-bg.png;
#CDTITLE:;
#SAMPLESTART:66.316;
#SAMPLELENGTH:15.000;
#SELECTABLE:YES;
#OFFSET:0.000;
#BPMS:0.000=190.000;
#STOPS:;
#BGCHANGES:;
#FGCHANGES:;

//--------------- dance-single - Marten ----------------
#NOTES:
     dance-single:
     Marten:
     Medium:
     15:
     0,0,0,0,0:
0000
0000
0000
0000
,
0000
0000
0000
0000
,
0000
0000
0000
0000
,
0000
0000
0000
0000
,
0000
0000
0000
0000
,
0001
0000
0000
0000
,
1000
0000
0000
0000
,
0010
0000
0000
0000
0000
0000
0000
0000
0000
0000
0000
0000
0000
0000
1000
0100
,
1000
0000
0001
0100
0001
0000
0000
0000
0000
0000
0000
0000
0000
0000
0000
0000
,
0101
0000
0000
0001
0000
0000
0010
0000
0000
0100
0000
0000
1000
0000
0100
0000
,
1100
0000
0000
1000
0000
0000
0010
0000
0000
0100
0000
0000
0001
0000
0010
0000
,
0011
0000
0000
0010
0000
0000
0100
0000
0000
1000
0000
0000
0010
0000
1000
0000
,
1010
0000
0000
1000
0000
0000
0010
0000
0000
0100
0000
0000
0001
0000
1000
0001
,
1000
0100
0010
0001
1000
0010
0100
0001
,
0010
0010
0001
0001
1000
1000
0010
0010
,
0100
0001
0100
0000
0001
1000
0001
0000
1000
0100
1000
0000
0100
0010
0100
0000
,
2000
3200
0320
0031
,
2002
3003
0000
0000
,
0000
0000
0000
0000
,
0000
0000
0000
0000
,
0000
0000
0000
0000
,
2001
0000
0000
3010
0000
0000
0100
0000
0001
0100
0001
0000
1000
0000
1000
0000
,
0001
0000
0000
0010
0000
0000
0100
0000
1000
0100
1000
0000
0001
0000
0001
0000
,
0100
0000
0000
0010
0000
0000
1000
0000
0001
0010
0001
0000
0010
0000
0010
0000
,
0100
0000
1000
0010
0200
0000
0302
0000
,
2003
0000
0000
3100
0000
0000
0001
0000
0100
0010
0100
0000
0010
0000
0010
0000
,
0001
0000
0000
0100
0000
0000
1000
0000
0100
0010
0100
0000
0010
0000
0010
0000
,
1000
0000
0000
0010
0000
0000
0001
0000
0010
0100
0010
0000
1000
0000
1000
0000
,
0001
0010
0100
1000
0001
0001
1000
1000
,
0001
0010
0100
0000
1000
0010
0001
0010
,
1000
0100
0010
0001
1000
0010
0100
0001
,
1000
0100
0010
0000
0001
0010
1000
0010
,
0001
0100
0001
0100
0001
0000
0010
0000
0100
0000
1000
0000
0001
0000
0000
0000
,
1000
0100
0010
0000
0001
0100
1000
0100
,
0001
0010
0100
1000
0001
0100
0010
1000
,
0001
0010
0100
0000
1000
0100
0001
0100
,
1000
0010
1000
0010
1000
0000
0100
0000
0010
0000
0001
0000
1000
0000
0000
0000
,
0010
1000
0001
0010
0001
1000
0100
0000
,
1000
0010
0001
0010
1000
0100
0010
0000
,
0010
0001
1000
0010
1000
0001
0100
0000
,
0001
0100
0001
0000
1000
0000
0100
0000
0010
0000
0001
0000
1000
0000
0000
0000
,
0001
0010
0100
1000
0010
0100
0001
0100
,
0010
1000
0001
0000
0010
0001
1000
0000
,
0100
0010
0001
0100
0010
1000
0100
0000
,
1000
0010
1000
0000
0001
0000
0010
0000
1000
0000
0010
0000
0001
0000
0000
0000
,
1010
1010
0011
0011
,
1100
1100
0101
0101
,
0110
0110
1001
1001
,
0001
0010
0100
1000
0002
0000
2003
0000
,
3010
1000
0100
0010
0001
0100
0010
1000
,
0001
0001
0010
0010
0100
0100
1000
1000
,
0001
0000
0100
0000
1000
0000
0100
0000
0001
0000
1000
0000
0010
0100
0010
0100
,
0010
0010
1010
0101
,
0002
0000
0000
0000
0023
0000
0000
0000
0230
0000
0000
0000
2300
0000
0000
3010
,
0200
0000
0000
0000
0000
0000
0000
0000
0000
0000
0000
0000
0302
0000
0000
0000
0000
0000
0000
0000
0000
0000
0000
0000
2003
0000
0000
0000
0000
0000
0000
0000
0000
3001
0000
0000
0020
0000
0000
0000
0000
0000
0000
0000
0031
0000
0000
0000
,
1000
0000
0000
0000
0010
0000
0000
0000
0100
0000
0000
0000
0020
0000
0000
0000
0000
0000
0000
0000
0000
0000
0000
0000
2030
0000
0000
0000
0000
0000
0000
0000
0000
0000
0000
0000
3002
0000
0000
0000
0000
0000
0000
0000
0000
1003
0000
0000
,
0200
0000
0000
0000
0302
0000
0000
0000
2003
0000
0000
0000
3020
0000
0000
0031
,
0100
0000
0000
0000
0010
0000
0000
0000
1000
0000
0000
0000
0002
0000
0000
0000
0000
0000
0000
0000
0000
0000
0000
0000
0203
0000
0000
0000
0000
0000
0000
0000
0000
0000
0000
0000
1300
0000
0000
0000
0000
0000
0000
0000
0000
0100
0000
0000
,
0020
0000
0000
2030
0000
0000
3200
0000
0000
0310
1000
0010
,
0002
2003
3020
0230
,
0301
0010
1000
0010
0001
0001
0100
0000
,
0010
0000
0000
0100
0000
0000
0010
0000
0000
0000
0000
0000
2000
0000
0000
0000
0000
0000
0000
0000
0000
0000
0000
0000
3002
0000
0000
0000
0000
0000
0000
0000
0000
0000
0000
0000
0023
0000
0000
0000
0000
0000
0000
0000
0130
0000
0000
0000
,
2000
0000
0000
0000
3002
0000
0000
0000
0203
0000
0000
0000
0310
1000
0010
1000
,
0002
0000
0013
0200
0301
0200
1300
0200
,
0310
0200
0301
0200
1300
0010
0210
0000
,
0302
0000
0003
0000
2000
0000
0000
0000
3020
0000
0000
0000
0230
0000
0000
1300
,
0200
0000
0302
0000
2003
0000
3200
0300
,
0010
0000
0001
0000
1000
0000
0001
0000
0100
0000
0010
1000
0010
0000
0100
0000
,
0001
0000
0010
0000
1000
0000
0001
0000
0100
0000
1000
0000
,
2002
0000
3003
0000
0001
0000
0000
0001
0000
0010
0000
0000
0100
0000
1000
0001
,
1000
0000
0010
0000
0100
0000
1000
0000
0000
0100
0000
0000
0010
0000
1000
0000
,
2002
0000
3003
0000
1000
0000
0000
1000
0000
0010
0000
0000
0100
0000
0001
1000
,
0001
0000
0010
0000
0100
0000
0001
0000
0000
0100
0000
0000
0010
0000
0001
0000
,
2001
0000
3020
0000
0032
0000
0203
0000
2300
0000
3002
0000
,
0023
0000
0000
0000
2030
0000
0000
0000
3200
0000
0000
0000
0301
0000
0000
0010
0000
0000
0100
0000
0000
1000
0000
0000
,
1001
0000
0000
0000
0001
0100
0001
0000
0000
0000
1000
0100
1000
0000
0001
0000
,
1000
0000
0100
0000
0010
0000
0100
0000
1000
0010
1000
0000
0001
0010
0001
0000
,
2000
0000
0000
3001
0100
0000
1000
0000
0000
0100
0000
0000
0001
0000
1000
0000
,
0002
0000
0000
1003
0100
0000
0001
0000
0000
0100
0000
0000
1000
0001
1000
0001
,
2000
0000
0000
3001
0010
0000
1000
0000
0000
0010
0000
0000
0001
0000
1000
0000
,
0002
0000
0000
1003
0010
0000
0001
0000
0020
0000
0000
0000
2030
0000
0000
0000
,
3002
0000
0000
0013
0100
0000
1000
0000
0001
0100
0001
0000
1000
0000
0001
0000
,
2000
0000
0000
3010
0100
0000
0001
0000
1000
0100
1000
0000
0001
0000
1000
0000
,
0001
0000
0100
0000
0010
0000
1000
0000
0001
0000
1000
0000
0100
0010
0100
0010
,
0002
0203
0320
1030
,
2002
3003
0000
0000
;

//--------------- dance-single - Marten ----------------
#NOTES:
     dance-single:
     Marten:
     Hard:
     17:
     0,0,0,0,0:
0000
0000
0000
0000
,
0000
0000
0000
0000
,
0000
0000
0000
0000
,
0000
0000
0000
0000
,
0000
0000
0000
0000
,
1000
0000
0000
0000
,
0001
0000
0000
0000
,
0010
0000
0000
0000
0000
0000
0000
0000
0000
0000
0000
0000
0000
0000
0001
0100
,
0010
0000
1000
0100
0010
0000
0000
0000
0000
0000
0000
0000
0000
0000
0000
0000
,
0011
0000
0000
0001
0100
0000
1000
0000
0000
0100
0000
0000
0010
0000
1000
0000
,
1010
0000
0000
1000
0100
0000
0001
0000
0000
0100
0000
0000
0010
0001
0010
0001
,
1000
0000
0000
0001
0010
0000
1000
0000
0000
0010
0000
0000
0100
0000
1000
0000
,
1100
0000
0000
1000
0010
0000
0001
0000
0000
0010
0000
0000
0100
0001
1000
0100
,
0010
0001
0100
0001
0010
0001
0100
0010
,
1000
0100
1000
0010
1000
0100
0010
0001
,
1000
0100
1000
0001
1000
0010
0100
0001
0100
0010
1000
0001
0010
0100
0010
0001
,
2000
3200
0320
0031
,
2002
3003
0000
0000
,
0000
0000
0000
0000
,
0000
0000
0000
0000
,
0000
0000
0000
0000
,
0102
0000
0000
0013
0100
0000
2000
0000
3010
0100
0001
1000
0100
0000
0100
0000
,
1000
0000
0000
0010
0100
0000
0002
0000
0013
0100
1000
0001
0100
0000
0100
0000
,
0010
0000
0000
1000
0001
0000
0020
0000
0130
1000
0001
0100
0001
0000
0001
0000
,
0010
0000
0000
0001
1000
0000
0010
0100
0002
0000
0000
0000
2003
0000
0000
0000
,
3002
0000
0000
0103
1000
0000
0200
0000
0310
1000
0001
1000
0100
0000
0100
0000
,
1000
0000
0000
0100
0001
0000
0200
0000
0310
0001
1000
0001
0100
0000
0100
0000
,
0010
0000
0000
0100
1000
0000
0200
0000
0301
0010
0100
0010
0001
0000
0001
0000
,
1000
0000
0010
0100
0001
0000
0010
0000
1000
0000
0010
0000
0001
0000
0000
0000
,
1000
0000
0001
0010
0001
0000
0100
0000
0010
0000
0001
0000
0010
0000
1000
0000
,
0001
0100
0001
0000
1000
0000
0100
0000
0010
0100
0010
0000
0001
0000
1000
0000
,
0100
0000
1000
0010
1000
0000
0001
0000
0100
0000
1000
0000
0100
0000
0010
0000
,
1000
0010
0100
0001
1000
0100
0010
0001
1000
0000
0100
0000
0001
0000
0100
0000
,
1000
0000
0010
1000
0010
0000
0100
0000
1000
0000
0100
0000
0001
0000
1000
0000
,
0001
0010
0001
0000
0100
0000
0001
0000
1000
0010
1000
0000
0100
0000
0010
0000
,
1000
0000
0010
0001
0010
0000
0100
1000
0100
0000
0010
0000
0001
0000
0100
0000
,
0001
0010
0100
1000
0001
0100
0010
1000
0001
0000
0100
0000
1000
0000
0100
0000
,
0001
0010
1000
0001
0100
1000
0001
0000
,
0001
0010
0100
0100
1000
0010
0100
0001
,
1000
0100
0001
1000
0010
0001
1000
0000
,
1000
0010
0100
0001
0010
0100
1000
0001
1000
0000
0100
0000
0010
0000
0001
0000
,
1000
0010
0001
1000
0100
0001
1000
0001
,
1000
0010
0100
0100
0010
1000
0100
0010
,
0001
0010
1000
0001
0100
1000
0001
1000
,
0001
0010
0100
1000
0010
0100
0001
1000
0001
0000
0100
0000
0010
0000
1000
0000
,
1100
0000
0010
0001
0101
0000
0100
0001
,
0011
0000
0100
1000
1010
0000
0100
0001
,
1001
0000
0001
0010
0110
0000
0100
1000
,
1001
0000
1000
0010
0200
0000
0320
0000
,
1030
1000
0001
0001
0100
0100
0010
0010
,
1000
0010
0001
0100
1000
0010
0001
0100
,
1000
0100
1000
0100
0010
0100
0010
0100
1000
0001
0100
0010
0100
0001
0010
0100
,
1000
1000
1001
1010
,
0020
0000
1000
0000
0230
0000
0001
0000
0320
0000
0000
0000
2030
0000
0000
3100
,
0020
0000
0000
0000
0000
0000
0032
0000
0000
0100
0000
0000
2003
0000
0000
0000
0000
0000
3002
0000
0000
0000
0013
0000
,
0001
0100
0010
2000
0000
0000
3200
0000
0000
0320
0000
1030
,
0020
0000
0000
0000
0032
0000
0000
0000
0203
0000
0010
0000
0320
0000
0000
1030
,
0001
0000
0000
0000
0010
0000
0000
0000
0100
0000
0000
0000
2000
0000
0000
0000
0000
0000
0100
0000
0000
0000
0000
0000
3200
0000
0000
0000
0000
0000
0000
0000
0000
0000
0000
0000
2300
0000
0000
0000
0000
0000
0000
0000
0000
3001
0000
0000
,
0200
0000
0000
0000
0000
0000
0302
0000
0000
0100
0000
0000
0203
0000
0000
0000
0000
0000
0310
0000
1000
0000
0001
0000
,
2000
3200
0320
0032
,
1003
0010
0001
0010
1000
1000
0200
0000
,
0310
0000
0000
0001
0000
0000
0010
0000
0000
0001
0000
0000
2000
0000
0000
0000
0000
0000
0000
0000
0000
0000
0000
0000
3002
0000
0000
0000
0000
0000
0000
0000
0000
0000
0000
0000
0203
0000
0000
0000
0000
0000
0000
0000
0310
0000
0000
0000
,
0002
0000
0000
0000
0023
0000
0000
0000
2030
0000
0000
0000
3001
0010
0100
0010
,
0002
1003
0010
1010
1000
1100
0100
0101
,
0001
0011
0010
1010
1000
1001
0110
0000
,
2001
0000
3000
0000
0200
0000
0000
0000
0302
0000
0000
0000
0203
0000
0000
1300
,
0002
0000
0203
0000
2300
0000
3200
0300
,
0001
0000
0010
0000
0110
0000
0100
0000
1000
0000
0010
0100
0001
0000
0100
0000
,
0110
0000
1010
0000
1100
0000
0110
0000
0011
0000
0101
0000
,
0220
0000
0330
0000
1010
0000
0000
0011
0000
0101
0000
0000
1001
0000
0001
1000
,
0100
0000
1000
0000
1100
0000
1001
0000
0000
0101
0000
0000
0011
0000
0010
0000
,
0220
0000
0330
0000
0011
0000
0000
1010
0000
1100
0000
0000
1001
0000
1000
0001
,
0100
0000
0001
0000
0101
0000
1001
0000
0000
1100
0000
0000
1010
0000
0010
0000
,
0220
0330
0101
0000
0011
0000
1010
0000
1100
0000
0101
0000
,
0110
0000
0000
0000
1100
0000
0000
0000
1010
0000
0000
0000
0011
0000
0000
0001
0000
0000
1001
0000
0000
1000
0000
0000
,
1010
0000
0010
0000
0100
0001
0010
0000
0010
0000
0100
1000
0010
0000
0100
0001
,
1000
0000
0100
0010
0001
0000
0100
0010
1000
0100
0010
0001
0100
0010
1000
0001
,
0020
0000
0000
1030
0010
0000
0001
0000
1000
0100
0010
0100
1000
0000
1000
0000
,
0020
0000
0000
0031
0010
0000
1000
0000
0001
0100
0010
0100
0001
0010
0100
1000
,
0200
0000
0000
0301
0100
0000
0010
0000
0001
0100
0010
1000
0010
0000
0010
0000
,
0200
0000
0000
1300
0100
0000
0001
1000
0200
0000
0000
0000
0320
0000
0000
0000
,
0032
0000
0000
0103
0010
0000
0001
0000
0010
1000
0100
1000
0001
0000
0001
0000
,
2000
0000
0000
3010
0100
0000
0001
0000
0010
0001
0100
0001
1000
0000
1000
0100
,
0010
0001
0100
0010
1000
0001
0010
0100
1000
0010
0100
0001
1000
0100
0010
0001
,
2000
3200
0320
0031
,
2002
3003
0000
0000
;
