#VERSION:0.83;
#TITLE:!CAUTION! small but deadly;
#SUBTITLE:;
#ARTIST:Z-i-v Sound Team "Karl with a K";
#TITLETRANSLIT:;
#SUBTITLETRANSLIT:;
#ARTISTTRANSLIT:;
#GENRE:;
#ORIGIN:;
#CREDIT:;
#BANNER:!CAUTION! small but deadly banner.png;
#BACKGROUND:!CAUTION! small but deadly bg.png;
#PREVIEWVID:;
#JACKET:;
#CDIMAGE:;
#DISCIMAGE:;
#LYRICSPATH:;
#CDTITLE:;
#MUSIC:!CAUTION! small but deadly.ogg;
#OFFSET:0.000000;
#SAMPLESTART:7.219538;
#SAMPLELENGTH:14.423077;
#SELECTABLE:YES;
#BPMS:0.000=104.000,
12.500=416.000,
161.000=208.000,
224.000=104.000,
224.750=208.000,
225.250=416.000,
227.250=208.000,
227.750=104.000,
228.750=208.000,
229.250=416.000,
231.250=208.000,
231.750=104.000,
232.750=208.000,
233.250=416.000,
235.250=208.000,
235.750=104.000,
236.750=208.000,
237.250=416.000,
239.250=208.000,
239.750=104.000,
240.750=208.000,
241.250=416.000,
243.250=208.000,
243.750=104.000,
244.750=208.000,
245.250=416.000,
247.250=208.000,
247.750=104.000,
248.750=208.000,
249.250=416.000,
251.250=208.000,
251.750=104.000,
252.750=208.000,
253.250=416.000,
255.250=208.000,
255.750=104.000,
256.000=208.000,
288.000=104.000,
322.000=208.000,
344.000=104.000,
346.000=208.000,
348.000=416.000,
482.000=208.000,
483.000=416.000,
560.000=208.000,
561.000=416.000;
#STOPS:140.000=0.072,
144.500=0.072,
147.500=0.072,
151.000=0.072,
155.500=0.072,
191.000=0.288,
322.000=0.288,
322.500=0.288,
323.000=0.288,
323.500=0.288,
324.500=0.288,
325.000=0.288,
325.500=0.288,
328.000=0.288,
328.500=0.288,
329.000=0.288,
330.000=0.288,
330.500=0.288,
331.000=0.288,
333.500=0.288,
334.000=0.288,
334.500=0.288,
335.000=0.288,
336.000=0.288,
336.500=0.288,
337.000=0.288,
339.500=0.288,
340.000=0.288,
340.500=0.288,
341.500=0.288,
342.000=0.288,
342.500=0.288,
343.000=0.288,
551.000=0.072,
555.500=0.072,
558.500=0.072;
#DELAYS:;
#WARPS:;
#TIMESIGNATURES:0.000=4=4;
#TICKCOUNTS:0.000=4;
#COMBOS:0.000=1;
#SPEEDS:0.000=1.000=0.000=0;
#SCROLLS:0.000=1.000;
#FAKES:;
#LABELS:0.000=Song Start;
#BGCHANGES:;
#KEYSOUNDS:;
#ATTACKS:
;

//---------------dance-single - ----------------
#NOTEDATA:;
#CHARTNAME:;
#STEPSTYPE:dance-single;
#DESCRIPTION:;
#CHARTSTYLE:;
#DIFFICULTY:Challenge;
#METER:19;
#RADARVALUES:1.089826,1.954966,0.470466,0.195424,0.607986,1054.000000,989.000000,65.000000,27.000000,0.000000,0.000000,0.000000,0.000000,0.000000,1.089826,1.954966,0.470466,0.195424,0.607986,1054.000000,989.000000,65.000000,27.000000,0.000000,0.000000,0.000000,0.000000,0.000000;
#CREDIT:Karl with a K;
#NOTES:
// measure 0
0000
0000
0000
0000
,  // measure 1
0000
0000
0000
0000
0000
0000
0000
0000
0000
1000
0010
1000
0000
0100
0000
0010
,  // measure 2
0001
0000
0100
0100
0001
0000
0100
0010
0000
1000
0000
0100
0100
0010
0000
0010
,  // measure 3
0001
1000
0001
0000
1000
0000
0100
0000
1000
0000
0100
0000
0000
0000
1000
0000
,  // measure 4
0000
0001
0000
0100
0000
0010
0100
0001
,  // measure 5
0000
1000
0000
0100
1000
0100
1000
0001
,  // measure 6
0000
1000
0000
0100
1000
0010
0000
0100
,  // measure 7
0000
0001
0000
1000
0000
0100
0010
0001
,  // measure 8
1000
0010
1000
0001
0000
0011
0000
0011
,  // measure 9
0000
0011
0000
1000
0001
0010
0001
0010
,  // measure 10
0000
0001
0000
1000
0000
0010
0000
0100
,  // measure 11
0010
1000
0000
0001
0000
0010
0001
0010
,  // measure 12
0001
1000
0000
0001
0000
0010
0001
0100
,  // measure 13
0000
0010
0000
1000
0000
0001
0000
0100
,  // measure 14
0010
1000
0001
0100
0001
1000
0000
1010
,  // measure 15
0000
1010
0000
1010
0000
1000
0010
1000
,  // measure 16
0010
1000
0001
1000
0001
1000
0100
1000
,  // measure 17
0100
0010
0001
0010
0001
0010
0001
1000
,  // measure 18
0100
1000
0100
1000
0001
1000
0001
0100
,  // measure 19
0010
1000
0010
1000
0010
0100
0010
0100
,  // measure 20
0010
0100
0001
1000
0001
0010
0001
1000
,  // measure 21
0001
0010
0001
0010
0001
0010
0001
0100
,  // measure 22
0001
1000
0010
1000
0000
0001
0000
0100
,  // measure 23
0001
0100
0000
0001
0000
1000
0000
0001
,  // measure 24
0000
0100
0001
1000
0001
0010
0000
0001
,  // measure 25
0000
0100
0010
1000
0000
0010
0000
1000
,  // measure 26
0000
0001
0000
0100
0001
1000
0001
0010
,  // measure 27
0000
0001
0000
1001
0000
1001
0000
1001
,  // measure 28
0000
1000
0010
1000
0000
0001
0000
0010
,  // measure 29
0001
0000
1000
0010
1000
0000
0001
0010
,  // measure 30
0001
0000
1000
0010
1000
0001
0010
0000
,  // measure 31
0001
0010
0001
1000
0010
0000
1000
0000
,  // measure 32
0001
0010
0000
0001
0010
0001
0000
1000
,  // measure 33
0010
1000
0000
0001
0010
0001
0010
0001
,  // measure 34
0000
1000
0010
1000
0100
1000
0100
0000
,  // measure 35
1000
0000
0000
0000
0001
0100
0001
0000
,  // measure 36
1000
0100
0000
0000
1000
0001
0100
0001
,  // measure 37
0000
0000
1000
0100
1000
0000
0001
0000
,  // measure 38
0000
0000
0100
0001
0000
0000
1000
0100
,  // measure 39
0000
0000
1000
0010
0100
0001
1000
0100
,  // measure 40
0010
0000
0001
0000
1000
0100
1000
0100
1000
0000
0100
0000
1000
0000
0001
0000
,  // measure 41
0010
0001
1000
0000
0001
0000
0010
0100
1000
0001
1000
0000
0100
0000
0010
0001
,  // measure 42
1000
0000
0001
0000
0010
0001
1000
0001
1000
0001
0100
0001
0100
0000
0001
0000
,  // measure 43
1000
0000
0100
0000
0010
0001
1000
0001
0100
0000
0001
0000
1000
0000
0100
0000
,  // measure 44
0010
0001
0010
0000
0001
0100
0001
0100
0001
0000
0100
0000
0001
0000
1000
0000
,  // measure 45
0010
1000
0001
0000
1000
0000
0001
0100
0010
0100
0001
0000
0100
0000
0001
1000
,  // measure 46
0010
0000
1000
0000
0010
1000
0001
1000
0001
1000
0100
1000
0100
0000
1000
0000
,  // measure 47
0100
0000
0000
0000
0000
0000
0000
0000
0000
0000
0000
0000
0000
0000
0000
0000
0000
0000
0000
0000
0000
0000
0000
0000
1000
0000
0000
0000
0000
0000
0000
0000
0000
0000
0000
0000
0000
0000
0000
0000
0000
0000
0000
0000
0000
0000
0000
0000
0010
0000
0000
0000
0000
0000
0000
0000
0000
0000
0000
0000
0000
0000
0000
0000
0001
0000
0000
0000
0000
0000
0000
0000
0000
0000
0000
0000
0000
0000
0000
0000
0010
0000
0000
0000
0000
0000
0000
0000
0000
0000
0000
0000
0000
0000
0000
0000
1000
0000
0000
0000
0000
0000
0000
0000
0000
0000
0000
0000
0000
0000
0000
0000
0000
0000
0000
0000
0000
0000
0000
0000
0001
0000
0000
0000
0000
0000
0000
0000
0000
0000
0000
0000
0000
0000
0000
0000
0000
0000
0000
0000
0000
0000
0000
0000
0220
0330
0000
0000
0000
0000
0000
0000
0000
0000
0000
0000
0000
0000
0000
0000
0000
0000
0000
0000
0000
0000
0000
0000
0000
0000
0000
0000
0000
0000
0000
0000
0000
0000
0000
0000
0000
0000
0000
0000
0000
0000
0000
0000
0000
0000
0000
0000
,  // measure 48
1000
0010
0100
0010
1000
0000
0010
0000
0100
0000
0001
0000
0010
0001
0010
0000
,  // measure 49
0001
0000
0010
0100
1000
0100
0010
0000
0100
0000
1000
0100
1000
0000
0001
0000
,  // measure 50
0010
0100
1000
0100
1000
0001
0100
0001
0010
0000
0001
0000
1000
0000
0001
0000
,  // measure 51
0100
0010
1000
0010
1000
0000
0001
0000
0010
0000
0001
0000
1000
0100
1000
0000
,  // measure 52
0001
0100
1000
0100
0001
0000
0011
0000
0011
0000
0011
0000
,  // measure 53
1010
0000
1000
0010
1000
0000
1000
0100
0001
0100
1000
0000
,  // measure 54
0101
0000
0001
0100
0001
0000
1000
0010
0001
1000
0100
0001
,  // measure 55
0010
0100
1000
0010
0100
0001
0010
1000
0001
0100
1000
0010
,  // measure 56
1000
0100
1000
0000
0000
0021
0000
0000
0000
0000
0000
0000
0000
0031
0000
0100
,  // measure 57
1000
0100
0001
0100
0000
0020
0000
0000
0000
1030
0000
0000
0000
0001
0000
0100
,  // measure 58
0001
0000
1000
0100
0000
0012
0000
0000
0000
0000
0000
0000
0000
1003
0000
0000
,  // measure 59
0001
0100
1000
0100
0000
0020
0000
0000
0000
1000
0000
0000
0000
0000
0000
1030
,  // measure 60
0100
0001
0100
0000
0000
0020
0000
0000
0000
0031
0000
0000
0000
1000
0000
0000
,  // measure 61
1000
0000
0001
0100
0000
0020
0000
0000
0000
0031
0000
0000
0000
0010
0000
1000
,  // measure 62
0100
0000
1000
0000
0000
0022
0000
0000
0000
0033
0000
0000
0000
0001
0000
0100
,  // measure 63
0000
0010
0000
0100
0000
2020
0000
0000
0000
3030
0000
0000
0000
1000
0000
0100
,  // measure 64
0001
0100
1000
0000
0010
0000
1000
0100
,  // measure 65
0020
0031
0010
0001
0100
1000
0100
0001
,  // measure 66
1000
0000
0010
1000
0100
0000
1000
0000
,  // measure 67
0020
1030
0100
1000
0010
1000
0000
1000
,  // measure 68
0100
0001
0100
0000
0010
0001
0100
0000
,  // measure 69
2020
3030
1000
0001
0100
0001
1000
0001
,  // measure 70
0010
1000
0010
0001
0100
0000
0001
1000
,  // measure 71
0020
0000
0000
0000
1030
0000
0000
0000
0100
0000
1000
0000
0001
0100
0001
0200
,  // measure 72
0020
0000
0000
0000
,  // measure 73
0000
0000
0000
0000
,  // measure 74
0330
0000
2000
0010
0010
3010
0102
0000
,  // measure 75
0100
0103
0000
0022
0000
0000
0000
0000
,  // measure 76
0000
0000
0000
0000
0033
0000
1000
0001
0010
0100
1000
0010
0100
0001
0010
1000
,  // measure 77
0010
0100
1000
0010
0100
0001
0010
1000
0010
0001
0100
0001
1000
0100
1000
0010
,  // measure 78
0100
0001
0010
0001
1000
0010
1000
0001
0010
0100
1000
0010
0100
0001
0100
0010
,  // measure 79
0100
0001
1000
0010
1000
0001
0010
0001
1000
0100
0010
0001
0100
0010
0001
0010
,  // measure 80
0100
0000
0001
0000
0010
0000
0100
0000
1000
0010
1000
0010
0100
0001
0100
0000
1001
0000
0000
0000
1001
0000
0000
0000
0101
0000
0000
0000
0101
0000
0000
0000
,  // measure 81
0000
1001
1001
1100
0000
0100
1000
0010
,  // measure 82
1010
1010
1001
0000
1001
0011
0011
0011
,  // measure 83
0000
0001
0010
0110
0110
1100
1100
0000
,  // measure 84
0110
0110
0101
0000
0101
0001
0001
1010
,  // measure 85
1010
0110
0000
0110
0011
1001
2002
3003
,  // measure 86
1000
0100
1000
0000
0100
0010
0100
0000
0010
0001
0010
0000
0001
0100
0001
0000
0100
0000
0010
0000
0100
0000
0000
0000
0010
0000
1000
0000
0010
0000
0000
0000
,  // measure 87
1000
0001
1000
0000
0010
1000
0010
0100
,  // measure 88
0010
1000
0010
0100
,  // measure 89
0001
1000
0001
0000
0010
0000
0001
0010
,  // measure 90
0001
1000
0001
0000
0010
0000
0001
0100
,  // measure 91
0010
0000
1000
0000
0001
0100
0010
1000
,  // measure 92
0001
0100
0010
1000
0001
0000
0010
0000
,  // measure 93
0100
0000
1000
0000
0010
1000
0001
1000
,  // measure 94
0100
0010
0001
0000
0100
0001
0100
0000
,  // measure 95
0001
1000
0010
0000
1000
0010
0100
0010
,  // measure 96
1000
0100
0010
0100
,  // measure 97
0010
0001
0010
0000
0001
0000
1000
0001
,  // measure 98
0100
0001
1000
0000
0001
0000
1000
0100
,  // measure 99
1000
0000
0100
0000
0010
0001
1000
0010
,  // measure 100
0100
0001
1000
0100
0010
0000
0100
0000
,  // measure 101
1000
0000
0001
0000
0100
0001
1000
0001
,  // measure 102
0100
0000
0000
0001
0000
0000
0010
0000
1000
0000
0001
0000
,  // measure 103
0100
0000
0000
0000
1000
0000
0000
0000
0001
0000
0000
0000
1000
0000
0000
0010
0000
0000
1000
0000
0000
0010
0000
0000
,  // measure 104
1000
0000
1010
0000
,  // measure 105
0011
1000
0001
1001
,  // measure 106
1000
1001
0000
1000
,  // measure 107
1100
0000
0000
0000
0001
0100
0001
0100
,  // measure 108
0010
0100
0110
0000
,  // measure 109
0010
0000
1000
0000
0100
0000
1000
0001
,  // measure 110
1000
0001
1000
0000
0000
0000
0110
0000
,  // measure 111
0000
1010
0000
0011
,  // measure 112
0010
0001
0010
0000
0001
0010
0001
0000
,  // measure 113
0010
0001
0010
0000
0001
0000
0010
0000
,  // measure 114
0001
0000
1000
0001
1000
0000
0001
1000
,  // measure 115
0001
0000
1000
0001
1000
0000
0001
0000
,  // measure 116
0100
0000
0010
0000
1000
0010
1000
0000
,  // measure 117
0001
0010
0001
0000
1000
0000
0001
0000
,  // measure 118
0010
0000
0100
0010
0100
0000
1000
0100
,  // measure 119
1000
0000
0001
0100
0001
0000
1000
0010
,  // measure 120
1000
0010
1000
0000
1001
0000
0110
0000
,  // measure 121
0000
0000
1000
0100
1000
0100
1000
0001
,  // measure 122
0100
0001
0100
0010
0100
0010
1000
0001
,  // measure 123
1000
0001
0010
0100
0010
0100
1000
0001
,  // measure 124
1000
0001
0100
0010
0100
0010
1000
0010
,  // measure 125
1000
0010
0100
0001
0100
0001
1000
0001
,  // measure 126
1000
0001
0100
0001
1000
0010
0100
0001
,  // measure 127
1000
0010
0100
0001
1000
0010
0100
0001
,  // measure 128
1000
0010
0100
0010
0100
0010
1000
0100
,  // measure 129
0010
0001
1000
0100
0010
0001
1000
0100
,  // measure 130
0010
0000
0001
0000
1000
0000
0000
0010
0000
0000
0001
0000
0000
0010
0000
0000
,  // measure 131
1000
0010
0100
0001
1000
0010
0100
0001
,  // measure 132
1000
0000
0010
0000
0100
0000
0000
0001
0000
0000
0010
0000
0000
0001
0000
0000
,  // measure 133
1000
0100
1000
0100
0010
0001
0010
0001
,  // measure 134
1000
0000
0001
0000
1000
0000
0000
0100
0000
0000
0001
0000
0000
0100
0000
0000
,  // measure 135
1000
0001
0100
0001
1000
0010
1000
0010
,  // measure 136
1000
0000
0001
0000
0010
0000
0100
0000
0010
0000
0000
0001
0000
0000
0100
0000
,  // measure 137
0000
0001
0000
0000
1000
0000
0010
0000
1000
0000
0000
0000
1010
0000
0000
0000
,  // measure 138
0000
0000
0001
0010
0001
0000
1000
0001
,  // measure 139
0000
0000
1000
0001
1000
0001
0000
0000
,  // measure 140
0110
0000
1000
0010
0100
0001
0010
0100
,  // measure 141
1000
0010
0100
0001
0010
0100
1000
0010
,  // measure 142
0100
0001
0010
0100
1000
0010
0100
0001
,  // measure 143
0010
0100
1000
0010
0100
0001
0010
0100
,  // measure 144
1000
0010
0100
0001
0010
0001
2002
0000
,  // measure 145
0000
0000
0000
0000
,  // measure 146
3003
0000
0000
0000
;

//---------------dance-single - ----------------
#NOTEDATA:;
#CHARTNAME:;
#STEPSTYPE:dance-single;
#DESCRIPTION:;
#CHARTSTYLE:;
#DIFFICULTY:Hard;
#METER:18;
#RADARVALUES:0.900606,1.320923,0.209900,0.390848,0.322088,871.000000,842.000000,29.000000,54.000000,0.000000,0.000000,2.000000,0.000000,0.000000,0.900606,1.320923,0.209900,0.390848,0.322088,871.000000,842.000000,29.000000,54.000000,0.000000,0.000000,2.000000,0.000000,0.000000;
#CREDIT:Karl with a K;
#NOTES:
0000
0000
0000
0000
,
0000
0000
0000
0000
0000
0000
0000
0000
0000
0100
0001
0100
0000
0001
0000
0010
,
0001
0000
1000
0100
1000
0000
0100
0010
0000
0001
0000
0100
0001
0010
0000
0010
,
0000
0010
0100
0000
0000
0000
1000
0000
0010
0000
2000
0000
0000
0000
3001
0000
,
0000
0100
0000
0001
0000
0010
0000
0001
,
0000
1000
0000
0100
1000
0001
1000
0100
,
0000
1000
0000
0010
0100
0010
0000
0100
,
0000
0001
0000
1000
0000
0100
1000
0100
,
1000
0010
0000
1000
0000
0001
0010
0001
,
0010
0001
0000
1000
0000
0001
0100
0002
,
0000
1003
0000
0010
0000
0100
0000
0001
,
0000
0100
0000
0010
0000
0100
0010
1000
,
0010
1000
0000
0001
0000
0010
0100
0010
,
0000
0001
0000
1000
0000
0010
0000
1000
,
0001
1000
0000
0001
0000
0010
0000
0001
,
0000
0001
0000
0001
0000
0200
0000
0320
,
0000
0130
0000
0001
0000
1000
0010
1000
,
0010
1000
0010
1000
0010
1000
0010
0100
,
0001
0100
0001
0100
0001
0100
0001
1000
,
0100
1000
0100
1000
0100
1000
0100
1000
,
0100
1000
0001
1000
0001
0020
0000
0031
,
0000
0010
0001
0010
0001
0010
0000
0001
,
0000
0100
0010
0100
0000
1000
0000
0100
,
0000
0010
0000
0100
0001
0100
0000
0010
,
0000
1000
0100
1000
0100
1000
0000
0001
,
0000
0100
0010
0100
0010
0100
0000
0001
,
0000
1000
0000
0100
0010
0001
1000
0010
,
0000
0100
0000
0001
0100
0001
0100
0001
,
0000
1000
0001
1000
0000
0001
0000
1000
,
0001
0000
1000
0001
1000
0000
0001
1000
,
0001
0000
1000
0100
1000
0100
1000
0000
,
0001
0100
0001
0100
0001
0000
1000
0000
,
0001
1000
0000
0001
1000
0001
0000
1000
,
0001
1000
0000
0001
1000
0001
1000
0001
,
0000
1000
0100
0010
0001
0010
0100
0000
,
0010
0000
0000
0000
0100
0010
0100
0000
,
0010
0100
0000
0000
1000
0100
1000
0001
,
0000
0000
0100
0001
0100
0000
0001
0000
,
0000
0000
1000
0010
0000
0000
1000
0010
,
0000
0000
1000
0100
1000
0100
0010
0001
,
0010
0000
0001
0000
1000
0100
1000
0000
0001
0000
0100
0000
1000
0000
0100
0000
,
0010
0100
0010
0000
1000
0000
0010
0100
0010
0000
1000
0000
0100
0000
0010
0000
,
0001
0000
0100
0000
0010
1000
0010
0000
0100
0000
1000
0000
0100
0000
0001
0000
,
0100
0001
0010
0100
1000
0001
0100
0001
,
0020
0130
0010
0100
0001
0100
1000
0001
,
0010
0100
0010
0000
0001
0000
0010
0001
0010
0000
1000
0000
0010
0000
0001
0000
,
1000
0000
0100
0000
0010
0001
0010
0000
0100
0000
1000
0000
0001
0000
0100
0000
,
1000
0000
0000
0000
0000
0000
0000
0000
0000
0000
0000
0000
0000
0000
0000
0000
0000
0000
0000
0000
0000
0000
0000
0000
0100
0000
0000
0000
0000
0000
0000
0000
0000
0000
0000
0000
0000
0000
0000
0000
0000
0000
0000
0000
0000
0000
0000
0000
0001
0000
0000
0000
0000
0000
0000
0000
0000
0000
0000
0000
0000
0000
0000
0000
0100
0000
0000
0000
0000
0000
0000
0000
0000
0000
0000
0000
0000
0000
0000
0000
0010
0000
0000
0000
0000
0000
0000
0000
0000
0000
0000
0000
0000
0000
0000
0000
1000
0000
0000
0000
0000
0000
0000
0000
0000
0000
0000
0000
0000
0000
0000
0000
0000
0000
0000
0000
0000
0000
0000
0000
0000
0000
0000
0000
0000
0000
0000
0000
0000
0000
0000
0000
0000
0000
0000
0000
0000
0000
0000
0000
0000
0000
0000
0000
2002
3003
0000
0000
0000
0000
0000
0000
0000
0000
0000
0000
0000
0000
0000
0000
0000
0000
0000
0000
0000
0000
0000
0000
0000
0000
0000
0000
0000
0000
0000
0000
0000
0000
0000
0000
0000
0000
0000
0000
0000
0000
0000
0000
0000
0000
0000
0000
,
0001
0010
0001
0000
0010
0000
0001
0000
0100
0010
0100
0000
0010
0000
0100
0000
,
0010
1000
0010
0000
1000
0000
0010
0000
1000
0000
0100
0000
1000
0000
0100
0000
,
1000
0010
1000
0000
0010
0000
1000
0000
0010
0100
0010
0000
0100
0000
0010
0000
,
0100
0001
0100
0000
0001
0000
0100
0000
0001
0000
0010
0000
0001
0010
0001
0000
,
0011
0000
1001
0000
0101
0000
1010
0000
1001
0000
1100
0000
,
0011
0000
0110
0000
1100
0000
0101
0000
0110
0000
1010
0000
,
1000
0100
0010
0001
0010
0100
1000
0010
0100
0001
0100
0010
,
1000
0100
0001
0100
1000
0001
0100
1000
0100
0001
0010
0100
,
1000
0100
1000
0000
0000
0022
0000
0000
0000
0000
0000
0000
0000
0000
0000
0033
,
0001
0100
0001
0000
0000
2020
0000
0000
0000
0000
0000
0000
0000
0000
0000
3030
,
1000
0001
1000
0001
0000
0220
0000
0000
0000
0000
0000
0000
0000
0000
0000
0330
,
0100
0010
0000
0001
0000
1000
0000
0000
0000
0001
0000
0000
0000
1000
0000
0000
,
0001
0100
0001
0000
0000
2020
0000
0000
0000
0000
0000
0000
0000
0000
0000
3030
,
1000
0000
0100
0000
0000
0022
0000
0000
0000
0000
0000
0000
0000
0000
0000
0033
,
0001
1000
0001
0000
0000
0220
0000
0000
0000
0000
0000
0000
0000
0000
0000
0330
,
0100
0000
0010
0000
0000
2002
0000
0000
0000
0000
0000
0000
0000
3003
0000
0000
,
0010
0001
0010
0001
0010
1000
0010
1000
,
0010
0001
0010
0001
0010
1000
0010
1000
,
0010
0001
0010
1000
0010
0001
0010
1000
,
0010
0001
0010
1000
0010
0001
0010
0001
,
0100
0001
0100
0001
0100
1000
0100
1000
,
0100
0001
0100
0001
0100
1000
0100
1000
,
0100
0001
0100
1000
0100
0001
0100
1000
,
0100
0001
0100
1000
0100
0001
0100
0001
,
2002
0000
0000
0000
,
0000
0000
0000
0000
,
3003
0000
0001
0010
0001
0010
0100
0000
,
1000
0001
0000
0010
0000
0000
0000
0000
,
0000
0000
0000
0000
0000
0000
0001
1000
0010
0000
0010
0000
0010
0000
0010
0000
,
1000
0000
0001
1000
0000
0100
0000
0000
,
1100
0000
0001
0100
0010
1000
0010
0100
0001
0000
0001
0000
0001
0000
0001
0000
,
1000
0000
1000
0010
0000
0100
0001
0010
,
0001
1000
0001
0000
2000
0000
3001
1000
0002
0000
2003
0000
3200
0000
2300
0000
,
0000
3002
2003
3200
0000
0301
1000
0010
,
0002
0023
0230
0000
2300
3020
0032
1003
,
0000
0100
0001
2000
3002
0203
0302
0000
,
2003
3002
0203
0000
0301
0010
1000
0020
,
0032
2003
0000
3002
0023
0230
2300
0000
,
3004
4000
0000
0000
0000
0000
3003
0000
,
0100
0000
1000
0000
0010
0000
1000
0010
,
1000
0010
0001
0010
,
1000
0000
0100
1000
0100
0000
1000
0001
,
0100
0000
0001
0000
0100
0000
0001
1000
,
0001
0000
0100
0000
0001
0000
1000
0001
,
1000
0000
0010
0001
0010
0000
0001
0000
,
1000
0001
0100
0001
,
1000
0000
0100
0000
1000
0000
0100
0000
0000
0010
0000
0000
,
0001
0010
0001
0000
1000
0000
0010
1000
,
0010
0000
1000
0000
0010
0000
1000
0001
,
1000
0000
0010
0000
1000
0000
0001
0100
,
0001
0100
1000
0100
,
0001
0000
1000
0000
0010
0000
1000
0001
,
1000
0001
0100
0001
,
0010
0000
0001
0000
1000
0010
1000
0010
,
0100
0000
0000
0001
0000
0000
0010
0000
0001
0000
0010
0000
,
0100
0000
0000
0000
0010
0000
0000
0000
0100
0000
0000
0000
1000
0000
0000
0000
0000
0000
0010
0000
0000
1000
0000
0000
,
0010
0000
1001
0000
,
0010
0001
0000
0001
,
0100
1000
0000
1000
,
0100
0000
0001
1000
,
0001
1000
0001
0000
,
0001
1000
0100
1000
,
0001
1000
0000
1001
,
0000
0011
0000
1010
,
0010
0010
1000
1000
,
0010
0010
1000
0010
,
1000
0001
0001
1000
,
1000
0001
0001
1000
,
0100
0010
0001
0010
,
1000
0010
0001
1000
,
0010
0100
0100
1000
,
0100
0001
0100
0001
,
0010
0000
0001
0000
1001
0000
1000
0100
,
1000
0000
0001
0010
0001
0000
1000
0010
,
1000
0000
0001
0100
0001
0000
0100
0001
,
0100
0000
0010
1000
0010
0000
1000
0100
,
1000
0000
0001
0010
0001
0000
1000
0010
,
1000
0010
0100
0001
0100
0001
1000
0100
,
1000
0100
0010
0001
0010
0001
1000
0001
,
1000
0001
0100
0010
0100
0010
1000
0100
,
0010
0001
1000
0000
0000
0000
0001
0100
,
0001
0000
1000
0100
1000
0000
0001
0010
,
0001
0000
0000
0000
1000
0000
0000
0010
0000
0000
1000
0000
0000
0010
0000
0000
,
1000
0010
1000
0000
0001
0010
0001
0000
,
1000
0000
0000
0100
0000
0000
1000
0000
0000
0100
0000
0000
1000
0000
0001
0000
,
0100
0000
0010
1000
0010
0000
1000
0100
,
1000
0000
0000
0000
0001
0000
0000
0100
0000
0000
0001
0000
0000
0100
0000
0000
,
0001
0010
0001
0000
1000
0010
1000
0000
,
0001
0000
1000
0000
0001
0000
0000
0000
0010
0000
0000
0100
0000
0000
0010
0000
,
0000
0100
0000
0000
1000
0000
0010
0000
1000
0000
0010
0000
1000
0000
0000
0000
,
0000
0000
0001
0010
0001
0000
0010
0001
,
0000
0000
0010
0100
0010
0100
0000
0000
,
1001
0000
0001
0010
0001
0010
0001
0010
,
0001
0010
0100
1000
0100
1000
0100
1000
,
0100
1000
0001
0100
0001
0100
0001
0100
,
0010
1000
0010
1000
0010
1000
0010
1000
,
0100
0010
0001
1000
0001
0000
2002
0000
,
0000
0000
0000
0000
,
3003
0000
0000
0000
;

//---------------dance-single - ----------------
#NOTEDATA:;
#CHARTNAME:;
#STEPSTYPE:dance-single;
#DESCRIPTION:;
#CHARTSTYLE:;
#DIFFICULTY:Medium;
#METER:16;
#RADARVALUES:0.694842,1.320923,0.427038,0.115807,0.224376,672.000000,613.000000,59.000000,16.000000,0.000000,0.000000,0.000000,0.000000,0.000000,0.694842,1.320923,0.427038,0.115807,0.224376,672.000000,613.000000,59.000000,16.000000,0.000000,0.000000,0.000000,0.000000,0.000000;
#CREDIT:Karl with a K;
#NOTES:
0000
0000
0000
0000
,
0000
0000
0000
0000
0000
0000
0000
0000
0000
1000
0000
0100
0000
1000
0000
0000
,
0001
0000
0100
0000
0001
0000
0000
0010
0000
0001
0000
0100
0000
0010
0000
0010
,
0000
1000
0000
0001
0000
1000
0000
0000
,
0000
0100
0000
0000
0000
0010
0000
0001
,
0000
0000
0000
0100
0000
0001
0000
1000
,
0000
0000
0000
0100
0000
0010
0000
0100
,
0000
1000
0000
0000
0000
0100
0000
1000
,
0000
0010
0000
0001
0000
0010
0000
1000
,
0010
1000
0000
0001
0000
1000
0000
0010
,
0000
0000
0000
0100
0000
0000
0000
0010
,
0000
1000
0000
0000
0000
0100
0000
1000
,
0000
0010
0000
0000
0000
0100
0000
0010
,
0000
0100
0000
0001
0000
1000
0000
0100
,
0000
1000
0000
1001
0000
0000
0000
1001
,
0000
0000
0000
1001
0000
1000
0000
0010
,
0000
0100
0001
0100
0000
0001
0000
0010
,
0100
0010
0000
0001
0000
0100
0000
1000
,
0000
0100
0000
0001
0100
0001
0000
1000
,
0000
0010
0100
0010
0000
1000
0000
0100
,
0000
0001
0000
0100
0000
0010
0000
0001
,
0000
0010
0001
0010
0001
0010
0000
0001
,
1000
0001
1000
0001
0000
0000
0000
0100
,
0000
0000
0000
0010
0100
0001
0000
0000
,
0000
0100
0001
0100
0001
1000
0000
0000
,
0000
0100
0010
0100
0010
0100
0000
1000
,
0000
0000
0000
0100
1000
0100
0000
0010
,
0000
0001
0000
1000
0010
1000
0010
1000
,
0000
1001
0000
0000
0000
1000
0000
0000
,
0000
0110
0000
0010
,
0000
0000
0000
0011
0000
0000
0001
0000
,
0000
1100
0000
1000
,
0000
0000
0000
1010
0000
0000
0000
0010
,
0000
0000
0101
0000
,
0000
0000
1001
0000
,
1001
0000
0110
0000
,
0110
0000
0000
0000
1010
0000
0000
1010
,
0000
0101
0000
0101
,
0000
0000
0011
0000
0000
0000
0000
0011
,
0000
0000
1100
0000
0000
0000
1000
0100
,
0010
0001
1000
0100
1000
0000
0001
0100
,
0010
0100
0001
0010
0100
1000
0100
0010
,
0001
0000
1000
0000
0010
0000
1000
0000
0100
1000
0100
0000
0010
0000
0001
0000
,
0100
0000
0010
1000
0100
0000
1000
0100
,
0010
0001
0010
0001
0100
0000
0001
1000
,
0010
1000
0100
0010
0001
0100
0001
0010
,
0001
0000
0100
0000
0010
0000
1000
0000
0100
1000
0100
0000
1000
0000
0100
0000
,
0010
0000
0000
0001
1000
0001
1000
0000
0000
1001
0000
0000
,
0010
0001
0100
0000
0010
1000
0100
0000
,
0010
0000
0001
0000
0100
0000
0000
0000
0100
0000
1000
0010
1000
0000
0000
0000
,
0010
1000
0001
0000
0010
0001
1000
0000
,
0010
0000
1000
0000
0001
0000
0000
0000
0010
0000
0001
0000
1000
0001
1000
0000
,
1100
0000
1100
0000
1100
0000
0011
0000
0011
0000
0011
0000
,
0101
0000
0101
0000
0101
0000
1010
0000
1010
0000
1010
0000
,
1000
0000
0100
0000
0010
0000
0001
0000
0010
0000
0100
0000
,
1000
0000
0010
0000
0100
0000
0001
0000
0100
0000
0010
0000
,
1000
0000
0100
0000
0000
1100
0000
0000
0000
0000
0000
0000
0000
0000
0000
0000
,
0001
0000
0100
0000
0000
0101
0000
0000
0000
0000
0000
0000
0000
0000
0000
0000
,
1000
0010
1000
0010
0000
1010
0000
0000
0000
0000
0000
0000
0000
0000
0000
0000
,
0001
0010
0000
0001
0000
0011
0000
0000
0000
0000
0000
0000
0000
0000
0000
0000
,
1000
0100
1000
0000
0000
0011
0000
0000
0000
0000
0000
0000
0000
0000
0000
0000
,
0001
0000
0100
0000
0000
1010
0000
0000
0000
0000
0000
0000
0000
0000
0000
0000
,
1000
0001
1000
0001
0000
1001
0000
0000
0000
0000
0000
0000
0000
0000
0000
0010
,
0000
0100
0000
0010
0000
0210
0000
0000
0000
0000
0000
0000
0300
0000
0000
0000
,
0020
1000
0100
0000
,
1000
0000
0200
0330
,
0002
0100
1000
0000
,
0010
0000
2000
3003
,
2000
0100
0001
0000
,
0010
0000
0002
3003
,
0200
0001
0010
0000
,
0001
0000
0020
0330
,
2002
0000
0000
0000
,
0000
0000
0000
0000
,
3003
1010
0000
0011
,
0000
0000
0000
1001
0000
0000
0000
0000
,
0000
0000
0000
0000
1000
0010
1000
0000
,
0100
0000
0010
0001
0000
0100
0000
0000
,
0001
0000
1000
0010
0100
0010
0100
0001
,
0010
0000
0001
0100
0000
0100
0001
0000
,
2000
0000
0000
3000
0001
0100
0010
1001
,
0000
1000
0100
0011
0000
0001
0100
0001
,
0010
0001
1100
0000
1000
0010
1000
0101
,
0000
1000
0001
0010
0001
1000
0110
0000
,
0010
0001
1100
0000
1000
0100
1000
0010
,
1000
0101
0000
0001
0010
0100
2002
0000
,
0000
0000
0000
0000
,
0000
0000
3003
0000
1000
0000
0100
1000
,
0100
1000
0100
0001
,
0100
0000
0010
0000
0001
0000
1000
0001
,
0010
1000
0010
0001
,
1000
0000
0010
0000
1000
0000
0001
1000
,
0001
0100
1000
0100
,
0001
1000
0010
1000
,
0001
0000
0010
0000
0001
0000
0010
0000
0000
0100
0000
0000
,
0001
0000
0000
0000
0100
0000
1000
0100
,
1000
0001
1000
0100
,
0001
0000
0100
0000
1000
0000
0001
0010
,
0001
0010
1000
0010
,
0001
0000
1000
0000
0100
0000
1000
0001
,
1000
0001
0010
0001
,
0100
1000
0100
0010
,
1000
0000
0000
0000
0000
0000
0100
0000
1000
0000
0100
0000
,
0010
0000
0100
0000
0010
0000
0001
0000
0000
0100
0000
0000
,
0001
0000
1001
0000
,
0010
1000
0000
1000
,
0010
0001
0000
0001
,
0010
0000
1000
0001
,
1000
0001
1000
0000
,
1000
0001
0010
0001
,
1000
0001
0000
1001
,
0000
1100
0000
0101
,
0100
0100
0001
0001
,
0100
0100
0001
0100
,
0001
1000
1000
0001
,
0001
1000
1000
0001
,
0010
0100
1000
0100
,
0001
0100
1000
0001
,
0100
0010
0010
0001
,
0010
1000
0010
1000
,
0100
0000
1000
0000
1001
0000
0001
1000
,
0001
0000
1000
0000
0001
0000
0010
0100
,
0010
0000
0100
0000
0010
0000
0001
0010
,
0001
0000
0010
0000
0100
0000
1000
0010
,
1000
0000
0100
0000
0010
0000
0001
0100
,
0001
0000
0100
0000
0010
0000
1000
0100
,
1000
0000
0100
0000
0010
0000
0001
1000
,
0001
0000
0010
0000
0100
0000
0010
0100
,
0010
0000
0001
0000
1000
0000
0010
1000
,
0010
0000
0100
0000
0001
0000
0010
0001
,
0010
0000
0000
0000
0100
0000
0000
1000
0000
0000
0100
0000
0000
1000
0000
0000
,
0001
0100
0001
0000
1000
0000
0010
0000
,
1000
0000
0000
0010
0000
0000
1000
0000
0000
0010
0000
0000
1000
0000
0100
0000
,
1000
0000
0001
0000
0010
0000
0001
1000
,
0001
0000
0000
0000
0010
0000
0000
0100
0000
0000
0010
0000
0000
0100
0000
0000
,
1000
0001
1000
0000
0010
0000
0100
0000
,
0010
0000
0100
0000
0010
0000
0000
0000
1000
0000
0000
0001
0000
0000
1000
0000
,
0000
0001
0000
0000
1000
0000
0000
0000
0010
0000
0000
0000
1000
0000
0000
0000
,
0000
0000
1000
0000
0010
0000
1000
0010
,
0000
0000
1000
0000
0100
1000
0000
0000
,
0001
0000
1000
0010
1000
0000
0001
0100
,
0001
0000
0010
0001
0010
0000
0100
1000
,
0100
0000
1000
0001
1000
0000
0010
0100
,
0010
0000
0100
0010
0100
0000
0001
1000
,
0001
0000
1000
0100
0010
0000
2002
0000
,
0000
0000
0000
0000
,
3003
0000
0000
0000
;

//---------------dance-single - ----------------
#NOTEDATA:;
#CHARTNAME:;
#STEPSTYPE:dance-single;
#DESCRIPTION:;
#CHARTSTYLE:;
#DIFFICULTY:Easy;
#METER:13;
#RADARVALUES:0.518029,0.785768,0.369135,0.043428,0.123045,501.000000,450.000000,51.000000,6.000000,0.000000,0.000000,0.000000,0.000000,0.000000,0.518029,0.785768,0.369135,0.043428,0.123045,501.000000,450.000000,51.000000,6.000000,0.000000,0.000000,0.000000,0.000000,0.000000;
#CREDIT:Karl with a K;
#NOTES:
0000
0000
0000
0000
,
0000
0000
0000
0000
0000
0000
0000
0000
0000
1000
0000
0000
0000
0001
0000
0000
,
1000
0000
0000
0000
0001
0000
0000
0010
0000
0100
0000
0000
0000
0020
0000
0000
,
0000
0031
0000
0100
0000
0001
0000
0000
,
0000
1000
0000
0000
0000
0001
0000
0010
,
0000
0000
0000
0001
0000
0100
0000
0001
,
0000
0000
0000
0100
0000
0010
0000
0000
,
0000
0100
0000
0000
0000
0001
0000
0000
,
0000
1001
0000
0000
0000
1001
0000
0000
,
0000
0000
0000
1000
0000
0100
0000
1000
,
0000
0000
0000
0001
0000
0000
0000
1000
,
0000
0010
0000
0000
0000
1000
0000
0100
,
0000
1000
0000
0000
0000
0100
0000
0010
,
0000
0000
0000
0100
0000
0000
0000
1000
,
0000
0000
0000
0110
0000
0000
0000
0110
,
0000
0000
0000
0000
0000
1000
0000
0100
,
0000
0010
0000
0001
0000
1000
0000
0010
,
0000
0100
0000
0001
0000
1000
0000
0010
,
0000
1000
0000
0010
0000
0100
0000
0001
,
0000
0100
0000
0001
0000
0010
0000
0001
,
0000
0010
0000
0001
0000
1000
0000
0100
,
0000
1000
0000
0100
0000
0010
0000
0001
,
0000
0000
0000
0101
0000
0000
0000
1001
,
0000
0000
0000
0101
0000
0000
0000
0001
,
0000
1000
0000
0100
0000
1000
0000
0001
,
0000
0010
0000
0100
0000
1000
0000
0001
,
0000
0100
0000
0001
0000
0100
0000
0010
,
0000
0000
0000
1010
0000
0000
0000
0000
,
0000
0110
0000
0000
0000
0010
0000
0000
,
0000
1000
0000
0001
,
0000
0000
0000
0100
0000
0000
0010
0000
,
0000
1000
0000
0010
,
0000
0000
0000
0001
0000
0000
0000
0010
,
0000
0000
1000
0000
,
0000
0000
0010
0000
,
0100
0000
0001
0000
,
1000
0000
0000
0000
0001
0000
0000
0100
,
0000
0010
0000
1000
,
0000
0000
0100
0000
0000
0000
0000
0001
,
0000
0100
0000
1000
,
0000
0010
0100
0001
,
0010
0000
0001
0010
0001
0000
1000
0010
,
1000
0010
1000
0100
,
1000
0010
0100
0001
,
0010
0100
0010
0000
0100
0000
1000
0000
,
0010
0000
1000
0010
1000
0000
0001
0010
,
0001
0010
0001
0100
,
0001
1000
0001
1001
,
0010
1000
0010
1000
,
0010
1000
0100
0100
,
0010
0001
0010
0001
,
0010
0001
0010
0001
,
1000
0000
1000
0000
1000
0000
0001
0000
0001
0000
0001
0000
,
0010
0000
0010
0000
0010
0000
0100
0000
0100
0000
0100
0000
,
0010
0000
0010
0000
0010
0000
0001
0000
0001
0000
0001
0000
,
0100
0000
0100
0000
0100
0000
0010
0000
0010
0000
0010
0000
,
0110
0000
0000
0000
0000
1001
0000
0000
0000
0000
0000
0000
0000
0000
0000
0000
,
1100
0000
0000
0000
0000
0011
0000
0000
0000
0000
0000
0000
0000
0000
0000
0000
,
0101
0000
0000
0000
0000
1010
0000
0000
0000
0000
0000
0000
0000
0000
0000
0000
,
0110
0000
0000
0000
0000
1001
0000
0000
0000
0000
0000
0000
0000
0001
0000
0000
,
1000
0000
0000
0000
0000
0110
0000
0000
0000
0000
0000
0000
0000
0000
0000
0000
,
1100
0000
0000
0000
0000
1010
0000
0000
0000
0000
0000
0000
0000
0000
0000
0000
,
0101
0000
0000
0000
0000
0011
0000
0000
0000
0000
0000
0000
0000
0000
0000
0000
,
1001
0000
0000
0000
0000
0110
0000
0000
0000
0000
0000
0000
0000
0000
0000
0000
,
0020
0000
0001
0000
,
0000
0000
0001
0000
,
0000
0000
0001
0000
,
0000
0000
0031
1000
,
0020
0000
1000
0000
,
0000
0000
1000
0000
,
0000
0000
1000
0000
,
0000
0000
1030
1100
,
1001
0000
0000
0000
,
0000
0000
0000
0000
,
0000
1000
0000
0001
,
0000
0000
0000
0110
0000
0000
0000
0000
,
0000
0000
1000
0001
,
1000
0000
0001
0000
0000
0100
0000
0000
,
0000
0000
0000
0010
1000
0000
0001
0000
,
1000
0000
0001
0010
0000
0100
0000
0000
,
0000
0000
2000
0000
3001
1000
0001
1001
,
0000
1000
0001
1001
0000
0000
0000
0000
,
0010
0100
0110
0000
0100
0010
0110
0000
,
0000
0000
0000
1000
0010
1000
1010
0000
,
0001
0100
0101
0000
0000
0000
0000
0001
,
0010
0011
0000
1000
0100
1000
2002
0000
,
0000
0000
0000
0000
,
0000
3003
0010
0001
,
0010
0001
0010
0000
,
0001
0100
0001
0100
,
0001
0100
0001
0000
,
1000
0100
1000
0100
,
1000
0100
1000
0000
,
0001
0000
1000
0000
,
0100
0010
0001
1000
,
0010
0100
0001
0010
,
0001
0010
0001
0010
,
0001
0000
1000
0001
,
1000
0001
1000
0001
,
1000
0001
0010
0001
,
0010
0001
0010
0001
,
0010
0000
0001
1000
,
0010
0000
0000
1000
0000
0000
0001
0000
0010
0000
0100
0000
,
1000
0000
0100
0000
0010
0000
0001
0000
0000
0000
0000
0000
,
1001
0000
1001
0000
,
1001
0000
0000
0110
,
0000
0110
0000
0110
,
0000
0000
1100
0000
,
0011
0000
0011
0000
,
0011
0000
0000
1010
,
0000
1010
0000
1010
,
0000
1010
0000
0000
,
1000
0010
0001
0010
,
1000
0010
0001
0010
,
1000
0001
0100
1000
,
0100
0001
0100
1000
,
0100
0001
0010
0001
,
1000
0010
1000
0001
,
0010
0001
0100
0001
,
1000
0100
1000
0001
,
0100
0001
0000
1000
,
0100
0010
0001
1000
,
0010
0100
0001
1000
,
0001
0010
0100
1000
,
0001
0100
0010
1000
,
0100
0001
0100
1000
,
0010
0001
0010
1000
,
0100
0001
0100
1000
,
0010
0001
0010
1000
,
0100
1000
0100
0010
,
0001
0000
0010
0000
0000
0001
0000
0000
,
0100
0001
0100
0001
,
1000
0000
0000
0010
0000
0000
1000
0000
,
0010
1000
0001
1000
,
0001
0000
0010
0000
0000
0100
0000
0000
,
0010
0100
1000
0010
,
0100
0000
0001
0000
1000
0000
0000
0001
,
0000
1000
0001
1000
,
0000
0001
1000
0001
,
0000
1000
0001
0000
,
0000
1000
0010
0100
,
0001
0010
0100
1000
,
0010
0100
0001
0010
,
0100
1000
0010
0100
,
0001
0000
0010
0100
0010
0000
1001
0000
;

//---------------dance-single - ----------------
#NOTEDATA:;
#CHARTNAME:;
#STEPSTYPE:dance-single;
#DESCRIPTION:;
#CHARTSTYLE:;
#DIFFICULTY:Beginner;
#METER:2;
#RADARVALUES:0.128215,0.419076,0.303993,0.072379,0.000000,124.000000,82.000000,42.000000,10.000000,0.000000,0.000000,0.000000,0.000000,0.000000,0.128215,0.419076,0.303993,0.072379,0.000000,124.000000,82.000000,42.000000,10.000000,0.000000,0.000000,0.000000,0.000000,0.000000;
#CREDIT:;
#NOTES:
0000
0000
0000
0000
,
0000
0000
0000
0000
,
0000
0000
0000
0000
,
0000
1000
0000
0000
0000
0000
0000
0000
,
0000
0000
0000
0000
,
0000
0000
0000
0000
,
0000
0000
0000
0000
,
0000
0000
0000
0000
,
0000
0000
0000
0000
,
0000
0000
0000
0001
0000
0000
0000
0000
,
0000
0000
0000
0000
,
0000
0000
0000
0000
,
0000
0000
0000
0000
,
0000
0000
0000
0000
,
0000
0000
0000
0000
,
0000
0000
0000
0000
0000
0010
0000
0000
,
0000
0000
0000
0000
,
0000
0000
0000
0000
0000
0000
0000
0100
,
0000
0000
0000
0000
,
0000
0000
0000
0000
,
0000
0010
0000
0000
0000
0000
0000
0000
,
0000
0000
0000
0000
0000
0000
0000
0100
,
0000
0000
0000
0000
,
0000
0000
0000
0000
,
0000
0000
0000
0000
,
0000
0000
0000
0000
,
0000
0000
0000
0000
,
0000
0000
0000
0000
,
0000
2002
0000
0000
0000
0000
0000
0000
,
0000
0000
0000
0000
,
0000
0000
0000
0000
,
0000
0000
0000
0000
,
0000
0000
0000
0000
,
0000
0000
0000
0000
0000
0000
0000
3003
,
0000
0000
0000
0220
0000
0000
0000
0000
,
0000
0000
0000
0000
,
0000
0000
0000
0000
,
0000
0000
0000
0000
,
0000
0000
0000
0000
,
0000
0000
0000
0330
,
0000
1000
0000
0000
,
0000
1000
0000
0000
,
0000
0100
0000
0000
,
0000
0100
0000
0000
,
0000
0010
0000
0000
,
0000
0010
0000
0000
,
0000
0001
0000
0000
,
0000
0001
0000
0000
,
1001
0000
0000
0000
,
1001
0000
0000
0000
,
0110
0000
0000
0000
,
0110
0000
0000
0000
,
2002
0000
0000
0000
,
0000
0000
0000
0000
,
0000
0000
0000
0000
,
0000
0000
0000
3003
,
1001
0000
0000
0000
,
1001
0000
0000
0000
,
1001
0000
0000
0000
,
1001
0000
0000
0000
,
0110
0000
0000
0000
,
0110
0000
0000
0000
,
0110
0000
0000
0000
,
0110
0000
0000
0000
,
1001
0000
0000
0000
,
1001
0000
0000
0000
,
0000
0000
0000
0000
,
1001
0000
0000
0000
,
0000
0000
0000
0000
,
0110
0000
0000
0000
,
0000
0000
0000
0000
,
0110
0000
0000
0000
,
1001
0000
0000
0000
,
0000
0000
0000
0000
,
0000
0000
0000
0000
,
0000
0000
0000
0000
,
0000
0000
1000
0000
,
0100
0000
0010
0000
,
0001
0000
0001
0000
,
0100
0000
0010
0000
,
1000
0000
1001
0000
,
0000
0110
0000
0000
0000
0000
0000
0000
,
1001
0000
0110
0000
,
0000
0000
0000
1001
0000
0000
0000
0000
,
0110
0000
0000
0000
0000
0000
0000
1001
,
0000
0000
0000
0110
0000
0000
0000
0000
,
0000
0000
0000
0000
,
0000
0000
1000
0000
,
0000
0000
0000
0000
,
0000
0000
0001
0000
,
0000
0000
0000
0000
,
0000
0000
1000
0000
,
0000
0000
0000
0000
,
0000
0000
0001
0000
,
0000
0000
0000
0000
,
0000
0000
0010
0000
,
0000
0000
0000
0000
,
0000
0000
0100
0000
,
0000
0000
0000
0000
,
0000
0000
0010
0000
,
0000
0000
0000
0000
,
0000
0000
0100
0000
,
0000
0000
0000
0000
,
0000
0000
1001
0000
,
0000
0000
1001
0000
,
0000
0000
0000
0110
,
0000
0000
0000
0110
,
0000
0000
0000
0000
,
1001
0000
0000
0000
,
1001
0000
0000
0110
,
0000
0000
0000
0110
,
0000
0000
0000
0000
,
0001
0000
0000
0000
,
1000
0000
0000
0000
,
0000
0001
0000
0000
,
0000
1000
0000
0000
,
0000
0000
0010
0000
,
0000
0000
0100
0000
,
0000
0010
0000
0000
,
0000
0100
0000
0000
,
0000
0000
0000
2000
,
0000
0000
0000
0000
,
0000
0000
0000
0000
,
0000
0000
0000
0000
,
0000
0000
0000
0000
,
0000
0000
0000
0000
,
0000
0000
0000
0000
,
0000
0000
0000
3000
,
0000
0000
0000
0002
,
0000
0000
0000
0000
,
0000
0000
0000
0000
,
0000
0000
0000
0000
,
0000
0000
0000
0000
,
0000
0000
0000
0000
,
0000
0000
0000
0000
,
0000
0000
0000
0003
,
0000
0000
0000
0000
,
0000
1001
0000
0000
,
0000
1001
0000
0000
,
0000
1001
0000
0000
,
0000
0220
0000
0000
,
0000
0000
0000
0000
,
0000
0000
0000
0000
,
0000
0000
0000
0000
,
0000
0330
0000
1001
;
