#TITLE:voltississimo (DANCERUSH Style);
#SUBTITLE:;
#ARTIST:PHQUASE;
#TITLETRANSLIT:;
#SUBTITLETRANSLIT:;
#ARTISTTRANSLIT:;
#GENRE:;
#CREDIT:SupremeX;
#BANNER:voltississimo (DANCERUSH Style)-bn.png;
#BACKGROUND:voltississimo (DANCERUSH Style)-bg.png;
#LYRICSPATH:;
#CDTITLE:cdtitle.png;
#MUSIC:voltississimo (DANCERUSH Style).ogg;
#OFFSET:-2.760881;
#SAMPLESTART:41.200001;
#SAMPLELENGTH:12.000000;
#SELECTABLE:YES;
#BPMS:0.000000=124.999992
,73.000000=62.499996
,75.000000=124.999992
;
#STOPS:
;
#BGCHANGES:;
#KEYSOUNDS:;
#ATTACKS:;

//---------------dance-single - ----------------
#NOTES:
     dance-single:
     :
     Hard:
     10:
     0.373151,0.406967,0.109750,0.153650,0.087800,238.000000,228.000000,10.000000,14.000000,0.000000,0.000000,0.373151,0.406967,0.109750,0.153650,0.087800,238.000000,228.000000,10.000000,14.000000,0.000000,0.000000:
0000
0000
0000
0000
,
0000
0000
0000
0000
,
0000
0000
0000
0000
,
0000
0000
0000
0000
,
0010
0000
0010
0000
1000
0100
1000
0000
,
0100
0000
0100
0000
1000
0001
1000
0000
,
0001
0100
0001
1000
0010
0100
0001
1000
,
0220
0000
0000
0330
,
0001
0000
1000
0100
0010
0001
0100
0000
,
0010
1000
0010
0000
1000
0100
1000
0000
,
0001
0010
0100
1000
0010
0100
0010
0000
,
0100
0100
0001
0001
,
0110
0000
1000
0100
0010
0001
0100
0000
,
0010
0100
0010
0000
1000
0001
1000
0000
,
0001
0010
0100
1000
0010
0100
0010
0000
,
1000
0010
1000
0001
0100
0010
1000
0000
,
0002
0000
0000
0003
,
2000
0000
0000
0000
0000
0000
0000
3000
,
0002
0000
0000
0000
0000
0000
0000
0000
0000
0003
0000
0000
0200
0000
0000
0000
,
0320
0000
0000
0000
0000
0000
0000
0000
0230
0000
0000
0000
0000
0000
0000
0000
0310
0000
0000
0000
0000
0000
0000
0000
1000
0000
0000
0100
0000
0000
0000
1000
,
0000
0000
0000
0000
0000
0000
0000
0000
0010
0000
0000
0100
0000
0000
0000
0010
0000
0000
0000
0000
0100
0000
0000
0000
0001
0000
0000
0000
0100
0000
0000
0000
,
0010
0000
0000
0000
0010
0000
0000
0000
0010
0000
0000
0000
1000
0000
0000
0000
1000
0000
0000
0000
0000
0000
0000
0000
0001
0000
0000
0100
0000
0000
0000
0001
,
0000
0000
0000
0000
0000
0000
0000
0000
0100
0000
0000
0010
0000
0000
0000
0100
0000
0000
0000
0000
0001
0000
0000
0000
1000
0000
0000
0000
0010
0000
0000
0000
,
0200
0000
0000
0000
0000
0000
0000
0000
0310
0000
0000
0000
0000
0000
0000
0000
0101
0000
0000
0000
0000
0000
0000
0000
0010
0000
0000
1000
0000
0000
0000
0010
,
0000
0000
0000
0000
0000
0000
0000
0000
0100
0000
0000
0010
0000
0000
0000
0100
0000
0000
0000
0000
0001
0000
0000
0000
0010
0000
0000
0000
0100
0000
0000
0000
,
0010
0000
0000
0000
0100
0000
0000
0000
2000
0000
0000
0000
0000
0000
0000
0000
3100
0000
0000
0000
0000
0000
0000
0000
1000
0000
0000
0100
0000
0000
0000
1000
,
0000
0000
0000
0000
0000
0000
0000
0000
0010
0000
0000
1000
0000
0000
0000
0010
0000
0000
0000
0000
0000
0000
0000
0000
0100
0000
0000
0000
0001
0000
0000
0000
,
0100
0001
0001
0000
1100
0000
0001
0010
,
0100
0010
0001
0000
1000
0100
0010
0001
,
1000
0100
1000
0000
0001
1000
0010
0100
,
0001
1000
0010
0100
0001
1000
0001
0100
,
0010
0100
0100
0001
1000
0000
0100
1000
,
0100
0010
0001
0001
2000
0000
3002
1003
,
0010
1000
0001
1000
0010
0000
0100
0001
,
1000
0010
0100
0001
0001
0000
1000
0000
,
0100
0010
0100
0010
0001
0000
1010
0000
,
0100
0001
0100
0000
0010
0000
0101
0000
,
0010
1000
0010
0000
1000
0100
0010
0000
,
0001
0010
0100
0000
1000
0100
1000
0010
,
0100
0001
0100
0000
0010
0000
1001
0000
,
0010
0100
0010
0000
1000
0000
1001
0000
,
0010
0100
0010
0100
0000
0000
1001
0000
,
0100
0010
0100
0000
0001
0010
0100
1000
,
0100
0010
0001
1000
0220
0330
0000
0000
;

//---------------dance-single - ----------------
#NOTES:
     dance-single:
     :
     Medium:
     7:
     0.257129,0.286448,0.043900,0.054875,0.000000,164.000000,160.000000,4.000000,5.000000,0.000000,0.000000,0.257129,0.286448,0.043900,0.054875,0.000000,164.000000,160.000000,4.000000,5.000000,0.000000,0.000000:
0000
0000
0000
0000
,
0000
0000
0000
0000
,
0000
0000
0000
0000
,
0000
0000
0000
0000
,
0001
0001
0001
0001
,
1000
1000
1000
1000
,
0001
0001
0001
0001
,
0220
0000
0000
0330
,
1000
0010
1000
0010
,
0100
0100
0100
0100
,
0001
0100
0001
0100
,
0010
0010
0010
0010
,
1000
0010
1000
0010
,
0100
0100
0100
0100
,
0001
0100
0001
0100
,
0020
0000
0000
0030
,
1000
0000
0000
0000
,
0001
0000
0000
0000
,
2002
0000
0000
3003
,
0010
0000
0100
0000
0010
0000
1000
0001
,
1000
0000
0001
1000
0001
0000
0100
0000
,
0010
0000
0100
0000
0010
0000
1000
0100
,
1000
0000
0001
0100
0001
0000
1000
0000
,
0010
0000
1000
0000
0001
0000
0100
0010
,
0100
0000
0010
0100
0010
0000
1000
0000
,
0001
0000
1000
0000
0001
0000
0100
0010
,
0100
0000
0010
0100
0010
0000
1000
0000
,
0001
1000
1001
0010
,
0100
0010
0100
0000
0001
0000
0001
0000
,
1000
0000
1000
0000
0010
0000
0100
0010
,
0100
0001
0010
0100
,
1000
0000
0010
0000
0100
0000
0001
1000
,
0001
1000
0010
0010
,
0100
0000
0100
0000
0001
0000
1000
0010
,
1000
0000
0001
0100
0001
0000
1000
0000
,
0010
0100
0001
0001
,
1000
1000
0010
0010
,
0100
0100
0001
0001
,
1000
1000
0010
0010
,
0100
0100
0001
1000
,
0001
1000
0001
0000
1000
0000
0010
0000
,
1000
0010
1000
0000
0001
0000
0100
0000
,
0001
0100
0001
0000
1000
0000
0010
0000
,
0100
0001
1001
0000
;

//---------------dance-single - ----------------
#NOTES:
     dance-single:
     :
     Easy:
     5:
     0.189711,0.214836,0.010975,0.043900,0.000000,121.000000,120.000000,1.000000,4.000000,0.000000,0.000000,0.189711,0.214836,0.010975,0.043900,0.000000,121.000000,120.000000,1.000000,4.000000,0.000000,0.000000:
0000
0000
0000
0000
,
0000
0000
0000
0000
,
0000
0000
0000
0000
,
0000
0000
0000
0000
,
0020
0000
0000
0030
,
0200
0000
0000
0300
,
2002
0000
0000
0000
,
3003
0000
0000
0000
,
0010
0000
0100
0000
,
0010
0100
0010
0100
,
0000
0001
0000
1000
,
0001
1000
0001
1000
,
0010
0000
0100
0000
,
0010
0100
0010
0100
,
0001
0000
1000
0000
,
0001
1000
0001
1000
,
0010
0000
0010
0000
,
0100
0000
0100
0000
,
0010
0000
0000
0100
,
0010
0100
0001
0001
,
0001
0001
1000
0010
,
1000
0010
1000
1000
,
1000
1000
1000
0001
,
0100
0001
0100
0010
,
0010
0010
0010
0100
,
0010
0100
0010
0100
,
0100
0100
0100
0001
,
1000
0001
1000
0010
,
0100
0010
0100
0001
,
1000
0001
1000
0010
,
0100
0010
0100
0000
,
0000
0000
0001
1000
,
0001
1000
0001
1000
,
0001
1000
0010
0100
,
0010
0100
0010
0000
,
1000
1000
0001
0000
,
1000
0000
0001
0000
,
1000
0000
0001
0000
,
1000
0000
0001
0000
,
1000
0000
0010
0100
,
0001
0100
0010
1000
,
0010
0100
0001
1000
,
0010
0100
0001
1000
,
0010
0100
0001
0000
;

//---------------dance-single - Copied from----------------
#NOTES:
     dance-single:
     Copied from:
     Beginner:
     1:
     0.062714,0.071612,0.000000,0.000000,0.000000,40.000000,40.000000,0.000000,0.000000,0.000000,0.000000,0.062714,0.071612,0.000000,0.000000,0.000000,40.000000,40.000000,0.000000,0.000000,0.000000,0.000000:
0000
0000
0000
0000
,
0000
0000
0000
0000
,
0000
0000
0000
0000
,
0000
0000
0000
0000
,
0010
0000
0000
0000
,
0010
0000
0000
0000
,
0010
0000
0000
0000
,
0010
0000
0000
0000
,
1000
0000
0000
0000
,
1000
0000
0000
0000
,
0001
0000
0000
0000
,
0001
0000
0000
0000
,
1000
0000
0000
0000
,
1000
0000
0000
0000
,
0001
0000
0000
0000
,
0001
0000
0000
0000
,
1000
0000
0000
0000
,
0010
0000
0000
0000
,
1000
0000
0000
0010
,
0000
0000
0010
0000
,
0000
0000
0000
0000
,
0000
0000
0000
0100
,
0000
0100
0000
0000
,
0000
0000
0000
0001
,
0000
0001
0000
0000
,
0000
0000
0000
1000
,
0000
1000
0000
0000
,
0000
0000
0010
0000
,
0000
0000
0100
0000
,
0000
0000
0000
0001
,
0000
0000
1000
0000
,
0000
0000
0000
0010
,
0000
0000
0100
0000
,
0000
0000
0000
0001
,
0000
1000
0000
0000
,
0000
0000
0010
0000
,
0000
0000
0010
0000
,
0000
0000
1000
0000
,
0000
0000
1000
0000
,
0000
0000
0001
0000
,
0000
0000
0001
0000
,
0000
0000
0100
0000
,
0000
0000
0100
0000
,
0000
0000
0010
0000
;
