#TITLE:the fall;
#SUBTITLE:;
#ARTIST:half•alive;
#TITLETRANSLIT:;
#SUBTITLETRANSLIT:;
#ARTISTTRANSLIT:half alive;
#GENRE:;
#CREDIT:vincentw;
#BANNER:the fall.png;
#BACKGROUND:the fall-bg.png;
#LYRICSPATH:;
#CDTITLE:cdtitle.png;
#MUSIC:the fall.ogg;
#OFFSET:0.000000;
#SAMPLESTART:95.414291;
#SAMPLELENGTH:11.566269;
#SELECTABLE:YES;
#BPMS:0.000000=83.000000
,100.000000=166.000000
,156.000000=83.000000
;
#STOPS:
;
#BGCHANGES:-0.250=the fall.avi=1.000=0=0=0=StretchNoLoop==CrossFade_Fastest==,
210.000=the fall-bg.png=1.000=0=0=1===CrossFade_Fastest==,
99999=-nosongbg-=1.000=0=0=0 // don't automatically add -songbackground-
;
#KEYSOUNDS:;
#ATTACKS:;

//---------------dance-single - ----------------
#NOTES:
     dance-single:
     :
     Beginner:
     1:
     0.092871,0.151202,0.007304,0.116871,0.000000,89.000000,88.000000,1.000000,16.000000,0.000000,0.000000,0.092871,0.151202,0.007304,0.116871,0.000000,89.000000,88.000000,1.000000,16.000000,0.000000,0.000000:
// measure 0
0000
0000
0000
0000
,  // measure 1
0000
0000
0000
0000
,  // measure 2
0000
0000
0000
0000
,  // measure 3
0000
0000
0000
0000
,  // measure 4
0000
0000
0000
0000
,  // measure 5
1000
0000
0001
0000
,  // measure 6
1000
0000
0001
0000
,  // measure 7
0100
0000
0100
0000
,  // measure 8
0010
0000
0010
0000
,  // measure 9
0000
0000
0000
0000
,  // measure 10
1001
0000
0001
0000
,  // measure 11
1000
1000
1000
0000
,  // measure 12
0010
0000
0100
0000
,  // measure 13
0010
0010
0010
0000
,  // measure 14
1000
0000
0100
0000
,  // measure 15
1000
0100
1000
0000
,  // measure 16
0001
0000
0010
0000
,  // measure 17
0001
0010
0001
0000
,  // measure 18
1000
1000
0001
0001
,  // measure 19
2000
0000
3000
0000
,  // measure 20
0010
0010
0100
0100
,  // measure 21
0020
0000
0030
0000
,  // measure 22
1000
0010
1000
0000
,  // measure 23
0001
0100
0001
0000
,  // measure 24
1000
1000
0001
0002
,  // measure 25
0000
0000
0000
0000
,  // measure 26
0003
0000
0000
0000
,  // measure 27
1000
0000
0000
0000
,  // measure 28
1000
0000
0000
0000
,  // measure 29
0200
0000
0000
0000
,  // measure 30
0320
0000
0000
0000
,  // measure 31
0230
0000
0000
0000
,  // measure 32
0300
0000
0000
0000
,  // measure 33
2000
0000
0000
0000
,  // measure 34
3002
0000
0000
0000
,  // measure 35
2003
0000
0000
0000
,  // measure 36
3000
0000
0000
0000
,  // measure 37
0020
0000
0000
0000
,  // measure 38
0230
0000
0000
0000
,  // measure 39
0300
0000
0000
0000
,  // measure 40
0010
0010
1000
1000
,  // measure 41
0002
0000
0003
0000
,  // measure 42
0010
0010
0001
0001
,  // measure 43
2000
0000
3000
0000
,  // measure 44
0100
0100
1000
1000
,  // measure 45
0002
0000
0003
0000
,  // measure 46
0100
0100
0001
0001
,  // measure 47
2000
0000
3000
0000
,  // measure 48
0001
0010
0100
0000
,  // measure 49
1000
0100
0010
0000
,  // measure 50
0001
1000
0010
0200
,  // measure 51
0000
0000
0000
0300
;

//---------------dance-single - ----------------
#NOTES:
     dance-single:
     :
     Easy:
     3:
     0.157567,0.226803,0.021913,0.197220,0.000000,151.000000,148.000000,3.000000,27.000000,0.000000,0.000000,0.157567,0.226803,0.021913,0.197220,0.000000,151.000000,148.000000,3.000000,27.000000,0.000000,0.000000:
// measure 0
0000
0000
0000
0000
,  // measure 1
0000
0000
0000
0000
,  // measure 2
0000
0000
0000
0000
,  // measure 3
0000
1000
0000
1000
,  // measure 4
0000
0001
0000
0001
,  // measure 5
1000
1000
0010
0010
,  // measure 6
0100
0100
0001
0001
,  // measure 7
1000
0010
0100
0001
,  // measure 8
1000
0100
0010
0002
,  // measure 9
0000
1000
0000
0103
,  // measure 10
0101
0001
1000
0010
,  // measure 11
1000
0001
0100
0100
,  // measure 12
0001
0010
0100
1000
,  // measure 13
0010
1000
0100
0100
,  // measure 14
1100
1000
0001
0100
,  // measure 15
0010
1000
0010
0010
,  // measure 16
1000
0001
0010
0100
,  // measure 17
1000
0001
0010
0010
,  // measure 18
0002
0000
2003
0000
3020
0000
0230
0002
,  // measure 19
0000
0000
0303
0000
,  // measure 20
0002
0000
0023
0000
0230
0000
2300
0002
,  // measure 21
0000
0000
3003
0000
,  // measure 22
1000
0100
0010
0010
,  // measure 23
0001
0100
0010
0010
,  // measure 24
2000
0000
3020
0000
0230
0000
0302
2000
,  // measure 25
0000
0000
0000
0000
,  // measure 26
3003
0000
0000
0000
,  // measure 27
0001
0000
1000
0000
,  // measure 28
0001
0000
0000
0000
,  // measure 29
0200
0000
0010
0000
,  // measure 30
0302
0000
1000
0000
,  // measure 31
0023
0000
0000
0000
,  // measure 32
0030
0000
0000
0000
,  // measure 33
0200
0000
0010
0000
,  // measure 34
2300
0000
0001
0000
,  // measure 35
3020
0000
1000
0000
,  // measure 36
1030
0000
0000
0000
,  // measure 37
0002
0000
1000
0000
,  // measure 38
0023
0000
0100
0000
,  // measure 39
0230
0000
0000
0300
,  // measure 40
0110
0010
0001
1000
,  // measure 41
0001
0000
0010
0000
0100
0000
1000
0100
,  // measure 42
1000
0001
0010
0001
,  // measure 43
1000
0000
0010
0000
0100
0000
0001
0100
,  // measure 44
0001
0010
1000
0010
,  // measure 45
0001
0000
0100
0000
0010
0000
1000
0010
,  // measure 46
1000
0100
0001
0100
,  // measure 47
1000
0000
0001
0000
0100
0000
0001
1000
,  // measure 48
0001
0000
0010
0000
0100
0010
0100
0000
,  // measure 49
1000
0000
0001
0000
0100
0010
0100
0000
,  // measure 50
0001
0000
0010
0000
0100
0000
2000
0200
,  // measure 51
0000
0000
0000
3000
0000
0000
0300
0000
;

//---------------dance-single - ----------------
#NOTES:
     dance-single:
     :
     Medium:
     7:
     0.250438,0.302404,0.109567,0.248351,0.003652,240.000000,225.000000,15.000000,34.000000,0.000000,0.000000,0.250438,0.302404,0.109567,0.248351,0.003652,240.000000,225.000000,15.000000,34.000000,0.000000,0.000000:
// measure 0
0000
0000
0000
0000
,  // measure 1
0000
0000
0000
0000
,  // measure 2
0000
0000
0000
0000
,  // measure 3
0000
0001
0000
0001
,  // measure 4
0000
1000
0000
1000
,  // measure 5
2020
0000
0000
3030
0001
0000
0000
0000
0022
0000
0000
0033
1000
0000
0000
0000
,  // measure 6
2200
0000
0000
3300
0001
0000
0000
0000
0000
0000
0000
0000
0101
0000
0000
0000
,  // measure 7
0001
0001
0100
0000
0010
0010
1000
0000
,  // measure 8
0001
0010
0100
0000
1000
0010
0100
0000
,  // measure 9
0020
0000
0000
0130
,  // measure 10
0110
0010
1000
0000
0001
0100
0001
0000
,  // measure 11
1000
0100
0010
0000
0100
0000
1000
0000
,  // measure 12
0001
0100
0001
0000
0010
0001
0010
0000
,  // measure 13
0100
1000
0010
0000
1000
0000
0100
0000
,  // measure 14
1100
0100
0010
0000
0001
1000
0100
0000
,  // measure 15
0010
0001
0100
0000
0001
0000
0010
0000
,  // measure 16
0001
1000
0001
0000
1000
0010
1000
0000
,  // measure 17
0010
0100
0010
0000
1000
0000
0001
0000
,  // measure 18
0100
0000
0101
0000
0001
0000
1001
2000
,  // measure 19
0100
0001
3010
1010
,  // measure 20
0001
0000
0011
0000
0010
0000
0110
0200
,  // measure 21
0001
0000
0000
0000
0010
0000
0000
0000
1300
0000
0000
1001
0000
0000
0001
0000
,  // measure 22
1000
0100
0001
0000
0001
0100
1000
0000
,  // measure 23
0001
0100
1000
0001
1000
0100
0001
0000
,  // measure 24
1000
0000
0011
0000
1000
0000
0101
0002
,  // measure 25
0000
0000
1000
0000
0000
1000
0000
0000
,  // measure 26
0003
0000
0010
0000
0000
0010
0100
0000
,  // measure 27
0000
0000
0001
0000
0000
0001
0000
0000
,  // measure 28
0000
0000
0100
0000
0000
0010
0000
0010
,  // measure 29
2000
0000
0001
0000
0000
0001
0000
0000
,  // measure 30
3200
0000
1000
0000
0000
0010
0000
0000
,  // measure 31
0320
0000
0100
0000
0000
0001
0000
0000
,  // measure 32
0031
0000
1000
0000
0010
1000
0010
0000
,  // measure 33
0200
0000
1000
0000
0000
0010
0000
0000
,  // measure 34
0320
0000
0100
0000
0000
1000
0000
0000
,  // measure 35
2030
0000
0100
0000
0000
0001
0000
0000
,  // measure 36
3010
0000
1000
0000
0001
0100
0001
0000
,  // measure 37
2000
0000
0100
0000
0000
0001
0000
0000
,  // measure 38
3020
1000
0200
0000
,  // measure 39
0330
0000
0000
0000
0000
0000
0000
0001
,  // measure 40
1001
1000
0010
0000
0100
0001
0010
0000
,  // measure 41
0200
1000
0320
0001
0230
0010
2300
3200
,  // measure 42
0010
0010
1000
0000
1300
0001
0100
0000
,  // measure 43
0002
0100
2003
0010
3002
0100
0023
0230
,  // measure 44
0010
0010
0001
0000
0310
0100
1000
0000
,  // measure 45
0001
0100
0010
0100
1000
0100
0001
0000
,  // measure 46
1000
0001
0010
0000
0100
0010
0001
0000
,  // measure 47
1000
0100
0010
0100
0001
0100
1000
0000
,  // measure 48
0001
0010
1000
0001
1000
0010
0001
0000
,  // measure 49
1000
0010
0001
1000
0001
0010
1000
1000
,  // measure 50
0200
0000
0302
0000
0023
0000
2030
0002
,  // measure 51
0000
0000
0000
3000
0000
0000
0003
0000
;

//---------------dance-single - ----------------
#NOTES:
     dance-single:
     :
     Hard:
     11:
     0.377744,0.510307,0.073044,0.270264,0.248351,362.000000,352.000000,10.000000,37.000000,8.000000,0.000000,0.377744,0.510307,0.073044,0.270264,0.248351,362.000000,352.000000,10.000000,37.000000,8.000000,0.000000:
// measure 0
0000
0000
0000
0000
,  // measure 1
0000
0001
0000
0001
,  // measure 2
0000
1000
0000
1000
,  // measure 3
0000
0010
0000
0010
,  // measure 4
0000
0100
0000
0100
,  // measure 5
0001
0000
0100
0000
0010
0000
0100
0002
0000
0000
1003
0000
0100
0000
0010
0200
,  // measure 6
0000
0000
1300
0000
0010
0000
0001
0020
0000
0000
0030
0000
0110
0000
0000
0000
,  // measure 7
1000
0000
0010
0000
0100
0000
0010
2000
0000
0000
3001
0000
0010
0000
0100
0020
,  // measure 8
0000
0000
0031
0000
0010
0000
1000
0020
0000
0000
0030
0000
1001
0000
0000
0000
,  // measure 9
0002
0000
0000
0000
0010
0000
0000
1000
1000
0000
0000
0000
0103
0000
0000
0000
,  // measure 10
0101
0000
0001
0000
0010
0000
0000
0010
0000
0100
0010
0000
0001
0000
1000
0000
,  // measure 11
0001
0000
1000
0000
0010
0000
1000
0002
0010
0000
0000
0000
0103
0000
0100
0000
,  // measure 12
0010
0000
1000
0000
0001
0000
0000
0001
0000
1000
0001
0000
0100
0000
0001
0000
,  // measure 13
0010
0000
0100
0000
1000
0000
0100
0020
0100
0000
0000
0000
0031
0000
0001
0000
,  // measure 14
1010
0000
1000
0000
0100
0000
0000
0100
0000
0010
0100
0000
1000
0000
0000
0010
,  // measure 15
1000
0000
0001
0000
0100
0000
0001
2000
0010
0000
0000
0000
3100
0000
0100
0000
,  // measure 16
0010
0000
0001
0000
0100
0000
0000
0100
0001
1000
0100
0000
0010
0000
0000
0010
,  // measure 17
0100
0000
0010
0000
0001
0000
1000
0200
1000
0000
0000
0000
0310
0000
0010
0001
,  // measure 18
1000
0000
0010
0000
0001
0000
0010
2000
0000
0000
3100
0000
0001
0000
0100
2000
,  // measure 19
0000
0000
3100
0000
0001
0000
1000
0020
0000
0000
0100
0000
0001
0000
0000
0030
,  // measure 20
0001
0000
0010
0000
1000
0000
0010
0002
0000
0000
0103
0000
1000
0000
0100
0002
,  // measure 21
0000
0000
0103
0000
1000
0000
0001
0010
1000
0000
0010
0100
0000
0010
1000
0000
,  // measure 22
1010
0000
0010
0000
0100
0000
0001
0010
M00M
0010
1000
0000
1001
0000
1000
0100
,  // measure 23
0010
0000
0100
0000
1000
0000
0001
0100
M00M
0100
1000
0000
1001
0000
0000
0000
,  // measure 24
0001
0000
0010
0000
1000
0000
0010
0200
0000
0000
0301
0000
0100
0000
1000
0000
,  // measure 25
0001
0000
0100
0000
0001
0100
0000
0010
,  // measure 26
0010
0000
1000
0000
0010
1000
0100
1000
,  // measure 27
0001
0000
0010
0000
0001
0010
0000
0100
,  // measure 28
0100
0000
1000
0000
0010
0100
0010
0000
,  // measure 29
1000
0000
0010
0000
1000
0010
0000
0100
,  // measure 30
0100
0000
0001
0000
0100
0001
0010
0001
,  // measure 31
1000
0000
0100
0000
1000
0100
0000
0010
,  // measure 32
0010
0000
0001
0000
0100
0010
0100
0000
,  // measure 33
0001
0000
1000
0000
0010
0000
1000
0001
,  // measure 34
0100
0000
0001
0000
0010
0000
0100
1000
,  // measure 35
0100
0000
1000
0000
0001
0000
0010
0001
,  // measure 36
1000
0000
0010
0000
1000
0010
0100
0010
,  // measure 37
1000
0000
0001
0000
0010
0000
1000
0010
,  // measure 38
0000
0000
0000
0001
0000
0000
0100
0000
0000
0000
0000
0000
0001
0000
0000
0000
1000
0000
0010
0000
0000
0000
0100
0000
,  // measure 39
0002
0000
0023
0000
2030
0000
3200
0302
,  // measure 40
0010
0000
0010
0000
1000
0000
0000
1000
0003
0001
1000
0000
0100
0000
0010
0100
,  // measure 41
2000
0000
0001
0000
3200
0000
1300
0010
0002
0000
0010
0000
0023
0000
2030
0000
,  // measure 42
0100
0000
0100
0000
0001
0000
0000
0001
3000
1000
0001
0000
0010
0000
0100
1000
,  // measure 43
0002
0000
1000
0000
0203
0000
0301
0010
2000
0000
0010
0000
3020
0000
0032
0000
,  // measure 44
0010
0000
1000
0000
0100
0000
0000
0100
0003
0001
0100
0000
0010
1000
0100
1000
,  // measure 45
0010
0000
1000
0000
0100
0000
1000
0001
0100
0000
0001
1000
0100
0000
0010
0000
,  // measure 46
0001
0000
1000
0000
0100
0000
0010
0001
0100
0001
0010
0000
0100
1000
0100
1000
,  // measure 47
0001
0000
0100
0000
1000
0000
0100
0010
1000
0100
0010
0000
0001
0100
0010
0100
,  // measure 48
0001
0000
1000
0000
1010
0000
1000
0010
M00M
0010
0001
0000
0011
0000
0010
0001
,  // measure 49
0100
0001
1000
0000
1100
0000
1000
0100
M00M
0100
0001
0000
0100
0100
0001
0001
,  // measure 50
0020
0000
2030
0000
3200
0000
0302
2000
,  // measure 51
0000
0000
0000
0003
0000
0000
3000
0000
;

//---------------dance-single - ----------------
#NOTES:
     dance-single:
     :
     Challenge:
     13:
     0.533224,0.661509,0.262960,0.043827,0.518615,511.000000,475.000000,36.000000,6.000000,12.000000,0.000000,0.533224,0.661509,0.262960,0.043827,0.518615,511.000000,475.000000,36.000000,6.000000,12.000000,0.000000:
// measure 0
0000
0000
0000
0000
,  // measure 1
0000
1000
0000
1000
,  // measure 2
0000
0001
0000
0001
,  // measure 3
0000
0100
0000
0100
,  // measure 4
0000
0010
0000
0010
,  // measure 5
1000
0000
0001
0000
1001
0000
0001
1000
0010
0100
0010
1000
0100
0000
1000
0000
,  // measure 6
0001
0000
0000
0000
0010
0000
0100
0000
0000
0000
0010
0000
0000
0000
0001
0000
0000
0000
1000
0000
0010
0000
0000
0100
0000
0000
0010
0000
0000
0000
1000
0000
,  // measure 7
0001
0100
0001
0000
0010
0000
0100
1000
0000
1000
0010
0000
0100
0000
0001
0100
,  // measure 8
1000
0100
0001
0000
0010
0000
0010
0001
0000
0001
0100
0000
0101
0000
0000
0000
,  // measure 9
1000
0000
0010
0000
1000
0000
0001
1000
1000
0000
0100
0010
0001
0000
0000
0000
,  // measure 10
1100
0000
0001
0000
0101
0000
0100
0010
0000
0010
1000
0000
1010
0000
0010
0100
,  // measure 11
0001
0000
0010
0000
1000
0000
0010
0001
1000
0000
1000
0000
1001
0000
0000
0000
,  // measure 12
0001
0000
0010
0000
0011
0000
0001
1000
0010
0100
0001
0000
0101
0000
0000
0100
,  // measure 13
0010
0000
0000
0000
1000
0000
0000
0000
1010
0000
0000
0000
0010
0000
0100
0000
0001
0000
1000
0100
1000
0000
0010
0000
0001
0000
1000
0000
0100
0000
0010
0000
,  // measure 14
0110
0000
1000
0000
0101
0000
0001
0010
0M00
0010
1000
0000
1001
0000
0001
0010
,  // measure 15
1000
0000
0010
0000
0001
0000
0100
0010
0001
0010
0100
0000
0101
0000
1000
0000
,  // measure 16
0010
0000
0000
0000
1000
0000
0000
0000
1100
0000
0000
0000
0001
0000
0100
00M0
0100
0000
1000
0000
0001
0000
0000
0000
0110
0000
0000
0000
0000
0000
0001
0000
,  // measure 17
1000
0000
0000
0000
0010
0000
0000
0000
0001
0000
0000
0000
0010
0000
0100
0000
0100
0000
0001
1000
0001
0000
0010
0000
0100
0000
0010
0000
0001
0000
0001
0000
,  // measure 18
1000
0000
0010
0000
0110
0000
0010
1000
0001
0000
0010
0000
0110
0000
0010
0001
,  // measure 19
1000
0000
0100
0000
0101
0000
0100
1000
0001
0000
0100
0000
1100
0000
0100
0001
,  // measure 20
1000
0000
0001
0000
0011
0000
0001
1000
0001
0000
1000
0000
1010
0000
1000
0001
,  // measure 21
0100
0000
0000
0000
0010
0000
0000
0000
0110
0000
0000
0000
0100
0000
0001
0000
0101
0000
0000
0000
0001
0000
1000
0100
0000
0000
1000
0000
0101
0000
0000
0000
,  // measure 22
1000
0000
0010
0000
0110
0000
0100
0001
MMM0
0001
0010
0000
1000
0000
0001
0010
,  // measure 23
0100
0010
0001
0000
1100
0000
0100
1000
0MMM
1000
0010
0000
0001
0000
0000
0000
,  // measure 24
1000
0000
0000
0000
0100
0000
0000
0000
0001
0000
0000
0000
0100
0000
0020
0000
0000
0000
0000
0000
1030
0000
0000
0000
0010
0000
0000
0000
0001
0000
0010
0001
,  // measure 25
0010
0000
0001
0000
0100
0000
0010
0000
1000
0000
0100
0000
0000
0000
1000
0010
,  // measure 26
1000
0000
0100
0000
0010
0000
0001
0000
0100
0000
0010
0000
0100
0010
0100
0010
,  // measure 27
0100
0000
0001
0000
0010
0000
0100
0000
1000
0000
0010
0000
0000
0000
1000
0100
,  // measure 28
1000
0000
0001
0000
0010
0000
0001
0000
1000
0000
0010
0000
1000
0000
0010
0100
,  // measure 29
0010
0000
1000
0000
0100
0000
0001
0000
0100
0000
1000
0000
0000
0000
0100
0010
,  // measure 30
0100
0000
1000
0000
0010
0000
0001
0000
0010
0000
1000
0000
0001
0010
0100
0010
,  // measure 31
0001
0000
0010
0000
1000
0000
0001
0000
0100
0000
1000
0000
0000
0000
0001
1000
,  // measure 32
0001
0000
0100
0000
1000
0000
0001
0000
0010
0000
1000
0000
0001
0000
1000
0001
,  // measure 33
0010
0000
0001
0000
1000
0000
0010
0000
0001
0000
1000
0000
0000
0000
0001
1000
,  // measure 34
0001
0000
0010
0000
1000
0000
0001
0000
0010
0000
1000
0000
0010
0001
1000
0001
,  // measure 35
0100
0000
0001
0000
1000
0000
0100
0000
0001
0000
1000
0000
0000
0000
0001
1000
,  // measure 36
0001
0000
0100
0000
1000
0000
0001
0000
0100
0000
1000
0000
0100
0000
0001
1000
,  // measure 37
0100
00M0
0100
0000
0001
0000
0010
0M00
0010
0000
1000
0000
0000
0000
0010
0100
,  // measure 38
0010
0000
0000
1000
0000
0000
0001
0000
0000
0010
0000
0000
0001
0000
0100
00M0
0100
0000
1000
0000
0010
0M00
0010
0000
,  // measure 39
0001
0000
0000
0000
0000
0000
0000
1001
,  // measure 40
1000
0000
0001
0000
0011
0000
0010
0100
0000
0100
1000
0000
1100
0000
0100
1000
,  // measure 41
0001
0000
0100
0000
1000
0000
0100
0001
0010
0000
0010
0000
0101
0000
0000
0000
,  // measure 42
1000
0000
0010
0000
0110
0000
0100
0001
1000
0100
0010
0000
0110
0000
0000
0010
,  // measure 43
0001
0000
0000
0000
0001
0000
0000
0000
1001
0000
0000
0000
1000
0000
0010
0000
1000
0000
0000
0000
0010
0000
0100
0001
0100
0000
0001
0000
0001
0000
1000
0000
,  // measure 44
0100
0000
1000
0000
0001
0000
1000
0000
0010
0000
0000
0000
0100
0000
0001
0000
1000
0000
0001
0000
0010
0000
0000
0000
0001
0010
0001
0010
0100
0010
0100
0010
,  // measure 45
0001
0100
1000
0100
0010
0000
0100
0010
0001
0010
0100
0000
1001
0000
0001
0000
,  // measure 46
0001
0000
0010
0000
0100
0000
0010
0000
0001
0000
0000
0000
1000
0000
0100
0000
0010
0000
0100
0000
1000
0000
0000
0000
0001
0010
0001
0010
0100
0010
0100
0010
,  // measure 47
0001
0010
1000
0010
0100
1000
0010
0100
0001
0100
0010
0000
1001
0000
1000
0000
,  // measure 48
0100
1000
0010
0100
0001
0010
0001
0100
0010
1000
0100
0000
1100
0000
1000
0001
,  // measure 49
0010
0001
0100
0010
1000
0100
1000
0010
0100
0001
0010
0000
0001
0001
1000
1000
,  // measure 50
0200
0000
0302
0000
0023
0000
2030
0002
,  // measure 51
0000
0000
0000
3000
0000
0000
0003
0000
;
