#TITLE:shadowgraph;
#SUBTITLE:;
#ARTIST:MYTH & ROID;
#TITLETRANSLIT:;
#SUBTITLETRANSLIT:;
#ARTISTTRANSLIT:;
#GENRE:;
#CREDIT:;
#MUSIC:shadowgraph.ogg;
#BANNER:shadowgraph.png;
#BACKGROUND:shadowgraph - bg.png;
#CDTITLE:;
#SAMPLESTART:49.458;
#SAMPLELENGTH:14.639;
#SELECTABLE:YES;
#OFFSET:-0.289;
#BPMS:0.000=125.012
,67.000=62.506
,83.000=375.036
,93.500=125.012
;
#STOPS:;
#BGCHANGES:;
#FGCHANGES:;

//--------------- dance-single - ----------------
#NOTES:
     dance-single:
     :
     Hard:
     12:
     0,0,0,0,0:
0000
0000
0000
0000
,
0000
0000
0000
0000
,
0000
0000
0000
0000
,
0000
0000
0000
0000
,
0000
0000
0000
0000
0000
0000
0000
0000
0000
0000
0100
0001
0010
0000
0000
0000
,
0100
0000
0000
0000
0110
0000
0000
0000
0010
0000
0000
0000
0001
0000
0000
0100
,
0000
0000
0000
0010
0000
0000
1010
0000
0000
0000
0000
0000
1000
0000
0000
0000
0000
0000
0001
0000
0010
0100
0000
0000
,
1000
0000
0001
1000
0000
0000
0001
0000
0010
0001
0000
0100
0001
0000
0000
1001
0000
0000
1000
0000
0010
1000
0000
0000
,
0100
0000
0000
0000
1000
0000
0100
0000
0000
0000
0000
0000
1000
0000
0000
0000
0001
0000
0100
0000
0000
0000
0000
0000
0101
0000
0000
0000
0000
0000
0000
0000
0000
0000
0000
0000
0010
0000
0000
0000
0000
0000
0000
0000
0000
1000
0000
0000
,
0000
0000
0100
0000
0000
0000
0110
0000
0000
0000
0010
0000
0100
0000
0000
1000
,
0000
0000
0010
0000
0000
0000
1010
0000
0000
0000
1000
0100
0020
0000
0000
0000
,
0001
0000
0000
0000
0100
0000
0100
0000
0200
0000
0000
0000
0330
0000
1000
0001
,
1000
0000
1000
0000
0100
0000
0100
0000
1001
0000
0000
0000
0100
0000
0000
1000
,
0000
0000
0010
0000
0000
0000
0101
0000
0000
0000
0100
0000
0010
0000
0000
0100
,
0000
0000
0010
0000
0000
0000
1001
0000
0000
0000
0001
0100
0002
0000
0000
0000
,
1000
0000
0010
0010
0020
0000
0033
0001
,
0001
0000
0000
0000
0010
0000
0000
0000
0010
0000
0000
0000
0100
0000
0000
0000
0110
0000
0000
0000
0000
0000
0000
0000
0010
0000
0000
0001
0000
0000
0100
0000
,
0000
0000
0001
0000
0010
0000
0100
0000
1000
0000
0000
0010
0000
0000
0220
0000
0000
0000
0330
0000
0100
0000
0000
0000
0001
0000
0000
1000
0000
0000
0100
0000
,
0000
0000
1000
0000
0010
0000
0100
0000
0001
0000
0000
0010
0000
0000
0022
0000
0000
0000
0033
0000
0001
0000
0000
0000
0100
0000
0000
0010
0000
0000
0100
0000
,
0000
0000
0001
0000
0010
0000
0100
0000
0010
0000
0000
0001
0000
0000
2002
0000
0000
0000
3003
0000
1000
0000
0010
0100
0010
0000
0000
0000
1000
0000
0000
0000
,
2020
0000
0000
0000
0000
0000
0000
0000
0000
0000
0000
0000
0000
0000
0000
0000
0000
0000
3030
0000
0000
0000
0000
0000
0000
0000
0000
0000
0000
0000
0000
0000
0000
0000
0000
0000
0001
0000
0000
0000
0000
0000
0010
0000
0000
0000
0000
0000
0001
0000
0000
0000
0000
0000
0000
0000
0000
0000
0000
0000
0000
0000
0000
0000
0000
0000
0000
0000
0000
0000
0000
0000
0010
0000
0000
0000
0000
0000
0000
0000
0000
0000
0000
0000
0000
0000
0000
0000
0000
0000
0000
0000
0000
0000
0000
0000
2200
0000
0000
0000
0000
0000
0000
0000
0000
0000
0000
0000
0000
0000
0000
0000
0000
0000
0000
0000
0000
0000
0000
0000
0000
0000
0000
0000
0000
3300
0000
0000
0000
0000
0000
0000
0000
0000
0000
0000
0000
0000
0000
0000
0000
0000
0000
0000
0002
0000
0000
0000
0000
0000
0000
0000
0000
0000
0000
0000
0000
0000
0000
0000
0000
0000
0000
0000
0000
0000
0000
0000
0000
0000
0000
0000
0000
0000
0000
0000
0000
0000
0000
0000
0000
0000
0000
0000
0000
0000
0000
0000
0000
0000
0000
0000
,
0000
0000
0000
0000
,
0000
0000
0000
0000
,
0003
0000
0000
0000
0000
0000
1000
0001
1000
0000
0000
0000
0010
0000
0000
0000
,
1001
0000
0000
0000
1000
0000
0000
0000
0100
0000
0000
0010
0000
0000
0100
0000
,
0110
0000
0000
0000
0010
0000
0001
1000
0010
0000
0000
0000
0100
0000
0000
0000
,
0101
0000
0000
0000
0010
0000
1000
0100
1000
0000
0000
0000
0100
0000
0000
0000
,
0011
0000
0000
0000
0001
0000
1000
0010
1000
0000
0000
0000
0100
0000
0000
0000
,
1010
0000
0000
0000
1000
0000
0000
0000
0001
0000
0000
0010
0000
0000
0001
0000
,
0101
0000
0010
0100
0000
1000
0100
0100
,
1000
0010
0100
0001
0000
1000
0110
0110
,
1001
0000
0000
0000
0001
0000
0100
0010
0100
0000
0000
0000
0010
0000
0000
0000
,
0110
0000
0000
0000
1000
0000
0000
0000
0100
0000
0000
1000
0000
0000
0001
0000
,
0011
0000
0000
0000
0100
0000
0010
1000
0010
0000
0000
0000
1010
0000
0000
0000
,
0100
0000
0000
0000
0001
0000
1000
0100
0010
0000
0000
0000
0001
0000
0000
0000
,
1100
0000
0000
0000
0001
0000
1000
0010
1000
0000
0000
0000
0010
0000
0000
0000
,
0101
0000
0000
0000
1000
0000
0000
0000
0001
0000
0000
1000
0000
0000
0100
0000
,
0110
0000
0010
0001
0000
1000
0100
0100
,
1000
0000
0000
0001
0000
0000
0011
0000
0000
0000
0001
0000
0101
0000
0110
0000
,
1010
0000
0000
0000
0000
0000
0000
0000
0000
1000
0000
0000
0000
0000
0000
0000
0000
0000
0001
0000
0000
1000
0000
0000
0001
0000
0000
0000
0100
0000
0001
0000
0000
0000
0000
0000
0010
0000
0000
0000
0001
0000
0010
0000
0000
0000
0000
0000
,
0001
0000
1000
0001
0000
0100
0001
0000
0000
0010
0000
0000
0001
0000
1000
0001
0000
0000
1000
0000
0010
1000
0000
0000
,
0001
0000
0010
0001
0000
0100
0001
0000
0000
1000
0000
0000
0001
0000
0010
0001
0000
0000
1000
0000
0010
1000
0000
0000
,
0001
0000
0010
0001
0000
1000
0001
0000
0000
0100
0000
0000
0010
0000
0100
0010
0000
0000
1000
0000
0001
1000
0000
0000
,
0100
0000
0010
0100
0000
1000
0001
0000
0000
1000
0000
0000
1001
0000
0000
0000
0000
0000
0000
0000
0000
0000
0000
0000
;
