#TITLE:rainbow;
#SUBTITLE:;
#ARTIST:ああああ;
#TITLETRANSLIT:;
#SUBTITLETRANSLIT:;
#ARTISTTRANSLIT:;
#GENRE:;
#CREDIT:Telperion;
#BANNER:rainbow.png;
#BACKGROUND:rainbow-bg-ws.png;
#LYRICSPATH:;
#CDTITLE:;
#MUSIC:rainbow.ogg;
#OFFSET:-1.197;
#SAMPLESTART:44.623001;
#SAMPLELENGTH:24.121000;
#SELECTABLE:YES;
#BPMS:0.000000=199.000000
;
#STOPS:
;
#BGCHANGES:0.000=rainbow.avi=1.000=0=0=0=StretchNoLoop====,
99999=-nosongbg-=1.000=0=0=0 // don't automatically add -songbackground-
;
#KEYSOUNDS:;
#ATTACKS:;

//---------------dance-single - Telperion----------------
#NOTES:
     dance-single:
     Telperion:
     Beginner:
     2:
     0.096916,0.191981,0.007538,0.045227,0.000000,90.000000,89.000000,1.000000,6.000000,0.000000,0.000000,0.096916,0.191981,0.007538,0.045227,0.000000,90.000000,89.000000,1.000000,6.000000,0.000000,0.000000:
0000
0000
0000
0000
,
0000
0000
0000
0000
,
0000
0000
0000
0000
,
0000
0000
0000
0000
,
1000
0000
0000
0000
,
0001
0000
0000
0000
,
0100
0000
0000
0000
,
0010
0000
0000
0000
,
1000
0000
0000
0000
,
0001
0000
0000
0000
,
0010
0000
0000
0000
,
0100
0000
0100
0000
,
0100
0000
0000
0000
,
1000
0000
0000
0000
,
0010
0000
0000
0000
,
0100
0000
0000
0000
,
0001
0000
1000
0000
,
0001
0000
1000
0000
,
0100
0000
0000
0000
,
0010
0000
0000
0000
,
0100
0000
0000
0000
,
0010
0000
0000
0000
,
0100
0000
0000
0000
,
0010
0000
0000
0000
,
0100
0000
0000
0000
,
1000
0000
0001
0000
,
0100
0000
0000
0000
,
0010
0000
0000
0000
,
0100
0000
0000
0000
,
0010
0000
0000
0000
,
0100
0000
0000
0000
,
0010
0000
0000
0000
,
2000
0000
0000
0000
,
3000
0000
0000
0000
,
0002
0000
0000
0000
,
0003
0000
0000
0000
,
0100
0000
0100
0000
,
0100
0000
0000
0000
,
0010
0000
0010
0000
,
0010
0000
0000
0000
,
1000
0000
0000
0000
,
0001
0000
0000
0000
,
0010
0000
0000
0000
,
1000
0000
0000
0000
,
0200
0000
0000
0000
,
0300
0000
0000
0000
,
0020
0000
0000
0000
,
0030
0000
0000
0000
,
0001
0000
0000
0000
,
0100
0000
0000
0000
,
1000
0000
0000
0000
,
0010
0000
0000
0000
,
0100
0000
0000
0000
,
0000
0000
0000
0000
,
0010
0000
0000
0000
,
0000
0000
0000
0000
,
1000
0000
0000
0000
,
0000
0000
0000
0000
,
0001
0000
0000
0000
,
0000
0000
0000
0000
,
0010
0000
0000
0000
,
0100
0000
0000
0000
,
1000
0000
1000
0000
,
0001
0000
0001
0000
,
1000
0000
0000
0000
,
0010
0000
0000
0000
,
0200
0000
0000
0000
,
0000
0000
0000
0000
,
0300
0000
0000
0000
,
0000
0000
0000
0000
,
0000
0000
0000
0000
,
0000
0000
0000
0000
,
0000
0000
0000
0000
,
0000
0000
0000
0000
,
0000
0000
0000
0000
,
0000
0000
0000
0000
,
0000
0000
0000
0000
,
0000
0000
0000
0000
,
0010
0000
0000
0000
,
0000
0000
0000
0000
,
0100
0000
0000
0000
,
0000
0000
0000
0000
,
0001
0000
0000
0000
,
0010
0000
0000
0000
,
1000
0000
0000
0000
,
0100
0000
0000
0000
,
0001
0000
0000
0000
,
1000
0000
0000
0000
,
0010
0000
0000
0000
,
0100
0000
0000
0000
,
0001
0000
0000
0000
,
0010
0000
0000
0000
,
0100
0000
0000
0000
,
1000
0000
0000
0000
,
0001
0000
0001
0000
,
0100
0000
0100
0000
,
0010
0000
0010
0000
,
1000
0000
1000
0000
,
0001
0000
0000
0000
,
0010
0000
0000
0000
,
0200
0000
0000
0000
0000
0000
0000
0300
,
0000
0000
0000
0000
0000
0000
0000
1001
;

//---------------dance-single - Telperion----------------
#NOTES:
     dance-single:
     Telperion:
     Easy:
     9:
     0.371511,0.478845,0.165834,0.097993,0.000000,345.000000,323.000000,22.000000,13.000000,0.000000,0.000000,0.371511,0.478845,0.165834,0.097993,0.000000,345.000000,323.000000,22.000000,13.000000,0.000000,0.000000:
0000
0000
0000
0000
,
0000
0000
0000
0000
,
0000
0000
0000
0000
,
0000
0000
0000
0000
,
0001
0000
0010
0000
,
0100
0000
0000
0000
1000
0000
0001
1000
,
0000
0000
0010
0000
,
0100
0000
0000
0000
0001
0000
1000
0001
,
0000
0000
0010
0000
,
0100
0000
1000
0000
,
0001
0000
0100
0000
,
0010
1000
0010
0000
0100
0000
0101
0000
,
1000
0100
1000
0100
0000
0000
0010
0000
,
0001
1000
0001
1000
0000
0000
0010
0000
,
0100
0001
0100
0001
0000
0000
1000
0000
,
0100
0010
0100
0010
0000
0000
0001
0000
,
1000
0010
1000
0010
0000
0000
0100
0000
,
0001
0010
0001
0000
1000
0000
1100
0000
,
0002
0000
0100
0000
,
2003
0000
0100
0000
,
3020
0000
0100
0000
,
2030
0000
0100
0000
,
3001
0000
0001
0100
0000
0000
0010
0000
,
1000
0000
1000
0100
0000
0000
0010
0000
,
0001
1000
0010
0100
,
0001
1000
0001
0000
0010
0000
0100
0000
,
1000
0010
0000
1000
0010
0000
0000
0000
,
0100
0001
0000
0100
0001
0000
0000
0000
,
1000
0100
0000
1000
0100
0000
0000
0000
,
0010
0001
0000
0010
0001
0000
0000
0000
,
1000
0010
1000
0001
,
0010
0001
1000
0010
,
0200
0000
1000
0000
,
0301
0100
0010
1000
,
0200
0000
0000
0000
0001
0000
0000
1300
,
0000
0000
0000
0000
,
0101
0000
0000
0000
0100
0000
0010
1000
,
0000
0001
0010
0100
,
1000
0000
0000
0001
0000
0100
0000
0001
,
0000
1000
0100
1000
0000
0010
0000
0000
,
0100
0000
0000
0000
0001
0000
0010
0001
,
0000
0010
0100
1000
,
0001
0000
0100
0000
0010
0000
1000
0001
,
1000
0100
0010
0001
,
1000
0000
0100
0000
1000
0000
0001
1000
,
0000
0000
0100
0000
0010
0100
0010
0000
,
0001
0000
0100
0000
0001
0000
1000
0001
,
0000
0100
0010
0000
,
1001
0000
0001
0000
0010
0001
0010
0001
,
0000
1000
0010
0100
,
1001
0000
0001
0000
0010
0001
0100
0000
,
0010
1000
0010
1000
0000
0000
0000
0000
,
0001
0000
0100
0000
0001
0100
0000
0100
,
0010
0000
0000
0000
0100
0001
0000
0001
,
1000
0000
0100
0000
1000
0100
0000
0100
,
0010
0000
0000
0000
0001
0010
0000
0010
,
0100
0000
1000
0000
0001
1000
0000
1000
,
0010
0000
0000
0000
0100
0010
0000
0010
,
1000
0000
0001
0000
0100
0001
0000
0001
,
1000
0000
0100
0010
,
0001
0000
1000
0000
0010
0100
0010
1000
,
0000
0001
0000
0010
0000
0000
0100
0000
,
1100
0000
1001
0000
,
0101
0000
1001
0000
,
1010
0000
0001
0000
0010
0100
0010
0001
,
0000
1000
0010
0100
,
0001
0001
1000
1000
,
0010
0100
0010
0100
0001
1000
0001
1000
,
0000
0000
0000
0000
,
0000
0000
0000
0000
,
0000
0000
0000
0000
,
0000
0000
0000
0000
,
0000
0000
0000
0000
,
0000
0000
0000
0000
,
0000
0000
0000
0000
,
0000
0000
0000
0000
,
0000
0000
0000
0000
,
0000
0000
0000
0000
,
2000
0000
0000
0000
0001
0000
0000
3020
,
0000
0000
1030
0001
,
0020
0000
0000
0100
0000
0000
0000
0032
,
0000
0000
1003
0000
,
1001
0000
1000
0000
0010
0100
0010
1000
,
0000
0001
0010
0100
,
1001
1000
0001
0001
,
0010
0100
0010
0001
0000
0100
0000
0000
,
0020
1000
0000
0100
,
0030
1000
0010
0100
,
0001
0000
1000
0100
0010
0000
0001
0000
,
1000
0000
1000
0001
,
0020
0100
0000
0031
,
0010
0000
0100
0000
1000
0001
0000
0001
,
0100
0000
0010
0100
,
0001
1000
0001
1000
0000
0100
0000
0000
,
0011
0000
1001
0000
,
1010
0000
0110
0000
,
0101
0000
1001
0000
,
1100
0000
0110
0000
,
0001
0010
0100
1000
0000
0000
0000
1010
,
0000
0000
0000
0101
0000
0000
0000
0000
,
1000
0000
0001
0000
0100
0000
0001
1000
,
0000
0000
0100
0000
0010
0000
0001
0200
,
0000
0000
0000
0000
,
0000
0000
0000
0000
,
0000
0000
0000
0000
,
0000
0000
0000
0000
0000
0000
0000
0300
;

//---------------dance-single - Telperion----------------
#NOTES:
     dance-single:
     Telperion:
     Medium:
     13:
     0.516884,0.678364,0.188447,0.188447,0.075379,480.000000,455.000000,25.000000,25.000000,40.000000,0.000000,0.516884,0.678364,0.188447,0.188447,0.075379,480.000000,455.000000,25.000000,25.000000,40.000000,0.000000:
0000
0000
0000
0000
,
0000
0000
0000
0000
,
0000
0000
0000
0000
,
0000
0000
0000
0000
,
2000
0000
0001
0000
,
3200
0000
0000
0000
0310
0100
0010
0002
,
0000
0000
1000
0000
,
0103
0000
0001
0100
0000
0010
0000
2000
,
0000
0000
0001
0000
,
3100
1000
0100
0010
,
0002
0000
0000
1003
0000
0000
1010
0000
,
0001
0100
0001
1000
0000
0000
0100
0000
,
0010
0100
0010
0001
0000
0010
0001
0100
,
0000
0001
0000
1000
0100
0010
0001
0000
,
0001
0100
0001
0010
0000
0010
0001
0100
,
0000
0010
0000
0100
0001
0010
0000
0000
,
0010
0100
1000
0010
0000
0010
0100
0001
,
0000
0100
0010
1000
0010
0100
0001
1000
,
0200
0000
0310
0100
,
2000
0000
3001
1000
,
0020
0000
1030
0010
,
0200
0000
0310
0100
,
0001
1000
0100
0010
0000
0000
0011
0000
,
1000
0001
0100
0010
0000
0000
1010
0000
,
0001
0100
0000
1000
0100
0000
0001
0000
,
1000
0000
0100
0000
0010
0000
0000
0001
0100
0000
0010
0000
0100
0000
0001
0000
,
1000
0000
0010
1000
0010
0000
0100
0010
,
0100
0000
0001
0100
0001
0000
1000
0100
,
0010
0000
0001
1000
0001
0000
0100
0010
,
1000
0000
0100
1000
0100
0000
0011
0000
,
1000
0010
0000
0100
0001
0100
0000
0010
,
1000
0001
0000
0010
0100
0010
0000
0001
,
1000
0000
1000
0000
1000
0100
0001
0000
,
1000
0000
1000
0000
1000
0010
0001
0000
,
1000
0001
0100
1000
0001
0010
1000
0001
,
0000
0000
0000
0000
0000
0020
0000
0000
,
0130
0000
0100
0000
1000
0001
0100
0001
,
0000
0000
0101
0000
1000
0001
0100
0000
,
0110
0000
0000
1010
0000
0011
0000
1100
,
0000
0100
0010
0001
0000
1002
0000
0000
,
0103
0000
0100
0000
0010
1000
0001
1000
,
0000
0000
0101
0000
1000
0100
0010
0000
,
0011
0000
0000
1100
0000
1000
0001
0100
,
0000
0110
1010
1001
,
0021
0000
0100
0000
0001
0000
0130
1000
,
0001
0000
0100
0001
1000
0001
0100
0000
,
1020
0000
0100
0000
1000
0000
0130
0001
,
1000
0000
0100
0010
0001
0010
0100
1000
,
0002
0000
0000
0000
0013
0100
1000
0010
,
0000
0000
0100
1000
0000
0100
0001
0000
,
2000
0000
0100
0000
3010
1000
0001
0000
,
0010
0100
0010
0100
0000
0000
0000
0000
,
1000
0100
0010
0001
0000
0100
0001
1000
,
0010
0100
0010
0100
,
0001
0100
0010
1000
0000
0100
1000
0001
,
0010
0100
1000
0100
,
0010
0001
1000
0010
0000
0100
0001
1000
,
0100
0010
0001
0010
,
0100
1000
0001
0100
0000
0010
1000
0001
,
0010
0100
0010
0000
,
1001
0000
1000
0000
0001
0100
0010
0001
,
0000
0010
0000
1000
0000
0001
0010
0000
,
0011
0000
0000
1000
0100
0010
0001
0000
0000
0100
0000
0010
,
1000
0000
0000
0001
0010
0100
1000
0000
0000
0001
0000
0100
,
0010
0000
1000
0000
0001
0100
0001
1000
,
0000
0010
0000
0001
0000
0010
1000
0000
,
1100
0000
0001
1000
0010
0000
0100
0001
,
1000
0100
1000
0100
0010
0001
1000
0010
,
0000
0000
0000
0000
,
0000
0000
0000
0000
,
MMMM
0000
0000
0000
0000
0000
0000
MMMM
,
0000
0000
0000
0000
,
MMMM
0000
0000
MMMM
0000
0000
0000
MMMM
,
0000
0000
0000
0000
,
MMMM
0000
0000
0000
0000
0000
0000
MMMM
,
0000
0000
0000
0000
,
MMMM
0000
0000
0000
,
MMMM
0000
MMMM
0000
,
2000
0000
0000
0000
0000
0000
3001
1000
,
0010
0100
0001
1000
,
0002
0000
0000
0013
0000
0100
0000
0100
,
2000
0000
0000
0000
3001
1000
0010
0100
,
0002
0000
1000
0000
0103
0001
1000
0010
,
0000
0000
0100
1000
0000
0100
0001
0000
,
2000
0000
0100
0000
3001
1000
0100
0000
,
0010
0100
0010
0100
0000
2002
0000
0000
,
3003
0000
0001
0100
0001
0010
0100
1000
,
0000
0001
0100
0000
0010
0001
0010
1000
,
0001
0000
0000
0000
1000
0000
0100
0000
0010
0000
0000
1000
0000
0000
0010
0000
,
0001
0000
0000
0000
0000
0000
1000
0000
0010
0000
0000
0001
0000
0000
0010
0000
,
0100
0000
0001
0000
1000
0100
0010
1000
,
0010
0001
1000
0010
0100
0000
0001
0100
,
0001
0000
1000
0010
0001
0010
0100
0001
,
1000
0000
0000
0000
0001
1000
0001
0000
0000
0000
0010
0000
0000
0000
0000
0000
,
1100
0000
0000
1000
0000
0001
0100
0000
0000
0010
1000
0010
,
1000
0000
0000
0001
0010
0001
0010
0000
0000
0100
1000
0100
,
1000
0000
0000
0001
0100
0001
0100
0000
0000
0010
0000
1000
,
0001
0000
0010
0100
1000
0100
0010
0000
,
1100
0000
0000
0011
0000
0000
0100
0010
,
0000
1000
0001
0010
0000
0100
0010
0001
,
2000
0000
0100
0000
0001
0000
3010
1000
,
0000
0001
0100
0001
1000
0001
0010
0200
,
0000
0000
0000
0000
,
0000
0000
0000
0000
,
0020
0000
0000
0000
,
0000
0000
0000
0000
0000
0000
0000
0330
;

//---------------dance-single - Telperion----------------
#NOTES:
     dance-single:
     Telperion:
     Hard:
     17:
     0.745175,0.917786,0.233675,0.316592,0.410815,692.000000,661.000000,31.000000,42.000000,36.000000,0.000000,0.745175,0.917786,0.233675,0.316592,0.410815,692.000000,661.000000,31.000000,42.000000,36.000000,0.000000:
// measure 0
0000
0000
0000
0000
,  // measure 1
0000
0000
0000
0000
,  // measure 2
0000
0000
0000
0000
,  // measure 3
0000
0000
0000
0000
,  // measure 4
2001
0000
0100
0000
,  // measure 5
3020
0000
0130
0001
,  // measure 6
0102
0000
1000
0000
,  // measure 7
0023
0000
0130
1000
,  // measure 8
2100
0000
3010
1000
,  // measure 9
0001
0010
1000
0010
,  // measure 10
0100
0000
1000
0001
0000
0200
0000
0000
,  // measure 11
0310
0000
1000
0000
0001
0000
0000
0010
0100
0010
0001
0000
1000
0000
0010
0100
,  // measure 12
0010
1000
0100
0001
1000
0010
0001
1000
,  // measure 13
0010
0100
1000
0100
0010
1000
0001
0000
,  // measure 14
0010
0001
0100
1000
0001
0010
1000
0001
,  // measure 15
0010
0100
0001
0100
0010
0001
1000
0000
,  // measure 16
0010
1000
0001
0010
0000
0100
1000
0010
,  // measure 17
0100
0000
0001
1000
0001
1000
0010
1000
0100
0010
0100
0010
0001
1000
0001
1000
,  // measure 18
0020
0100
2030
0010
,  // measure 19
3002
1000
0023
0001
,  // measure 20
0230
0010
2300
0100
,  // measure 21
3002
1000
0203
0001
,  // measure 22
0310
0100
0001
0010
0000
0100
1000
0100
,  // measure 23
0001
1000
0010
0001
0000
0100
1000
0100
,  // measure 24
0010
1000
0001
0010
0100
1000
0001
0100
,  // measure 25
0010
0000
0010
0000
0010
0000
0000
1000
0001
1000
0100
0010
0001
0010
0100
1000
,  // measure 26
0001
0001
0000
0100
0010
0010
0000
0100
,  // measure 27
0001
1000
0000
0100
0010
0010
0000
0100
,  // measure 28
1000
1000
0001
0100
0010
0000
0100
0001
,  // measure 29
1000
0100
0001
0100
1000
0000
0001
0100
,  // measure 30
0010
1000
0000
1000
0001
1000
0000
0100
,  // measure 31
0010
0001
0000
0001
1000
0001
0000
0100
,  // measure 32
0010
0000
1000
0100
1000
0000
0001
0010
0001
0000
1000
0010
1000
0000
0200
0000
,  // measure 33
0000
0000
0310
0000
0001
0000
0010
0000
0100
1000
0001
1000
0010
0000
0100
0000
,  // measure 34
0001
0000
1000
0010
1000
0000
0001
0100
0001
0000
1000
0100
1000
0000
0010
0000
,  // measure 35
0000
0000
0000
0000
0000
0200
0000
0000
,  // measure 36
0301
0000
0000
0000
1000
0000
0000
0001
0010
0000
0100
0000
1000
0000
1010
0000
,  // measure 37
0000
0000
0010
0000
0100
0000
0001
1000
0001
0000
0100
0000
0010
0000
0000
0000
,  // measure 38
1000
0001
0010
0100
0000
0011
0000
2100
,  // measure 39
0000
3010
1000
0001
0000
0102
0000
0000
,  // measure 40
1003
0000
0000
0000
0001
0000
0000
1000
0010
0000
0100
0000
0001
0000
0010
0000
,  // measure 41
0100
0001
0100
1000
0000
0001
0100
0000
,  // measure 42
0010
1000
0010
0100
0000
1000
0100
0001
,  // measure 43
0010
0000
0010
0000
0010
0000
0000
0100
1000
0100
0010
0000
0001
0000
1000
0010
,  // measure 44
2000
0000
0000
0000
0001
0000
0000
0000
3100
0010
0100
1000
0001
0000
0100
0000
,  // measure 45
0010
0000
0000
0000
0100
0000
0001
0000
0010
0100
1000
0100
0010
0000
0001
0000
,  // measure 46
0102
0000
0000
0000
1000
0000
0000
0000
0103
0010
0100
0010
1000
0000
0001
0000
,  // measure 47
0010
0000
0000
0000
0100
0000
1000
0000
0001
1000
0100
0010
0001
0000
0100
0000
,  // measure 48
0120
0000
1000
0000
0130
0010
1000
0001
,  // measure 49
0021
0000
0130
0010
0001
1000
0010
0100
,  // measure 50
0001
1000
0001
0000
1000
0100
1000
0000
0100
0010
0100
0010
0001
1000
0001
0100
,  // measure 51
0010
0100
0010
0100
0000
0000
0000
0000
,  // measure 52
1001
1000
0100
0010
0001
0100
0001
1000
,  // measure 53
0100
0000
0020
1000
0000
0130
0010
0100
,  // measure 54
1000
0001
0100
0010
1000
0001
0010
0100
,  // measure 55
1000
0000
0020
0100
0000
1030
0010
0100
,  // measure 56
0001
1000
0100
0001
1000
0010
0100
0010
,  // measure 57
0001
0000
0200
1000
0000
0310
0100
0010
,  // measure 58
1000
0001
0100
1000
0001
0010
0100
0010
,  // measure 59
1000
0000
0000
0000
0001
0000
0000
0000
1000
0000
0001
0100
0001
0000
1000
0100
,  // measure 60
0010
0000
0001
0000
1000
0010
0100
0010
1000
0000
0001
0000
0010
0000
0100
0000
,  // measure 61
0000
0000
0011
0000
0000
0000
2100
0000
0000
0000
3001
0100
0010
0000
0000
0000
,  // measure 62
1010
0000
0000
1000
0100
0010
0001
0000
1000
0010
0100
1000
,  // measure 63
0001
0010
0100
0001
1000
0100
0010
1000
0001
0100
0010
0001
,  // measure 64
1000
0000
0000
0000
0001
0000
0000
1000
0100
0000
0010
0000
0001
0000
1000
0000
,  // measure 65
0010
0000
0000
0000
1000
0000
0000
0001
0100
0000
0010
0000
1000
0000
0001
0000
,  // measure 66
0010
0100
0001
0100
1000
0100
0001
0100
,  // measure 67
0010
0000
0001
1000
0001
0000
0010
0100
0010
0001
1000
0001
0100
0010
0100
0000
,  // measure 68
0000
0000
0000
0000
,  // measure 69
0000
0000
0000
0000
,  // measure 70
MMMM
0000
0M00
0000
00M0
000M
0000
M000
,  // measure 71
0000
00M0
M000
0M00
,  // measure 72
00M0
0000
000M
00M0
0000
M000
0000
00M0
,  // measure 73
0000
0000
0M00
0000
0000
000M
00M0
0M00
,  // measure 74
M000
0000
0M00
00M0
0000
M000
0000
000M
,  // measure 75
0000
0M00
000M
00M0
,  // measure 76
0M00
0000
0000
0000
M000
0000
0M00
00M0
,  // measure 77
000M
0M00
00M0
0M00
,  // measure 78
1002
0000
0000
0000
0103
0000
0001
1000
,  // measure 79
1200
0000
0000
0000
0310
0100
1000
0001
,  // measure 80
0201
0000
0310
0100
0001
1000
0100
0010
,  // measure 81
0011
0001
1000
0010
0100
0001
0100
0010
,  // measure 82
2010
0000
0001
0000
3100
0010
0001
0100
,  // measure 83
0010
0000
0200
1000
0000
0301
0100
0010
,  // measure 84
1000
0001
1000
0000
0001
0100
0001
0000
0100
0010
0100
0010
1000
0001
1000
0100
,  // measure 85
0010
0100
0010
0100
0000
1002
0000
0000
,  // measure 86
0013
0000
0000
0000
0100
0010
0001
0000
1000
0000
0010
0000
0100
0000
2000
0000
,  // measure 87
0000
0000
3100
0010
0100
0000
0001
0000
0010
0000
1000
0000
0001
0000
0100
0000
,  // measure 88
0020
0000
0000
0000
0031
0000
1000
0010
0100
0000
0001
1000
0000
0001
0100
0000
,  // measure 89
0020
0000
0000
0000
1030
0000
0001
1000
0100
0000
0010
0100
0000
1000
0010
1000
,  // measure 90
0002
0000
0000
0000
0103
0000
0000
0001
1000
0000
0100
0000
0010
0000
0001
0000
,  // measure 91
1000
0000
0010
0100
0010
0000
0000
0000
0100
0000
0102
0000
0000
0000
1003
0100
,  // measure 92
2000
0000
0000
0000
3001
0000
1000
0010
0100
0000
0010
0000
1000
0000
0100
0000
,  // measure 93
1100
0000
0001
0100
0001
0100
0010
0000
0000
0000
1001
0000
0100
0000
0010
0000
,  // measure 94
1001
0000
0000
1000
0100
0010
0001
0000
0000
0001
0100
0001
,  // measure 95
1000
0000
0000
0001
0010
0100
1000
0001
0100
0001
1000
0100
,  // measure 96
0010
0000
0000
0001
0100
0010
1000
0000
0000
1000
0100
1000
,  // measure 97
0001
0000
0000
0000
0000
0000
1000
0000
0010
0000
0100
0000
1000
0000
0000
0100
0000
0000
0001
0000
0000
1000
0000
0000
,  // measure 98
1100
0100
0010
0011
0000
0001
0100
0110
,  // measure 99
0000
0010
1000
1001
0000
0001
0010
0100
,  // measure 100
1200
0000
0000
0000
0010
0000
1300
0001
0200
0000
0000
0000
0310
0000
0110
0000
,  // measure 101
0000
0000
0001
0100
0001
0000
1000
0100
0010
0001
1000
0000
0010
0000
0210
0000
,  // measure 102
0000
0000
0301
0000
0100
0001
0100
0000
,  // measure 103
0001
1000
0100
0000
0010
0100
0010
0001
,  // measure 104
2000
0000
0001
0000
3100
1000
0100
0000
,  // measure 105
0010
0100
1000
0001
0100
0001
1000
0010
;
