#TITLE:luv future;
#SUBTITLE:;
#ARTIST:aran;
#TITLETRANSLIT:;
#SUBTITLETRANSLIT:;
#ARTISTTRANSLIT:;
#GENRE:;
#CREDIT:;
#BANNER:luv future.png;
#BACKGROUND:luv future-bg.png;
#LYRICSPATH:;
#CDTITLE:;
#MUSIC:luv future.ogg;
#OFFSET:-0.034000;
#SAMPLESTART:52.510670;
#SAMPLELENGTH:15.000000;
#SELECTABLE:YES;
#DISPLAYBPM:128.000000;
#BPMS:0.000000=128.000000
,111.000000=256.000000
,111.500000=128.000000
,111.750000=64.000000
,112.000000=256.000000
,112.500000=128.000000
,112.750000=64.000000
,113.000000=256.000000
,113.500000=128.000000
,113.750000=64.000000
,114.250000=128.000000
,114.500000=256.000000
,115.000000=128.000000
;
#STOPS:
;
#BGCHANGES:;
#KEYSOUNDS:;
#ATTACKS:;

//---------------dance-single - ----------------
#NOTES:
     dance-single:
     :
     Hard:
     10:
     0.355885,0.463363,0.215904,0.531456,0.033216,300.000000,274.000000,26.000000,64.000000,0.000000,0.000000,0.355885,0.463363,0.215904,0.531456,0.033216,300.000000,274.000000,26.000000,64.000000,0.000000,0.000000:
0000
0000
0000
0000
,
0000
0000
0000
0000
,
0000
0000
0000
0000
,
0000
0000
0000
0000
,
2000
0100
0001
0100
,
3002
0013
2000
3100
,
0002
0100
1000
0010
,
2003
3010
0002
0103
,
0010
0101
1000
0110
,
0001
1010
0100
1001
,
0001
0000
1000
0000
0100
0010
0100
0000
,
0200
0001
2000
3300
,
0001
0000
0100
0001
0200
0000
0300
0000
,
0001
0000
0100
0000
0010
0000
0100
0001
0000
0000
0001
0000
0000
0000
1000
0000
,
0200
0000
0310
0100
0020
0000
0030
0000
,
0100
0000
1000
0000
0100
0000
0010
0001
0000
0000
0010
0000
0100
0000
1000
0000
,
0001
0000
1000
0000
2002
0000
3003
0001
,
0010
0000
1000
0000
0010
0000
0001
1000
0000
0000
0100
0000
0000
0000
1000
0000
,
0020
0000
0230
0000
0302
0000
0003
0100
,
0001
0000
1000
0000
0001
0000
0010
0200
0000
0000
0000
0000
0000
0000
0000
0000
,
0310
0010
0001
0001
,
2000
3000
0000
0000
0000
0000
2000
3000
0000
0000
0000
0000
0200
0300
0000
0000
0000
0000
0200
0300
0000
0000
0000
0000
,
2000
3000
0000
2000
3000
0000
0020
0030
0000
0020
0030
0000
,
0200
0300
0200
0300
0002
0003
0002
0003
,
0010
0001
0010
0001
1000
0100
1000
0100
,
1000
0010
1000
0010
0100
0001
0100
0001
,
0100
0010
1000
0100
0010
0001
0100
0010
,
1000
1010
0202
0300
,
1000
1000
2000
3003
,
0100
0001
0010
0000
0001
1000
0100
1000
,
0001
0000
0110
0000
1001
0000
0000
0001
,
0100
0010
1000
0000
0100
0010
0001
0000
,
1010
0000
0011
0000
0101
0000
0000
1000
,
0100
1000
0010
0000
1000
0001
0100
0010
,
0100
0000
1001
0000
0110
0000
0000
0100
,
0002
0103
2000
3100
,
2001
0100
0001
3000
,
0001
0010
0100
0000
0100
0010
0001
1000
,
1002
0100
1000
0003
,
1000
0001
0010
0000
0001
1000
0100
0010
,
0210
1000
0001
0300
,
1000
0001
0010
0000
0001
1000
0010
0100
,
0010
0110
2002
0003
,
0000
0001
0000
3001
,
0002
0023
0002
0033
,
1000
0100
1000
0000
0001
0010
0001
0000
,
2000
0000
3020
0000
2000
0000
3030
0010
,
0100
0001
1000
0000
0100
1000
0001
1000
,
0002
0023
0200
0330
,
1000
0100
0010
0000
0010
0100
1000
0001
,
2000
0000
3020
0000
0200
0000
0330
0010
,
1000
0001
0000
0000
0010
0000
0010
0000
,
0002
2003
0020
3030
,
1000
0010
0001
0000
0001
0010
1000
0001
,
2000
3002
0020
0033
,
0001
0010
1000
0000
1000
0010
0001
1000
,
0020
0000
0000
0000
0000
0000
0130
0000
0000
0000
0000
0000
2002
0000
0000
0000
0000
0000
3003
0000
0000
0001
0000
1000
,
0100
1000
0010
0000
0100
0001
1000
0001
,
0010
0000
0000
0000
0000
0000
1001
0000
0000
0000
0000
0000
0220
0000
0000
0000
0000
0000
0330
0000
0000
1000
0000
0001
,
0010
0000
0100
0000
0000
1100
0000
0000
0110
0000
0000
0011
0000
0000
0001
0000
,
2002
0000
0000
0000
,
0000
0000
0000
0000
,
3003
0000
0000
0000
;

//---------------dance-single - ----------------
#NOTES:
     dance-single:
     :
     Medium:
     7:
     0.271659,0.360393,0.124560,0.190992,0.004152,229.000000,214.000000,15.000000,23.000000,0.000000,0.000000,0.271659,0.360393,0.124560,0.190992,0.004152,229.000000,214.000000,15.000000,23.000000,0.000000,0.000000:
0000
0000
0000
0000
,
0000
0000
0000
0000
,
0000
0000
0000
0000
,
0000
0000
0000
0000
,
1000
0100
0000
0100
,
1000
0001
0000
0001
,
1000
0010
0000
0010
,
1000
0001
2000
3000
,
0001
0100
0000
0100
,
0001
1000
0000
1000
,
0001
0010
0000
0010
,
0001
1000
2002
3003
,
1000
0100
0020
0030
,
0100
1000
0001
0100
,
0001
0010
0200
0300
,
1000
1000
0001
0001
,
0100
0010
0220
0330
,
0100
0000
0001
1000
0001
0000
0000
0000
,
0101
1100
0101
0000
,
0001
0000
0100
0000
0001
0000
1000
0010
0000
0000
0000
0000
0000
0000
0000
0000
,
2000
3000
1000
0010
,
0002
0003
0001
0010
,
2000
3000
1000
0100
,
0002
0003
0001
0100
,
1000
1000
0001
0001
,
0010
0010
0100
0100
,
1000
0001
1000
0001
,
0100
0010
0010
1002
,
1000
1000
1000
0003
,
1000
0100
0100
1000
,
0001
0001
0001
0000
,
1000
0100
0001
0100
,
1000
0010
0100
0000
,
0010
1000
0001
0010
,
0100
1000
0001
0000
,
0100
0000
0010
0000
0100
0010
0100
0000
,
0001
0001
0001
0000
,
0001
0100
0100
0001
,
1000
1000
1000
0000
,
0001
0010
1000
0010
,
0001
1000
0100
0000
,
0100
1000
0001
0100
,
0010
1000
0001
2000
,
0000
0001
0000
3001
,
1000
0000
0100
1000
0200
0000
0300
0000
,
1000
0100
0010
0010
,
0001
0000
0100
0001
0200
0000
0300
0000
,
0001
0100
0010
0000
1000
0100
0010
0000
,
0100
0110
2002
3003
,
1000
0001
0100
0000
0001
1000
0100
0010
,
0100
0000
0011
0000
1100
0000
0000
1000
,
0100
0010
0001
0000
0100
0010
1000
0000
,
0001
0000
0010
0001
0020
0000
0030
0000
,
0001
0010
0100
0100
,
1000
0000
0010
1000
0020
0000
0030
0000
,
1000
0010
0100
0000
0001
0010
0100
0000
,
0010
0110
2002
3003
,
1000
0001
0010
0000
0001
1000
0010
0100
,
0010
0000
1010
0000
0101
0000
0000
0001
,
0100
0010
1000
0000
0100
0010
0001
0000
,
2002
0000
0000
0000
,
0000
0000
0000
0000
,
3003
0000
0000
0000
;

//---------------dance-single - ----------------
#NOTES:
     dance-single:
     :
     Easy:
     5:
     0.189806,0.308909,0.033216,0.107952,0.000000,160.000000,156.000000,4.000000,13.000000,0.000000,0.000000,0.189806,0.308909,0.033216,0.107952,0.000000,160.000000,156.000000,4.000000,13.000000,0.000000,0.000000:
0000
0000
0000
0000
,
0000
0000
0000
0000
,
0000
0000
0000
0000
,
0000
0000
0000
0000
,
1000
0000
1000
0000
,
0100
0000
0100
0000
,
0001
0000
0001
0000
,
0100
0000
0100
0000
,
1000
0000
0100
0000
,
0001
0000
0100
0000
,
1000
0000
0001
0000
,
1000
0010
0020
0030
,
1000
0001
1000
0000
,
0100
0000
0010
0000
,
0001
1000
0001
0000
,
0100
0000
0010
0000
,
1000
1000
0001
0000
,
0100
0010
0100
0000
,
0001
0001
1000
0000
,
0100
0010
0002
0000
,
2003
3000
2000
3000
,
0001
1000
0100
1000
,
0002
0003
0002
0003
,
1000
0001
0100
0001
,
0010
0010
0010
0000
,
0100
0100
0100
0000
,
1000
0001
1000
0001
,
1000
0010
0020
0030
,
1000
1000
2000
3000
,
0100
0000
0010
0000
,
0001
0001
0001
0000
,
0100
0000
0010
0000
,
1000
0001
1000
0000
,
0001
0100
0010
1000
,
0010
0100
0001
0000
,
1000
0200
0300
0200
,
1300
0001
0001
0000
,
0010
0000
0100
0010
,
0001
1000
1000
0000
,
0010
0000
0100
0010
,
1000
0001
1000
0000
,
0100
0000
0100
0010
,
0001
1000
0001
2000
,
0000
0001
0000
3001
,
1000
0100
1000
0000
,
0100
0000
0010
0000
,
0001
0010
0001
0000
,
0010
0000
0100
0000
,
1000
0001
1000
0000
,
0001
0000
0100
0010
,
0100
0010
0100
0000
,
0001
0000
1000
0000
,
0001
0100
0001
0000
,
0100
0000
0010
0000
,
1000
0010
1000
0000
,
0010
0000
0100
0000
,
0001
1000
0001
0000
,
1000
0000
0100
0010
,
0100
0010
0100
0000
,
1000
1100
0101
0011
,
2002
0000
0000
0000
,
0000
0000
0000
0000
,
3003
0000
0000
0000
;

//---------------dance-single - ----------------
#NOTES:
     dance-single:
     :
     Beginner:
     2:
     0.124560,0.174384,0.008304,0.000000,0.000000,105.000000,104.000000,1.000000,0.000000,0.000000,0.000000,0.124560,0.174384,0.008304,0.000000,0.000000,105.000000,104.000000,1.000000,0.000000,0.000000,0.000000:
// measure 0
0000
0000
0000
0000
,  // measure 1
0000
0000
0000
0000
,  // measure 2
0000
0000
0000
0000
,  // measure 3
0000
0000
0000
0000
,  // measure 4
1000
0000
0000
0000
,  // measure 5
1000
0000
0000
0000
,  // measure 6
0001
0000
0000
0000
,  // measure 7
0001
0000
0000
0000
,  // measure 8
1000
0000
0000
0000
,  // measure 9
0001
0000
0000
0000
,  // measure 10
1000
0000
0001
0000
,  // measure 11
0001
0010
0010
0000
,  // measure 12
0001
0000
0000
0000
,  // measure 13
0100
0000
0000
0000
,  // measure 14
0010
0000
0000
0000
,  // measure 15
1000
0000
0000
0000
,  // measure 16
1000
0000
0000
0000
,  // measure 17
0100
0000
0000
0000
,  // measure 18
0010
0000
0000
0000
,  // measure 19
0001
0000
0000
0000
,  // measure 20
1000
0000
0100
0000
,  // measure 21
1000
0000
0000
0000
,  // measure 22
0001
0000
0100
0000
,  // measure 23
0001
0000
0000
0000
,  // measure 24
1000
0000
1000
0000
,  // measure 25
0001
0000
0001
0000
,  // measure 26
1000
0000
0001
0000
,  // measure 27
0100
0010
0010
0000
,  // measure 28
1000
1000
1000
0000
,  // measure 29
0100
0000
0000
0000
,  // measure 30
1000
1000
1000
0000
,  // measure 31
0001
0000
0000
0000
,  // measure 32
1000
1000
1000
0000
,  // measure 33
0010
0000
0000
0000
,  // measure 34
1000
0000
0001
0000
,  // measure 35
0001
0000
1000
0000
,  // measure 36
0001
0001
0001
0000
,  // measure 37
0010
0000
0000
0000
,  // measure 38
0001
0001
0001
0000
,  // measure 39
1000
0000
0000
0000
,  // measure 40
0001
0001
0001
0000
,  // measure 41
0100
0000
0000
0000
,  // measure 42
0001
0000
1000
1000
,  // measure 43
0000
0000
0000
0000
,  // measure 44
0001
0001
0001
0000
,  // measure 45
0100
0000
0010
0000
,  // measure 46
1000
1000
1000
0000
,  // measure 47
0100
0000
0010
0000
,  // measure 48
0001
1000
0001
0000
,  // measure 49
1000
0000
0100
0100
,  // measure 50
0100
0000
0010
0000
,  // measure 51
0010
0000
0100
0000
,  // measure 52
1000
1000
1000
0000
,  // measure 53
0010
0000
0100
0000
,  // measure 54
0001
0001
0001
0000
,  // measure 55
0010
0000
0100
0000
,  // measure 56
1000
0001
1000
0000
,  // measure 57
0001
0000
0100
0100
,  // measure 58
0100
0000
0000
0000
,  // measure 59
0010
0000
0000
0000
,  // measure 60
1001
0000
0000
0000
;
