#VERSION:0.83;
#TITLE:istanbul;
#SUBTITLE:;
#ARTIST:REVen-G;
#TITLETRANSLIT:;
#SUBTITLETRANSLIT:;
#ARTISTTRANSLIT:;
#GENRE:;
#ORIGIN:;
#CREDIT:;
#BANNER:banner.png;
#BACKGROUND:background.png;
#PREVIEWVID:;
#JACKET:jacket.png;
#CDIMAGE:;
#DISCIMAGE:;
#LYRICSPATH:;
#CDTITLE:;
#MUSIC:istanbul.ogg;
#OFFSET:-0.033000;
#SAMPLESTART:32.033001;
#SAMPLELENGTH:16.000000;
#SELECTABLE:YES;
#BPMS:0.000=240.000;
#STOPS:;
#DELAYS:;
#WARPS:;
#TIMESIGNATURES:0.000=4=4;
#TICKCOUNTS:0.000=4;
#COMBOS:0.000=1;
#SPEEDS:0.000=1.000=0.000=0;
#SCROLLS:0.000=1.000;
#FAKES:;
#LABELS:0.000=Song Start;
#BGCHANGES:;
#KEYSOUNDS:;
#ATTACKS:
;

//---------------dance-single - ----------------
#NOTEDATA:;
#CHARTNAME:;
#STEPSTYPE:dance-single;
#DESCRIPTION:;
#CHARTSTYLE:;
#DIFFICULTY:Hard;
#METER:16;
#RADARVALUES:0.846404,0.869038,0.267850,0.000000,0.005357,553.000000,528.000000,25.000000,0.000000,0.000000,0.000000,0.000000,0.000000,0.000000,0.846404,0.869038,0.267850,0.000000,0.005357,553.000000,528.000000,25.000000,0.000000,0.000000,0.000000,0.000000,0.000000,0.000000;
#CREDIT:Pandemonium X;
#NOTES:
// measure 0
0000
0000
0000
0000
,  // measure 1
0000
0000
0000
0000
,  // measure 2
0000
0000
0000
0000
,  // measure 3
0000
0000
0000
0000
,  // measure 4
0000
0000
0000
0000
,  // measure 5
0000
0000
0000
0000
,  // measure 6
1001
0000
0000
0000
,  // measure 7
0000
0000
0000
0000
,  // measure 8
0001
0100
1000
0100
0010
1000
0001
0010
,  // measure 9
0100
0000
1000
0100
0000
0100
0001
0000
,  // measure 10
1000
0010
0001
0010
0100
0001
1000
0100
,  // measure 11
0010
0000
0001
0010
0000
0010
1000
0000
,  // measure 12
0001
0100
1000
0100
0010
1000
0001
0010
,  // measure 13
0100
0000
1000
0100
0000
0100
0001
0000
,  // measure 14
1000
0010
0001
0010
0100
0001
1000
0100
,  // measure 15
0010
0000
0001
0010
0000
0100
1000
0000
,  // measure 16
0001
0100
1000
0100
0010
1000
0001
0010
,  // measure 17
0100
0000
1000
1000
0000
0001
0001
0000
,  // measure 18
1000
0100
0001
0100
0010
0001
0100
1000
,  // measure 19
0100
0000
0001
0001
0000
1000
1000
0000
,  // measure 20
1000
0010
0001
0010
0100
0001
0010
0100
,  // measure 21
1000
0000
0010
0010
0000
0100
0100
0000
,  // measure 22
0001
0010
1000
0010
0100
1000
0010
0100
,  // measure 23
0001
0000
0100
0100
0000
0010
0010
0000
,  // measure 24
1000
0100
0001
0100
1000
0010
0001
0010
,  // measure 25
0100
0001
0000
0010
0100
0000
1000
0000
,  // measure 26
0001
0010
1000
0010
0001
0100
1000
0100
,  // measure 27
0010
1000
0000
0001
0010
0000
0100
0000
,  // measure 28
1000
0100
0001
0100
1000
0010
0001
0010
,  // measure 29
1000
0010
0000
0100
0001
0000
0010
0000
,  // measure 30
0100
1000
0100
0001
0100
0010
0001
1000
,  // measure 31
0010
0000
0100
0001
0000
0010
0100
0000
,  // measure 32
1000
0100
0001
0100
1000
0001
0100
0010
,  // measure 33
0100
0001
0100
1000
0001
0100
1000
0100
,  // measure 34
0001
1000
0010
0100
0010
1000
0010
0001
,  // measure 35
1000
0100
0001
0100
1000
0000
1001
0000
,  // measure 36
0100
1000
0100
0001
0100
0010
1000
0100
,  // measure 37
0001
0010
1000
0001
0010
1000
0010
0001
,  // measure 38
0010
0100
1000
0010
0001
0100
1000
0001
,  // measure 39
0010
1000
0010
0001
0010
0100
1000
0010
,  // measure 40
0001
0100
1000
0001
0100
1000
0100
0001
,  // measure 41
0100
0010
1000
0100
0001
1000
0010
0000
,  // measure 42
1010
0000
1000
0100
0001
0100
0010
0001
,  // measure 43
0100
1000
0100
0010
1000
0001
0010
0100
,  // measure 44
1000
0000
0001
0100
1000
0010
0001
0010
,  // measure 45
1000
0100
0001
0100
0010
0001
0010
1000
,  // measure 46
0100
1000
0010
0001
0010
0100
0001
1000
,  // measure 47
0100
0010
0110
0000
0001
1000
1001
0000
,  // measure 48
0001
0000
1010
0000
0000
0000
1000
0010
,  // measure 49
0001
1000
0100
0010
1000
0100
0010
0000
,  // measure 50
0001
0000
0000
0000
1000
0100
0001
0100
,  // measure 51
0010
0010
0100
0000
1100
0000
0000
1000
,  // measure 52
0100
0000
0101
0000
0000
0000
0001
0100
,  // measure 53
0010
0001
0100
1000
0100
0010
0001
0010
,  // measure 54
1000
0100
0010
0000
0000
0100
0010
1000
,  // measure 55
0001
0010
0100
1000
0001
0010
0100
1000
,  // measure 56
0001
0000
1001
0000
0000
0000
0001
0100
,  // measure 57
1000
0001
0010
0100
0001
0010
0100
0000
,  // measure 58
1000
0000
0000
0000
0001
0010
1000
0010
,  // measure 59
0100
0100
0010
0000
1010
0000
0000
1000
,  // measure 60
0100
0000
0110
0000
0000
0100
0010
0001
,  // measure 61
0100
1000
0100
0010
0001
0010
1000
0100
,  // measure 62
0010
0000
0100
0000
0000
0010
0001
1000
,  // measure 63
0100
1000
0000
0000
0101
0000
0000
0000
,  // measure 64
0001
0100
1000
0100
0001
0100
1000
0100
,  // measure 65
0001
0100
1000
0100
0001
0100
1000
0100
,  // measure 66
0000
0010
0010
1000
0010
0010
1000
0010
,  // measure 67
1000
1000
0010
1000
0010
0010
1000
0001
,  // measure 68
0010
0100
0010
0100
1000
0001
1000
0001
,  // measure 69
0100
0010
0100
0010
1000
0001
1000
0001
,  // measure 70
0010
0100
1000
0100
0001
0100
0010
0001
,  // measure 71
0010
0000
0100
1000
0000
1000
1001
0000
,  // measure 72
0001
0100
1000
0010
0001
0010
1000
0100
,  // measure 73
0010
0000
0100
1000
0000
0001
1001
0000
,  // measure 74
0001
0010
1000
0010
0100
0010
0001
0100
,  // measure 75
1000
0000
0100
0010
0000
1000
1001
0000
,  // measure 76
0001
0010
1000
0100
1000
0010
0001
0010
,  // measure 77
1000
0010
0100
0001
1000
0001
1001
0000
,  // measure 78
1000
0100
0001
0010
1000
0010
0001
0100
,  // measure 79
0010
0000
0100
0010
0000
1000
1001
0000
,  // measure 80
0001
0010
1000
0100
0001
0100
0010
0100
,  // measure 81
1100
0011
1100
0011
,  // measure 82
1001
0010
1001
0100
,  // measure 83
1001
0000
0010
0000
1001
0000
0001
0010
,  // measure 84
1000
0000
0010
0000
0001
0100
1000
0010
,  // measure 85
0001
0010
1000
0100
0001
0100
1000
0010
,  // measure 86
0100
0000
0000
0000
,  // measure 87
0000
0000
0000
0000
,  // measure 88
0000
0000
0000
0000
,  // measure 89
0001
0100
1000
0010
0001
1000
0100
0010
,  // measure 90
0001
1000
0001
0000
0000
0000
0000
0000
0000
0000
0000
0000
0000
0000
0000
0000
;

//---------------dance-single - ----------------
#NOTEDATA:;
#CHARTNAME:;
#STEPSTYPE:dance-single;
#DESCRIPTION:;
#CHARTSTYLE:;
#DIFFICULTY:Medium;
#METER:13;
#RADARVALUES:0.626002,0.771407,0.149996,0.000000,0.000000,409.000000,395.000000,14.000000,0.000000,0.000000,0.000000,0.000000,0.000000,0.000000,0.626002,0.771407,0.149996,0.000000,0.000000,409.000000,395.000000,14.000000,0.000000,0.000000,0.000000,0.000000,0.000000,0.000000;
#CREDIT:Pandemonium X;
#NOTES:
// measure 0
0000
0000
0000
0000
,  // measure 1
0000
0000
0000
0000
,  // measure 2
0000
0000
0000
0000
,  // measure 3
0000
0000
0000
0000
,  // measure 4
0000
0000
0000
0000
,  // measure 5
0000
0000
0000
0000
,  // measure 6
0110
0000
0000
0000
,  // measure 7
0000
0000
0000
0000
,  // measure 8
0100
0001
0010
1000
,  // measure 9
0010
0000
0001
0010
0000
0100
1000
0000
,  // measure 10
0001
0100
1000
0100
,  // measure 11
0010
0000
1000
0100
0000
0100
0010
0000
,  // measure 12
0001
0100
1000
0100
,  // measure 13
0010
0000
1000
0010
0000
0010
0100
0000
,  // measure 14
0010
1000
0100
0001
,  // measure 15
0100
0000
0010
0001
0000
0010
0100
0000
,  // measure 16
0010
0001
0010
0000
1000
0100
1000
0000
,  // measure 17
0001
0000
1000
0010
0000
0100
0010
0000
,  // measure 18
1000
0010
1000
0000
0001
0100
0001
0000
,  // measure 19
1000
0000
0001
0010
0000
0100
0010
0000
,  // measure 20
0100
1000
0100
0000
1000
0010
1000
0000
,  // measure 21
0010
0000
0100
0001
0000
0010
0100
0000
,  // measure 22
0010
0001
0010
0000
0001
0100
0001
0000
,  // measure 23
0100
0000
0010
1000
0000
1000
0100
0000
,  // measure 24
0010
0001
0010
0001
0010
0001
0010
0001
,  // measure 25
1000
0000
0001
0100
0000
0010
1000
0000
,  // measure 26
0100
1000
0100
1000
0100
1000
0100
1000
,  // measure 27
0100
0000
1000
0010
0000
0100
0001
0000
,  // measure 28
1000
0010
1000
0010
1000
0010
1000
0010
,  // measure 29
1000
0000
0001
0100
0000
0001
0010
0000
,  // measure 30
0100
0010
0100
0010
0100
0010
0100
0010
,  // measure 31
0100
0000
1000
0100
0000
0010
0001
0000
,  // measure 32
1000
0100
0001
0010
,  // measure 33
1000
0010
0001
0100
,  // measure 34
1000
0100
0001
0100
,  // measure 35
0010
1000
0100
0010
,  // measure 36
0001
0010
1000
0010
,  // measure 37
0001
0100
1000
0010
,  // measure 38
0001
0010
0100
0010
,  // measure 39
0001
1000
0010
0100
,  // measure 40
0010
1000
0010
0000
1000
0000
0001
0000
,  // measure 41
0010
0000
0100
0010
0000
0100
1000
0000
,  // measure 42
0001
0010
0001
0000
0010
0000
0100
0000
,  // measure 43
1000
0000
0100
0001
0000
0100
0010
0000
,  // measure 44
0100
1000
0100
0000
1000
0000
0010
0000
,  // measure 45
0001
0000
0100
0010
0000
1000
0001
0000
,  // measure 46
0011
0000
0000
0000
0010
0001
0000
1000
,  // measure 47
0100
1000
0010
0000
0100
0001
0010
0000
,  // measure 48
0100
0000
1001
0000
0000
0000
0001
1000
,  // measure 49
0100
1000
0100
0010
,  // measure 50
0100
0000
0000
0000
0000
0010
0001
0100
,  // measure 51
1000
0000
0100
0000
1001
0000
0000
1000
,  // measure 52
0001
0000
0010
0000
0000
0100
0010
0000
,  // measure 53
0100
1000
0100
0010
0001
0010
0100
0010
,  // measure 54
0001
0000
1000
0000
0000
0001
1000
0100
,  // measure 55
0010
0100
0000
0100
1000
0000
0001
0000
,  // measure 56
1000
0000
0011
0000
0000
0000
0001
0010
,  // measure 57
0001
0100
0001
1000
0001
0000
1000
0000
,  // measure 58
1010
0000
0000
0000
1000
0100
1000
0001
,  // measure 59
0100
0001
0010
0000
0100
0000
0000
0000
,  // measure 60
0010
0000
1001
0000
0000
1000
0010
0100
,  // measure 61
0001
0010
0100
0000
0010
0000
0000
0000
,  // measure 62
0100
0000
0010
0000
0000
0001
0010
0001
,  // measure 63
1000
0000
0001
0100
0000
0000
1010
0000
,  // measure 64
1000
0000
0100
0000
0000
0000
0010
0100
,  // measure 65
1000
0001
0100
1000
,  // measure 66
0000
0100
0010
1000
0001
0100
0010
1000
,  // measure 67
0001
0010
0100
0010
0001
1000
0100
0010
,  // measure 68
0001
0001
1000
1000
,  // measure 69
0010
0010
0100
0100
,  // measure 70
0010
1000
0100
0001
,  // measure 71
0100
0000
0010
0001
0000
0010
0100
0000
,  // measure 72
1000
0010
0001
0010
,  // measure 73
0100
0000
0010
1000
0000
0001
0010
0000
,  // measure 74
0100
1000
0100
0001
,  // measure 75
0100
0000
0010
0001
0000
0010
0100
0000
,  // measure 76
0010
0001
0010
1000
,  // measure 77
0100
0000
1000
0010
0000
0100
0001
0000
,  // measure 78
1000
0001
0100
0000
1000
0100
0001
0000
,  // measure 79
0010
0000
0100
1000
0000
0100
0010
0000
,  // measure 80
0100
1000
0010
0000
0100
1000
0001
0000
,  // measure 81
0010
0000
0100
0010
0000
0001
0100
0000
,  // measure 82
0101
1000
0011
0100
,  // measure 83
1001
0100
0010
1000
,  // measure 84
1001
0000
0001
0000
0010
1000
0000
0010
,  // measure 85
0001
1000
0010
0000
,  // measure 86
0110
0000
0000
0000
,  // measure 87
0000
0000
0000
0000
,  // measure 88
0000
0000
0000
0000
,  // measure 89
0100
0010
1000
0001
0010
0100
0010
0001
,  // measure 90
1001
0000
0000
0000
;

//---------------dance-single - ----------------
#NOTEDATA:;
#CHARTNAME:;
#STEPSTYPE:dance-single;
#DESCRIPTION:;
#CHARTSTYLE:;
#DIFFICULTY:Easy;
#METER:9;
#RADARVALUES:0.425498,0.531079,0.160710,0.000000,0.000000,278.000000,263.000000,15.000000,0.000000,0.000000,0.000000,0.000000,0.000000,0.000000,0.425498,0.531079,0.160710,0.000000,0.000000,278.000000,263.000000,15.000000,0.000000,0.000000,0.000000,0.000000,0.000000,0.000000;
#CREDIT:Pandemonium X;
#NOTES:
// measure 0
0000
0000
0000
0000
,  // measure 1
0000
0000
0000
0000
,  // measure 2
0000
0000
0000
0000
,  // measure 3
0000
0000
0000
0000
,  // measure 4
0000
0000
0000
0000
,  // measure 5
0000
0000
0000
0000
,  // measure 6
1001
0000
0000
0000
,  // measure 7
0000
0000
0000
0000
,  // measure 8
1000
0000
0001
0000
,  // measure 9
0010
0000
0000
0010
0000
0000
0010
0000
,  // measure 10
0001
0000
1000
0000
,  // measure 11
0100
0000
0000
0100
0000
0000
0100
0000
,  // measure 12
1001
0000
0010
0000
,  // measure 13
0110
0000
0100
0000
,  // measure 14
1001
0000
0110
0000
,  // measure 15
1001
0000
0000
0000
,  // measure 16
0001
1000
0010
1000
,  // measure 17
0100
0000
0000
0010
0000
0000
0001
0000
,  // measure 18
1000
0010
0001
0010
,  // measure 19
1000
0000
0000
0001
0000
0000
1000
0000
,  // measure 20
0001
0010
0001
1000
,  // measure 21
0100
0000
0000
1000
0000
0000
0001
0000
,  // measure 22
1000
0100
0010
0001
,  // measure 23
0100
0000
0000
0010
0000
0000
1000
0000
,  // measure 24
0100
1000
0010
0001
,  // measure 25
0010
0000
0000
1000
0000
0000
0100
0000
,  // measure 26
0100
0010
1000
0001
,  // measure 27
0010
0000
0000
0010
0000
0000
0100
0000
,  // measure 28
0100
0001
0100
1000
,  // measure 29
0010
0000
0000
1000
0000
0000
0010
0000
,  // measure 30
0100
1000
0100
0001
,  // measure 31
0010
0000
0011
0000
,  // measure 32
0100
1000
0010
0100
,  // measure 33
0001
0010
0100
0010
,  // measure 34
0001
0100
0010
1000
,  // measure 35
0100
0010
0100
1000
,  // measure 36
0001
0100
0001
0010
,  // measure 37
0001
1000
0100
0010
,  // measure 38
0100
1000
0010
0100
,  // measure 39
0001
0010
0100
1000
,  // measure 40
0100
1000
0010
0100
,  // measure 41
0001
0010
0100
0010
,  // measure 42
0001
1000
0010
1000
,  // measure 43
0001
0010
0100
0010
,  // measure 44
0001
0100
0001
1000
,  // measure 45
0100
1000
0001
0100
,  // measure 46
0001
0010
0100
1000
,  // measure 47
0100
1000
0010
0100
,  // measure 48
0001
0000
1000
0000
,  // measure 49
0001
0100
0001
0000
,  // measure 50
1000
0000
0001
0000
,  // measure 51
0010
0100
0010
0000
,  // measure 52
0100
0000
1000
0000
,  // measure 53
0001
0100
0001
0000
,  // measure 54
1000
0000
0010
0000
,  // measure 55
0100
0001
0100
0001
,  // measure 56
0010
0000
0100
0000
,  // measure 57
0010
0001
1000
0000
,  // measure 58
0100
0000
1000
0000
,  // measure 59
0010
0100
0001
0000
,  // measure 60
1000
0000
0001
0000
,  // measure 61
0010
0100
1000
0100
,  // measure 62
0010
0000
0100
0000
,  // measure 63
0010
0001
0010
0100
,  // measure 64
0010
0001
0000
1000
,  // measure 65
0001
0100
0001
0010
,  // measure 66
0000
0100
0100
0100
,  // measure 67
0100
0010
0100
1000
,  // measure 68
0100
0000
0010
0000
,  // measure 69
0001
0000
1000
0000
,  // measure 70
0001
1000
0010
1000
,  // measure 71
0100
0010
0100
1000
,  // measure 72
0001
0100
1000
0100
,  // measure 73
0001
0100
0010
1000
,  // measure 74
0100
0001
0010
1000
,  // measure 75
0010
0001
0100
0010
,  // measure 76
1000
0001
0010
0001
,  // measure 77
0100
1000
0100
0001
,  // measure 78
1000
0010
0001
0010
,  // measure 79
1000
0010
0100
1000
,  // measure 80
0010
0001
0010
1000
,  // measure 81
0010
0100
0001
1000
,  // measure 82
1001
0000
0110
0000
,  // measure 83
1001
0000
0010
0100
,  // measure 84
1001
0000
0110
0000
,  // measure 85
1001
0000
0110
0100
,  // measure 86
1001
0000
0000
0000
,  // measure 87
0000
0000
0000
0000
,  // measure 88
0000
0000
0000
0000
,  // measure 89
1000
0010
0100
0001
,  // measure 90
1000
0100
0000
0000
0000
0000
0000
0000
;

//---------------dance-single - ----------------
#NOTEDATA:;
#CHARTNAME:;
#STEPSTYPE:dance-single;
#DESCRIPTION:;
#CHARTSTYLE:;
#DIFFICULTY:Beginner;
#METER:6;
#RADARVALUES:0.224994,0.482129,0.171424,0.000000,0.000000,147.000000,131.000000,16.000000,0.000000,0.000000,0.000000,0.000000,0.000000,0.000000,0.224994,0.482129,0.171424,0.000000,0.000000,147.000000,131.000000,16.000000,0.000000,0.000000,0.000000,0.000000,0.000000,0.000000;
#CREDIT:Pandemonium X;
#NOTES:
// measure 0
0000
0000
0000
0000
,  // measure 1
0000
0000
0000
0000
,  // measure 2
0000
0000
0000
0000
,  // measure 3
0000
0000
0000
0000
,  // measure 4
0000
0000
0000
0000
,  // measure 5
0000
0000
0000
0000
,  // measure 6
0000
0000
0000
0000
,  // measure 7
0000
0000
0000
0000
,  // measure 8
1000
0000
1000
0000
,  // measure 9
1000
0000
0000
0000
,  // measure 10
0001
0000
0001
0000
,  // measure 11
0001
0000
0000
0000
,  // measure 12
0110
0000
0000
0000
,  // measure 13
0110
0000
0000
0000
,  // measure 14
0110
0000
1001
0000
,  // measure 15
0000
0000
0000
0000
,  // measure 16
0100
0000
0001
0000
,  // measure 17
1000
0000
0000
0000
,  // measure 18
0100
0000
1000
0000
,  // measure 19
0010
0000
0000
0000
,  // measure 20
0100
0000
0001
0000
,  // measure 21
0010
0000
0000
0000
,  // measure 22
0100
0000
1000
0000
,  // measure 23
0010
0000
0000
0000
,  // measure 24
0100
0000
0001
0000
,  // measure 25
1000
0000
1000
0000
,  // measure 26
0001
0000
1000
0000
,  // measure 27
0010
0000
0010
0000
,  // measure 28
1000
0000
0100
0000
,  // measure 29
0010
0000
0010
0000
,  // measure 30
0100
0000
1000
0000
,  // measure 31
0001
0000
0001
0000
,  // measure 32
1001
0000
0001
0000
,  // measure 33
0001
0000
0001
0000
,  // measure 34
1001
0000
1000
0000
,  // measure 35
1000
0000
1000
0000
,  // measure 36
0110
0000
0010
0000
,  // measure 37
0010
0000
0010
0000
,  // measure 38
0110
0000
0100
0000
,  // measure 39
0100
0000
0100
0000
,  // measure 40
0001
0000
0100
0000
,  // measure 41
0001
0000
0100
0000
,  // measure 42
0010
0000
1000
0000
,  // measure 43
0010
0000
1000
0000
,  // measure 44
0100
0000
1000
0000
,  // measure 45
0100
0000
1000
0000
,  // measure 46
0001
0000
0000
0000
,  // measure 47
0100
0000
0001
0000
,  // measure 48
1000
0000
0000
0000
,  // measure 49
0001
0000
0000
0000
,  // measure 50
0100
0000
0000
0000
,  // measure 51
0010
0000
1000
0000
,  // measure 52
0100
0000
0000
0000
,  // measure 53
1000
0000
0000
0000
,  // measure 54
0001
0000
0000
0000
,  // measure 55
1000
0000
0001
0000
,  // measure 56
0100
0000
0000
0000
,  // measure 57
0001
0000
0000
0000
,  // measure 58
0010
0000
0000
0000
,  // measure 59
0100
0000
0010
0000
,  // measure 60
0001
0000
0000
0000
,  // measure 61
1000
0000
0000
0000
,  // measure 62
0001
0000
0000
0000
,  // measure 63
0100
0000
0001
0000
,  // measure 64
1000
0000
0000
0000
,  // measure 65
0001
0000
0000
0000
,  // measure 66
0100
0000
0000
0000
,  // measure 67
0010
0000
0000
0000
,  // measure 68
1000
0000
0010
0000
,  // measure 69
0100
0000
0001
0000
,  // measure 70
1000
0000
0000
0000
,  // measure 71
0001
0000
0000
0000
,  // measure 72
0010
0000
0001
0000
,  // measure 73
0100
0000
0010
0000
,  // measure 74
1000
0000
0001
0000
,  // measure 75
0010
0000
0100
0000
,  // measure 76
1000
0000
0000
0000
,  // measure 77
1001
0000
0110
0000
,  // measure 78
0001
0000
0000
0000
,  // measure 79
1000
0000
0000
0000
,  // measure 80
0100
0000
1000
0000
,  // measure 81
0010
0100
0001
1000
,  // measure 82
0110
0000
1001
0000
,  // measure 83
0110
0000
0000
0100
,  // measure 84
1001
0000
0000
0000
,  // measure 85
1000
0000
0001
0000
,  // measure 86
0110
0000
0000
0000
,  // measure 87
0000
0000
0000
0000
,  // measure 88
0000
0000
0000
0000
,  // measure 89
1000
0001
0100
0010
,  // measure 90
1001
0000
0000
0000
;
