#VERSION:0.83;
#TITLE:chiffon;
#SUBTITLE:;
#ARTIST:Ryu☆;
#TITLETRANSLIT:;
#SUBTITLETRANSLIT:;
#ARTISTTRANSLIT:;
#GENRE:;
#ORIGIN:;
#CREDIT:;
#BANNER:chiffon.png;
#BACKGROUND:chiffon-bg.png;
#PREVIEWVID:;
#JACKET:chiffon-jacket.png;
#CDIMAGE:;
#DISCIMAGE:;
#LYRICSPATH:;
#CDTITLE:;
#MUSIC:chiffon.ogg;
#OFFSET:-0.738000;
#SAMPLESTART:31.479996;
#SAMPLELENGTH:12.000000;
#SELECTABLE:YES;
#BPMS:0.000=125.012;
#STOPS:;
#DELAYS:;
#WARPS:;
#TIMESIGNATURES:0.000=4=4;
#TICKCOUNTS:0.000=4;
#COMBOS:0.000=1;
#SPEEDS:0.000=1.000=0.000=0;
#SCROLLS:0.000=1.000;
#FAKES:;
#LABELS:0.000=Song Start;
#BGCHANGES:;
#KEYSOUNDS:;
#ATTACKS:
;

//---------------dance-single - ----------------
#NOTEDATA:;
#CHARTNAME:;
#STEPSTYPE:dance-single;
#DESCRIPTION:;
#CHARTSTYLE:;
#DIFFICULTY:Easy;
#METER:4;
#RADARVALUES:0.194601,0.243407,0.174642,0.096053,0.000000,156.000000,136.000000,20.000000,11.000000,0.000000,0.000000,0.000000,0.000000,0.000000,0.194601,0.243407,0.174642,0.096053,0.000000,156.000000,136.000000,20.000000,11.000000,0.000000,0.000000,0.000000,0.000000,0.000000;
#CREDIT:;
#NOTES:
0000
0000
0000
0000
,
0000
0000
0000
0000
,
0000
0000
0000
0000
,
0000
0000
0000
0000
,
2000
0000
0000
0000
0000
3000
0000
0020
,
0000
0000
0000
0030
,
0200
0000
0000
0000
0000
0000
0300
0002
,
0000
0000
0000
0003
,
1000
0000
1000
0000
,
0001
0000
0001
0000
,
0010
0000
0010
0000
,
0100
0000
0100
0000
,
0010
0000
0010
0000
,
1000
0000
1000
0000
,
0001
0000
0001
0000
,
2000
3000
1100
0011
,
1000
0100
1000
0000
,
1001
0000
0100
0000
,
0010
1000
0010
0000
,
0110
0000
1000
0100
,
0010
0001
0010
0000
,
1100
0000
0100
0000
,
1000
0010
0100
0000
,
0101
0000
0100
0001
,
0010
0100
1000
0000
,
1100
0000
1000
0000
,
0100
0010
0001
0000
,
1100
0000
0100
1000
,
0010
0100
0001
0000
,
0011
0000
0100
0000
,
1000
0010
0100
0000
,
0110
0000
0020
0230
,
0301
1000
0100
0000
,
0011
0000
0100
0000
,
1000
0001
0100
0000
,
0110
0000
0010
1000
,
0001
0100
0010
0000
,
1100
0000
0001
0000
,
0100
1000
0010
0000
,
1100
0000
0200
0320
,
0031
1000
0100
0000
,
1100
0000
0010
0000
,
0001
0100
0010
0000
,
1100
0000
0100
0010
,
0001
0010
0100
0000
,
1100
0000
0010
0000
,
2000
0001
3100
0000
,
1100
0000
0010
0001
,
0010
0010
0100
0100
,
1000
1000
0001
0001
,
1000
0100
0010
0001
,
0100
0010
1000
0010
,
0100
0001
1000
0001
,
0100
0010
1000
0001
,
2000
0000
0000
3000
,
0000
0000
1001
0110
;

//---------------dance-single - ----------------
#NOTEDATA:;
#CHARTNAME:;
#STEPSTYPE:dance-single;
#DESCRIPTION:;
#CHARTSTYLE:;
#DIFFICULTY:Medium;
#METER:7;
#RADARVALUES:0.264458,0.316429,0.087321,0.244499,0.000000,212.000000,202.000000,10.000000,28.000000,0.000000,0.000000,0.000000,0.000000,0.000000,0.264458,0.316429,0.087321,0.244499,0.000000,212.000000,202.000000,10.000000,28.000000,0.000000,0.000000,0.000000,0.000000,0.000000;
#CREDIT:;
#NOTES:
0000
0000
0000
0000
,
0000
0000
0000
0000
,
0000
0000
0000
0000
,
0000
0000
0000
0000
,
2001
0000
0000
0000
0000
0000
3000
0200
,
0000
0000
0000
0000
0000
0300
0000
0000
,
0020
0000
0000
0000
0000
0000
0030
0002
,
0000
0000
0000
0003
,
1000
0001
1000
0000
,
0001
0000
0100
0000
,
0010
0100
0010
0000
,
0100
0000
0100
0010
,
1000
0100
0010
0000
,
1000
0000
0001
0000
,
0001
0100
0001
0000
,
2000
0000
3000
0000
0001
0001
0001
0000
,
1000
0000
0100
1000
0010
0000
0100
0000
,
0002
0003
0200
0300
,
0010
0000
0100
0010
1000
0000
0100
0000
,
0110
0100
1000
0100
,
0010
0000
0001
1000
0001
0000
1000
0000
,
0002
0003
0200
0300
,
0001
0000
0001
0010
0100
0000
1000
0000
,
0011
0001
0100
0001
,
0010
0000
1000
0100
1000
0000
0100
0000
,
2000
3000
0002
0003
,
1000
0000
1000
0010
0100
0000
0001
0000
,
1010
1000
0001
1000
,
0001
0000
1000
0100
1000
0000
0100
0000
,
2000
3000
0020
0030
,
1000
0000
1000
0001
0010
0000
0100
0000
,
1001
1000
0010
1000
,
0001
0000
1000
0100
1000
0000
0100
0000
,
2000
3000
0020
0030
,
1000
0000
1000
0001
0010
0000
0100
0000
,
1001
1000
0010
1000
,
0010
0000
1000
0100
1000
0000
0100
0000
,
2000
3000
0002
0003
,
1000
0000
1000
0100
1000
0000
0100
0000
,
1010
2000
3002
1003
,
0110
0000
1000
0100
1000
0000
0100
0000
,
2000
3000
0002
0003
,
1000
0000
1000
0100
1000
0000
0100
0000
,
1010
1000
0001
1000
,
0001
0000
0010
0100
0010
0000
0100
0000
,
2000
3000
0002
0003
,
2000
0001
3100
0100
,
2100
0000
0000
0000
3010
0010
0010
0000
,
1000
0100
1000
0000
0010
0100
0010
0000
,
1000
0010
0100
0000
0010
0100
0001
0000
,
1000
0100
0010
0000
0100
1000
0010
0000
,
0100
0001
0010
0000
0001
0100
1000
0000
,
1000
0100
0001
0000
1000
0100
0010
0000
,
0100
0010
0001
0000
0001
0100
0010
0000
,
2000
0001
3001
0000
0002
1000
1003
0000
,
0200
0010
0310
0000
0010
0100
0010
0000
;

//---------------dance-single - ----------------
#NOTEDATA:;
#CHARTNAME:;
#STEPSTYPE:dance-single;
#DESCRIPTION:;
#CHARTSTYLE:;
#DIFFICULTY:Hard;
#METER:10;
#RADARVALUES:0.351779,0.440098,0.052393,0.331820,0.100419,282.000000,276.000000,6.000000,38.000000,0.000000,0.000000,0.000000,0.000000,0.000000,0.351779,0.440098,0.052393,0.331820,0.100419,282.000000,276.000000,6.000000,38.000000,0.000000,0.000000,0.000000,0.000000,0.000000;
#CREDIT:;
#NOTES:
// measure 0
0000
0000
0000
0000
,  // measure 1
0000
0000
0000
0000
,  // measure 2
0000
0000
0000
0000
,  // measure 3
0000
0000
0000
0000
,  // measure 4
2010
0000
0000
0000
0000
0000
3000
0200
,  // measure 5
0000
0000
0000
0000
0000
0300
0000
0000
,  // measure 6
0020
0000
0000
0000
0000
0000
0030
0002
,  // measure 7
0000
0000
0000
0003
,  // measure 8
0100
0010
0100
0010
,  // measure 9
0001
0000
0100
0000
0010
1000
0010
0000
,  // measure 10
1000
0001
1000
0001
,  // measure 11
0100
0000
1000
0000
0100
0010
0100
0000
,  // measure 12
0010
0100
0010
0100
,  // measure 13
1000
0000
0001
0000
0100
0100
0100
0000
,  // measure 14
0001
0010
0100
1000
,  // measure 15
0020
0000
0000
0000
0030
0000
0000
0000
1000
0100
0000
0100
1000
0000
0100
0000
,  // measure 16
0010
0000
0000
0000
0100
0000
1000
0000
0010
0000
0000
0100
0000
0000
0010
0000
,  // measure 17
0100
0002
0000
2003
0000
3100
0010
0001
,  // measure 18
1000
0000
0000
0000
0100
0000
0010
0000
0100
0000
0000
0010
0000
0000
0002
0000
,  // measure 19
0000
0003
1000
0001
1000
0000
0100
0000
,  // measure 20
0100
0000
0000
0000
0010
0000
0001
0000
0100
0000
0000
0010
0000
0000
0100
0000
,  // measure 21
0010
2000
0000
3002
0000
0013
0100
1000
,  // measure 22
0001
0000
0000
0000
0010
0000
0100
0000
0010
0000
0000
0100
0000
0000
2000
0000
,  // measure 23
0000
0100
0010
3001
,  // measure 24
0100
0000
0000
0000
0010
0000
0001
0000
0100
0000
0000
0010
0000
0000
0100
0000
,  // measure 25
0010
2000
0000
3002
0000
0013
0100
1000
,  // measure 26
0001
0000
0000
0000
0010
0000
0100
0000
0010
0000
0000
0100
0000
0000
2000
0000
,  // measure 27
0000
3000
0001
1000
0001
0000
0010
0000
,  // measure 28
0001
0000
0000
0000
0100
0000
1000
0000
0010
0000
0000
0100
0000
0000
0010
0000
,  // measure 29
0100
0002
0000
2003
0000
3100
0010
0001
,  // measure 30
1000
0000
0000
0000
0100
0000
0010
0000
0100
0000
0000
0010
0000
0000
2000
0000
,  // measure 31
0000
0000
0000
0000
0100
0000
0000
0000
3010
0100
0000
0100
0001
0000
0010
0000
,  // measure 32
0100
0000
0000
0000
1000
0000
0010
0000
0100
0000
0000
0001
0000
0000
0100
0000
,  // measure 33
0001
2000
0000
3020
0000
1030
0100
0001
,  // measure 34
0100
0000
0000
0000
0010
0000
0100
0000
0010
0000
0000
0100
0000
0000
0020
0000
,  // measure 35
0000
0030
0100
0001
2000
0000
3200
0000
,  // measure 36
0310
0000
0000
0000
0100
0000
0001
0000
0100
0000
0000
0010
0000
0000
1000
0000
,  // measure 37
0010
0200
0000
0302
0000
0013
0100
1000
,  // measure 38
0001
0000
0000
0000
0100
0000
0010
0000
0100
0000
0000
0010
0000
0000
0002
0000
,  // measure 39
0000
0010
0100
1003
,  // measure 40
0110
0000
0000
0000
1000
0000
0100
0000
1000
0000
0000
0100
0000
0000
0010
0000
,  // measure 41
0001
0020
0000
0230
0000
0310
0001
1000
,  // measure 42
0100
0000
0000
0000
1000
0000
0100
0000
0010
0000
0000
0001
0000
0000
2000
0000
,  // measure 43
0000
3000
0100
0010
0200
0000
0320
0000
,  // measure 44
1030
0000
0000
0000
0100
0000
1000
0000
0010
0000
0000
0100
0000
0000
0001
0000
,  // measure 45
0100
0002
0000
0203
0000
0310
0100
0001
,  // measure 46
2000
0001
0100
3001
,  // measure 47
2010
0000
0000
0000
3000
0000
0000
0000
0010
1000
0000
0001
0010
0000
0100
0000
,  // measure 48
0010
0001
0100
1000
0100
0010
1000
0001
,  // measure 49
0010
1000
0010
0001
0100
0010
1010
0000
,  // measure 50
0100
0010
0001
1000
0100
0010
1000
0010
,  // measure 51
0001
0100
0010
1000
0001
0000
1010
0000
,  // measure 52
0100
0010
0001
1000
0010
1000
0100
0010
,  // measure 53
0001
1000
0001
0010
0001
0100
0110
0000
,  // measure 54
0200
0010
0310
0000
0020
1000
1030
0000
,  // measure 55
2000
0000
0001
0000
3001
0000
0000
0000
1000
0001
0000
0001
0200
0000
0010
0000
,  // measure 56
0310
0000
0000
0000
;

//---------------dance-single - ----------------
#NOTEDATA:;
#CHARTNAME:;
#STEPSTYPE:dance-single;
#DESCRIPTION:;
#CHARTSTYLE:;
#DIFFICULTY:Beginner;
#METER:1;
#RADARVALUES:0.088568,0.169621,0.034928,0.000000,0.000000,71.000000,67.000000,4.000000,0.000000,0.000000,0.000000,0.000000,0.000000,0.000000,0.088568,0.169621,0.034928,0.000000,0.000000,71.000000,67.000000,4.000000,0.000000,0.000000,0.000000,0.000000,0.000000,0.000000;
#CREDIT:;
#NOTES:
0000
0000
0000
0000
,
0000
0000
0000
0000
,
0000
0000
0000
0000
,
0000
0000
0000
0000
,
1000
0000
0000
0000
,
0001
0000
0000
0000
,
1000
0000
0000
0000
,
0001
0000
0000
0000
,
0100
0000
0000
0000
,
0010
0000
0000
0000
,
0100
0000
0000
0000
,
0010
0000
0000
0000
,
1000
0000
0000
0000
,
0001
0000
0000
0000
,
0100
0000
0000
0000
,
0010
0000
1001
0000
,
1001
0000
0100
0000
,
0010
0000
0000
0000
,
1000
0000
0001
0000
,
1000
0000
0000
0000
,
1000
0000
1000
0000
,
1000
0000
0000
0000
,
0001
0000
0001
0000
,
0001
0000
0000
0000
,
0100
0000
0100
0000
,
0100
0000
0000
0000
,
0010
0000
0010
0000
,
0010
0000
0000
0000
,
1000
0000
0001
0000
,
1000
0000
0000
0000
,
0100
0000
0010
0000
,
0100
0000
0000
0000
,
0110
0000
0000
0000
,
1000
0000
0000
0000
,
0001
0000
0000
0000
,
0100
0000
0000
0000
,
0010
0000
0000
0000
,
1000
0000
0000
0000
,
1000
0000
0000
0000
,
0001
0000
0000
0000
,
0001
0000
0000
0000
,
0010
0000
0000
0000
,
0010
0000
0000
0000
,
0100
0000
0000
0000
,
0100
0000
0000
0000
,
1000
0000
0000
0000
,
0001
0000
0000
0000
,
0100
0000
0010
0000
,
0110
0000
0100
0000
,
0010
0000
0000
0000
,
1000
0000
1000
0000
,
1000
0000
0000
0000
,
0001
0000
0001
0000
,
0001
0000
0000
0000
,
0100
0000
0010
0000
,
0100
0000
0010
0000
;
