#TITLE:charlotte aux framboises;
#SUBTITLE:(colate + kamome sano remix);
#ARTIST:kamome sano feat. mami;
#TITLETRANSLIT:;
#SUBTITLETRANSLIT:;
#ARTISTTRANSLIT:;
#GENRE:;
#CREDIT:vincentw;
#MUSIC:charlotte aux framboises (colate + kamome sano remix).ogg;
#BANNER:charlotte aux framboises (colate + kamome sano remix)-itg.png;
#BACKGROUND:charlotte aux framboises (colate + kamome sano remix)-43.png;
#CDTITLE:cdtitle.png;
#SAMPLESTART:41.897;
#SAMPLELENGTH:16.552;
#SELECTABLE:YES;
#OFFSET:0.000;
#BPMS:0.000=116.000
,144.000=58.000
,157.000=77.333
,163.000=116.000
;
#STOPS:;
#ORIGIN:;
#PREVIEWVID:;
#JACKET:;
#CDIMAGE:;
#DISCIMAGE:;
#BGCHANGES:;
#FGCHANGES:;

//--------------- dance-single - vincentw ----------------
#NOTES:
     dance-single:
     vincentw:
     Beginner:
     2:
     0,0,0,0,0,0,0,0,0,0,0,0,0,0,0,0,0,0,0,0,0,0,0,0,0,0,0,0:
0000
0000
0000
0000
,
0000
0000
0000
0000
,
0000
0000
0000
0000
,
0000
0000
0000
0000
,
0000
0000
0000
0000
,
1001
0000
0000
0000
,
1000
0000
0000
0000
,
0001
0000
0000
0000
,
0001
0000
0000
0000
,
1000
0000
1000
0000
,
0100
0000
0100
0000
,
0010
0000
0010
0000
,
0001
0000
0002
0000
,
0003
1001
0000
1000
,
1000
0000
0000
0001
,
0001
0000
0100
0000
,
0020
0000
0000
0000
0000
0000
0000
0000
0000
0000
0000
0000
0000
0030
0000
0000
,
0000
0100
0100
0000
,
0001
0000
0001
0000
,
2000
0000
0002
0000
,
3003
0000
1001
0000
,
1000
0000
0001
0000
,
1000
0000
0001
0000
,
0100
0000
0200
0000
,
0300
0000
0010
0000
,
0100
0000
0010
0000
,
0100
0000
0001
0000
,
0001
0000
1000
0000
,
1000
0000
0100
0000
,
0000
0000
0000
0000
,
0000
0000
0000
0000
,
0000
0000
2000
0000
,
0000
0000
0000
0000
0000
3000
0000
0000
0000
0000
0000
0000
0001
0000
0000
0000
,
0000
0010
0000
0100
,
0000
1000
0000
0100
,
0000
0010
0000
0001
,
0002
0003
0000
0001
,
0000
0100
0000
0010
,
0000
1000
0000
0001
,
0000
2000
0000
0000
,
0000
0000
3000
1001
,
0000
0001
0001
0000
,
0000
1000
1000
0000
,
0010
0000
0100
0000
,
0010
0000
0110
0000
,
1000
0100
0100
0000
,
0001
0100
0000
2000
,
0000
3002
0000
0013
,
0100
0100
0000
0020
,
0000
0230
0000
1300
,
1000
0000
0002
0000
,
0000
0000
0000
0000
,
0003
0000
1000
0000
,
0001
0000
0010
0000
,
0001
0000
1000
0000
,
0010
0000
0100
0000
,
0010
0000
0010
0000
,
1000
0000
0001
0000
,
0100
0000
0001
0000
,
0010
0000
0100
0000
,
1000
0000
0002
0000
,
0000
0000
0000
0000
,
0000
0000
0003
0000
;

//--------------- dance-single - vincentw ----------------
#NOTES:
     dance-single:
     vincentw:
     Easy:
     5:
     0,0,0,0,0:
0000
0000
0000
0000
,
0000
0000
0000
0000
,
0000
0000
0000
0000
,
0000
0000
0000
0000
,
0000
0000
0000
0000
,
1001
0000
0000
0001
,
0001
0000
1000
1000
,
0000
0010
0010
0000
,
0100
0001
0100
0000
,
0101
0000
0001
1000
,
0100
0000
1000
0001
,
0010
0000
0001
0000
,
1000
1000
0020
0000
,
0030
1010
1000
0010
,
0100
0010
1000
0000
,
0001
0010
0100
0010
,
0002
0000
0000
0000
0000
0000
0000
0000
0000
0000
0000
0000
0000
0003
0000
0000
,
0000
0100
0010
1000
,
0001
0010
0100
0000
,
0110
0000
2002
0000
,
3003
0000
0000
0000
0001
0000
0000
0002
0000
0000
0000
0000
0003
0000
0000
0000
,
0001
0000
0000
0000
0000
0000
0000
0020
0000
0000
0000
0000
0030
0000
0000
0000
,
0010
0000
0000
0000
0000
0000
0000
0200
0000
0000
0000
0000
0300
0000
0000
0000
,
0100
0000
0000
0000
0000
0000
0000
2000
0000
0000
0000
0000
0000
0000
0000
3002
,
0000
0000
0000
0000
0000
0000
0000
2003
0000
0000
0000
0000
3000
0000
0000
0000
,
1000
0000
0000
0000
0100
0000
0000
0200
0000
0000
0000
0000
0300
0000
0000
0000
,
0100
0000
0000
0000
0010
0000
0000
0010
0000
0000
0000
0000
0001
0000
0000
0001
,
0000
0000
0000
0000
1000
0000
0000
1000
0000
0000
0000
0000
0010
0000
0000
0100
,
0000
0000
0000
0000
0010
0000
0000
0120
0000
0000
0000
0000
0000
0000
0000
0000
,
1000
0000
0100
0000
,
0001
0000
0100
0000
,
1030
0000
0000
0000
0002
0000
0000
2000
,
0000
0000
0000
0000
0000
3003
0000
0000
0000
0000
0000
0000
0110
0000
0000
0000
,
0000
1000
0010
0100
,
0001
0000
0000
0000
1000
0000
0000
1000
0000
0000
0000
0000
0001
0000
0000
0000
,
0010
0000
0000
0000
0100
0000
0000
0100
0000
0000
0000
0000
1000
0000
0000
1000
,
0000
0002
0023
2030
,
3200
0302
0203
2300
,
3020
0032
0100
2003
,
0100
0000
0000
3002
0000
0010
0000
0000
0000
0010
0000
2003
,
0000
0010
0000
0000
0000
0020
0000
3030
0000
1010
0000
0000
,
1000
0000
0000
0000
0001
0000
0000
0001
0000
0000
0000
0000
0100
0000
0000
0000
,
0010
0000
0000
0000
1000
0000
0000
1000
0000
0000
0000
0000
0100
0000
0000
0000
,
1000
0000
0000
0000
0010
0000
0000
0010
0000
0000
0000
0000
0100
0000
0000
0100
,
0000
0000
0000
0000
0001
0000
0000
0001
0000
0000
0000
0000
1000
0000
0000
0000
,
0100
0000
0000
0000
0010
0000
0000
0010
0000
0000
0000
0000
0001
0000
0000
0000
,
0100
0000
0000
0000
0001
0000
0000
0001
0000
0000
0000
0000
1000
0000
0000
1000
,
0000
0000
0000
0000
0100
0000
0000
0100
0000
0000
0000
0000
0010
0000
0000
0010
,
0000
0000
0000
0000
0001
0000
0000
0001
0000
0000
0000
0000
1000
0000
0000
0010
,
0000
0000
0000
0000
0100
0000
0000
0001
0000
0000
0000
0000
1000
0000
0000
0000
,
0100
0010
0002
0010
,
0000
0100
0000
0010
,
0000
0000
0000
0000
0103
0000
0000
0001
0000
0000
0000
0000
0010
0000
0000
0000
,
0100
0000
0000
0000
0010
0000
0000
0001
0000
0000
0000
0000
1000
0000
0000
0000
,
0010
0000
0000
0000
1000
0000
0000
0100
0000
0000
0000
0000
1000
0000
0000
0001
,
0000
0000
0000
0000
1000
0000
0000
0010
0000
0000
0000
0000
0200
0000
0000
0000
,
0002
0000
0000
0000
0303
0000
0000
0101
0000
0000
0000
0000
0001
0000
0000
0000
,
1000
0000
0000
0000
0010
0000
0000
1000
0000
0000
0000
0000
0100
0000
0000
0000
,
0010
0000
0000
0000
0001
0000
0000
0010
0000
0000
0000
0000
0001
0000
0000
1000
,
0000
0000
0000
0000
0001
0000
0000
0100
0000
0000
0000
0000
0010
0000
0000
1000
,
0000
0000
0000
0000
0002
0000
0000
2000
0000
0000
0000
0000
0000
0000
0000
0000
,
0000
0000
0000
0000
,
0000
0000
3003
0000
;

//--------------- dance-single - vincentw ----------------
#NOTES:
     dance-single:
     vincentw:
     Medium:
     8:
     0,0,0,0,0:
0000
0000
0000
0000
,
0000
0000
0000
0000
,
0000
0000
0000
0000
,
0000
0000
0000
0000
,
0000
0000
0000
0000
,
1001
0000
1000
0100
,
1000
0000
0001
0100
,
0001
0000
1000
0000
,
0010
0000
0010
0100
,
0010
0000
1000
0000
0010
1000
0010
0000
,
0100
0000
0001
0000
1000
0100
1000
0000
,
0001
0010
0001
0000
0100
0010
0100
0000
,
0001
0000
1000
0000
0001
0100
0010
1000
,
0002
0000
1003
0000
0001
0010
0100
1000
,
0001
0000
0000
0000
1000
0000
0000
1000
0000
0000
1000
0000
0001
0000
0000
0000
,
0100
0000
0010
1000
0100
0000
0010
0100
,
2000
0000
0000
3020
0000
0000
0230
0000
0000
0002
0000
0000
0000
0303
0000
0000
,
0000
0001
0100
0010
1000
0001
1000
0100
,
0010
0000
0000
0100
0000
0000
0010
0000
0000
0000
0001
0000
0100
0000
0000
0001
,
0000
0000
1000
0000
0100
0000
0000
2000
0000
0000
0000
0000
0000
0000
0000
0000
,
3000
0000
0000
0000
0001
0000
0000
0101
0000
0000
0100
0000
0010
0000
0000
0000
,
1000
0000
0100
0000
1000
0000
0000
0001
0000
0000
0001
0000
0010
0000
0000
0000
,
0001
0000
1000
0000
0001
0000
0000
0100
0000
0000
0100
0000
0001
0000
0000
0000
,
0001
0000
1000
0000
0100
0000
0000
0100
0000
0000
1000
0000
0001
0000
0000
0001
,
0000
0000
1000
0000
0010
0000
0000
0010
0000
0000
0100
0000
0001
0000
0000
0000
,
1000
0000
0100
0000
0010
0000
0000
0001
0000
0000
1000
0000
0001
0000
0000
0000
,
1000
0000
0010
0000
0100
0000
0000
0002
0000
0000
0000
0000
0103
0000
0000
2000
,
0000
0000
0000
0000
3100
0000
0000
0002
0000
0000
0000
0000
1003
0000
0100
0000
,
0010
0001
1000
0001
,
0010
0000
0000
0001
0000
1000
0000
0010
0000
0000
0000
0000
1000
0000
0000
0000
,
0100
0000
0000
0010
0000
0001
0000
0100
0000
0000
0000
0000
0001
0000
0000
0000
,
0010
0000
0000
0000
1000
0000
0000
0000
0010
0000
0000
0001
0000
0000
0100
0000
,
0000
0010
0000
0000
0000
0110
0000
0000
0000
0000
0000
0000
1001
0000
0000
0000
,
0001
0100
0020
0000
2030
0000
3200
0000
,
0320
0000
0000
0000
0130
0000
0000
0100
0000
0000
1000
0000
0001
0000
0000
0000
,
0001
0000
0000
0000
1000
0000
0000
0001
0000
0000
0100
0000
0000
0100
0000
0000
,
0100
0000
0002
0000
1003
0100
2000
0000
,
3001
0010
0002
0000
1003
0010
0200
0000
,
0302
0000
2003
0000
3001
0010
0200
0000
,
1300
0000
0000
0001
0000
0000
0200
0000
0000
0000
0010
0000
0000
0000
0001
0000
0000
0000
0320
0000
0000
0000
1000
0000
,
0000
0100
0000
2030
0000
0000
0000
0000
0000
3001
0000
0000
,
0001
0000
0000
0010
0000
0100
0000
0020
0000
0000
0000
0000
0031
0000
0000
0000
,
1000
0000
0000
0010
0000
0100
0000
0010
0000
0000
1000
0000
0100
0000
0000
0020
,
0000
0000
0031
0000
0100
0000
0000
0020
0000
0000
1030
0000
0010
0000
0000
0200
,
0000
0000
0301
0000
0010
0000
0000
0200
0000
0000
0000
0000
1300
0000
0010
0000
,
0100
0000
0000
0100
0000
0010
0000
2000
0000
0000
0000
0000
3001
0000
0010
0000
,
0100
0000
0000
0100
0000
0010
0000
0002
0000
0000
0003
0000
1000
0000
0000
1100
,
0000
0000
0000
0000
0001
0000
0000
0101
0000
0000
0000
0000
1000
0000
0100
0000
,
0001
0000
0000
0001
0000
0100
0000
1000
0000
0000
0000
0000
0001
0000
0000
0011
,
0000
0000
0000
0000
1000
0000
0000
1010
0000
0000
0000
0000
0001
0000
0010
0000
,
2000
3020
0032
0000
,
0000
0000
0000
0000
0000
0000
0000
0000
0000
0000
0000
0000
0000
0000
0000
0003
,
0000
0000
0000
0000
0001
0000
0000
0100
0000
0000
0100
0000
0001
0000
0000
0000
,
1000
0000
0010
0000
1000
0000
0000
0001
0000
0000
0001
0000
1000
0000
0000
0000
,
0100
0000
0010
0000
0100
0000
0000
1000
0000
0000
0100
0000
0010
0000
0000
0001
,
0000
0000
0010
0000
0100
0000
0000
1000
0000
0000
0100
0000
0010
0000
0000
0002
,
0000
0000
0000
0000
0203
0000
0000
0301
0000
0000
0000
0000
0001
0000
0100
0000
,
0010
0000
0000
1000
0000
0100
0000
1000
0000
0000
0001
0000
0010
0000
0000
0001
,
0000
0000
1000
0000
0010
0000
0000
1000
0000
0000
0010
0000
0100
0000
0000
0001
,
0000
0000
0100
0000
0010
0000
0000
1000
0000
0000
0010
0000
0100
0000
0000
0001
,
0000
0000
0001
0000
0000
0000
0000
2000
0000
0000
0000
0000
0000
0000
0000
0000
,
0000
0000
0000
0000
,
0000
0000
3000
0000
;

//--------------- dance-single - vincentw ----------------
#NOTES:
     dance-single:
     vincentw:
     Hard:
     11:
     0,0,0,0,0:
0000
0000
0000
0000
,
0000
0000
0000
0000
,
0000
0000
0000
0000
,
0000
0000
0000
0000
,
0000
0000
0000
0000
,
1001
0000
0000
0000
0000
0000
0000
0000
0000
0000
0001
0000
0000
0010
0000
0000
,
0001
0000
0000
0000
0000
0000
1000
0000
0100
0000
0000
0200
0000
0000
0300
0000
,
0000
0000
1000
0000
0000
1000
0000
0000
0001
0000
0000
0000
0000
0000
0000
0000
,
0010
0000
0000
0000
0000
0001
0000
0100
0000
0010
0000
0000
0110
0000
0000
0000
,
1000
0000
0000
1000
0100
0000
0000
0000
0010
0000
0001
0000
0000
1000
0000
0000
,
0001
0000
0000
0001
0100
0000
0010
0000
1000
0000
0000
1000
0000
0010
0000
0000
,
0100
0000
0001
0000
0000
1000
0000
0000
0100
0000
0000
0000
1000
0000
0010
0000
,
0100
0000
0000
0001
0000
0010
0001
0000
2000
0000
3200
0000
0302
0000
0203
0000
,
2300
0000
0000
0000
3001
0000
0010
0001
0000
0000
0001
0000
0100
0001
0000
0000
,
0001
0000
0000
0000
1000
0000
0100
1000
0000
0000
1000
0000
0001
1000
0000
0000
,
1000
0000
0000
0000
0010
0000
1000
0010
0000
0000
0010
0000
0001
0010
0000
0000
,
0020
0000
0000
2030
0000
0000
3200
0000
0000
0302
0000
0000
0000
0013
0000
0000
,
0000
0000
0000
0000
1010
0000
0000
1000
0000
0000
0001
0000
0010
0001
0000
0000
,
0100
0000
0001
1000
0000
0001
0000
0100
0000
0000
0010
0000
1000
0100
0000
0000
,
1100
0000
0000
0010
0001
0000
0000
0022
0000
0000
0000
0000
0000
0000
0000
0000
,
0033
0000
0000
0000
0001
0100
0010
2000
0000
0000
3010
0000
0010
1000
0000
1000
,
0001
0000
0001
0100
0000
0001
0000
0020
0000
0000
0031
0000
0001
0010
0000
0010
,
0100
0000
0100
1000
0000
0001
0000
0200
0000
0000
0301
0000
0001
0100
0000
0100
,
0010
0000
0010
1000
0000
0001
0000
2000
0000
0000
3100
0000
0010
0000
0100
2000
,
0000
0000
3010
0000
0100
0000
0010
2000
0000
0000
3001
0000
0010
0100
0000
1000
,
0001
0000
0100
0010
0000
0100
0000
0002
0000
0000
1003
0000
0010
0100
0000
0010
,
1000
0000
0100
1000
0000
0001
0000
0020
0000
0000
0031
0000
1000
0000
0001
0200
,
0000
0000
0301
0000
1000
0000
0001
0020
0000
0000
0130
0000
1000
0010
0100
0001
,
0000
0000
0010
0000
0100
0000
0000
0110
0000
0000
1000
0000
0000
0010
0000
0000
,
0001
0000
0000
0010
0000
0010
0000
1000
0000
0000
0001
0000
0000
0010
0000
0000
,
1000
0000
0000
0010
0000
0010
0000
0001
0000
0000
1000
0000
0000
0100
0000
0000
,
0001
0000
0000
0100
0000
1000
0000
0000
0002
0000
0000
0203
0000
0000
2300
0000
,
0000
3020
0000
0000
0000
0031
0000
0000
0000
0000
0000
0000
0011
0000
0010
0001
,
0000
0000
1000
0000
0100
1000
0000
0000
0010
0000
0100
0000
0001
0000
1000
0100
,
0000
0000
1000
0000
0001
0100
0000
0101
0000
0000
0001
0000
1000
0010
0000
0000
,
1000
0000
0001
0010
0000
0001
0010
0100
0000
0000
1000
0000
0000
0010
0000
0010
,
0000
0000
0000
0000
0000
0000
0000
0000
1000
0000
0000
0001
0000
0001
0000
0010
0000
0000
0100
0000
0000
0000
0000
0000
1000
0000
0000
0001
0000
0001
0000
0100
,
0000
0000
0010
0000
0000
0000
0000
0000
1000
0000
0000
0100
0000
0100
0000
0000
0010
0000
0000
0001
0000
0001
0000
0000
1000
0000
0000
0010
0000
0010
0000
0000
,
0100
0000
0000
0001
0000
0001
0000
0000
1000
0000
0100
0010
0000
0100
0000
1000
0000
0000
0001
0000
0000
0000
0000
0000
1000
0000
0010
1000
0000
1000
0000
0000
,
0001
0000
0000
0000
0000
0000
0010
0000
0000
0001
0000
0000
0000
0000
0000
0001
0000
0000
0000
0000
0000
0000
0000
0000
1000
0000
0000
0000
0000
0000
0000
0000
1000
0000
0000
0000
0000
0000
0000
0000
0010
0000
0000
0000
0000
0000
0000
0000
0000
0000
0000
0000
0100
0000
0000
0000
0000
0000
0000
0000
0000
0000
0000
0000
0001
0000
0000
0000
0000
0000
0000
0000
0010
0000
0000
0000
0000
0000
0000
0000
0000
0000
0000
0000
0000
0000
0000
0000
0001
0000
0000
0000
0000
0000
0000
0000
,
0001
0000
0010
0000
0000
0100
0000
0000
1000
0000
0020
0000
0000
0000
0000
0000
0030
0000
0110
0000
0000
0000
0000
0000
,
0100
0000
0100
0001
0000
1000
0000
0001
0000
0000
1000
0000
1000
0100
0000
0100
,
0010
0000
0010
0001
0000
1000
0000
0020
0000
0000
0130
0000
0001
1000
0000
0200
,
0000
0000
0310
0000
0001
1000
0000
0020
0000
0000
0130
0000
0001
0000
0010
2000
,
0000
0000
3001
0000
0100
0000
1000
0020
0000
0000
1030
0000
0010
1000
0000
0001
,
1000
0000
0100
1000
0000
0010
0100
0001
0000
0000
0001
0000
0010
0001
0000
1000
,
0001
0000
0100
0001
0000
0010
0100
2000
0000
0000
3010
0000
0100
1000
0000
0200
,
0000
0000
0301
0000
0010
0100
0000
0002
0000
0000
0103
0000
1000
0001
0000
0020
,
0000
0000
0031
0000
1000
0100
0010
0002
0000
0000
0013
0000
0100
0001
0000
0200
,
0000
0000
1300
0000
0010
0100
0000
2000
0000
0000
3100
0000
0001
1000
0100
1000
,
0020
0230
0302
1000
,
0000
0010
0000
0100
,
0003
0000
0000
0000
1000
0000
0000
1001
0000
0000
0001
0000
0100
0001
0000
0000
,
0001
0000
0000
0010
0000
0010
0000
0100
0000
0000
1000
0000
0010
0100
0000
0001
,
0000
0000
0001
0000
0100
0010
0000
1000
0000
0000
1000
0000
0100
0010
0000
0001
,
0000
0100
0000
1000
0000
0100
0000
0001
0000
0000
0001
0000
0100
0010
0000
1000
,
0000
0100
0000
0001
0000
0100
0000
1000
0000
0000
0010
0000
1000
0100
0000
0000
,
0010
0000
0001
0100
0000
0001
0000
0001
0000
0000
1000
0000
0001
0100
0000
0001
,
0000
0010
0000
0100
0000
1000
0001
0010
0000
0000
0001
0000
0100
0001
0100
0010
,
0000
0000
1000
0000
0100
1000
0100
0010
0000
0010
0001
0000
0001
0100
0000
0101
,
0000
0000
1000
0000
0000
0000
0000
2002
0000
0000
0000
0000
0000
0000
0000
0000
,
0000
0000
0000
0000
,
0000
0000
3003
0000
;
