#TITLE:β;
#SUBTITLE:ft. Hatsune Miku;
#ARTIST:llliiillliiilll;
#TITLETRANSLIT:;
#SUBTITLETRANSLIT:;
#ARTISTTRANSLIT:;
#GENRE:IDM;
#CREDIT:Padoo;
#BANNER:beta-bn.png;
#BACKGROUND:beta-bg.png;
#LYRICSPATH:beta.lrc;
#CDTITLE:;
#MUSIC:beta.mp3;
#OFFSET:-4.216667;
#SAMPLESTART:47.400002;
#SAMPLELENGTH:22.500000;
#SELECTABLE:YES;
#DISPLAYBPM:90.000000:180.000000;
#BPMS:0.000000=270.000000
,6.000000=90.000000
,38.000000=180.000000
,166.000000=90.000000
,197.000000=180.000000
,235.000000=74.500000
,237.000000=180.000000
,261.000000=90.000000
,289.000000=360.000000
;
#STOPS:289.000000=0.167000,
290.000000=0.083000,
290.500000=0.167000,
291.500000=0.083000,
292.000000=0.083000,
292.500000=0.083000,
293.000000=0.083000,
293.500000=0.083000,
294.000000=0.083000,
294.500000=0.083000,
295.000000=0.083000,
295.500000=0.083000,
296.000000=0.083000
;
#BGCHANGES:;
#KEYSOUNDS:;
#ATTACKS:;

//---------------dance-single - ----------------
#NOTES:
     dance-single:
     :
     Hard:
     11:
     0.352250,0.487328,0.145452,0.429428,0.138525,356.000000,335.000000,21.000000,62.000000,0.000000,0.000000,0.352250,0.487328,0.145452,0.429428,0.138525,356.000000,335.000000,21.000000,62.000000,0.000000,0.000000:
// measure 0
0000
0000
0000
0000
,  // measure 1
0000
0000
2000
0000
,  // measure 2
3200
0000
0302
0000
,  // measure 3
0023
0000
0000
0000
0000
0000
0000
0000
1030
0000
0000
1000
0000
0000
1000
0000
,  // measure 4
0020
1000
0000
0000
0230
0000
0000
0001
0000
0000
0001
0000
0300
0001
0000
0000
,  // measure 5
0120
0000
0000
0100
0000
0000
0100
0000
0032
1000
0000
0000
1000
0000
0003
1000
,  // measure 6
0020
0000
1000
0000
0130
0001
0000
0001
0020
0100
0000
0000
0100
0000
0000
0100
,  // measure 7
0000
0000
0100
0000
0030
0001
0010
0100
1001
0000
0000
1000
0000
0000
1100
0000
,  // measure 8
0000
0001
0000
0000
0101
0000
0010
0000
0200
0000
0000
0000
0000
0000
0000
0000
,  // measure 9
2300
0000
0000
0000
3001
0001
0000
0000
,  // measure 10
1010
0000
0000
0000
0000
0000
0101
0000
0000
0000
0000
0000
1000
0100
0000
0000
,  // measure 11
1000
0100
0000
0000
0000
0000
0000
0000
0010
0000
0010
0000
1000
0000
0000
0000
,  // measure 12
0100
0000
0001
0200
0000
0000
1000
0000
,  // measure 13
0301
0000
0000
0000
0010
0010
0000
0000
,  // measure 14
0011
0000
0000
0000
0000
0000
1100
0000
0000
0000
0000
0000
0001
0100
0000
0000
,  // measure 15
0001
0000
0000
0100
0000
0000
0000
0000
0000
0000
0000
0000
0001
0000
0000
0000
0000
0000
0000
0000
0000
0000
0000
0000
0010
0000
0000
0000
0000
0000
0000
0000
0100
0000
0000
0000
0000
0000
0000
0000
1000
0000
0000
0000
0000
0000
0000
0000
,  // measure 16
0001
0000
0000
0000
0000
0000
0100
0000
0010
0000
1000
0000
,  // measure 17
0001
0000
0000
0000
0100
0000
0000
0000
0010
0000
0000
0000
0200
0000
0000
0000
0000
0000
0000
0000
0000
0010
0000
0000
,  // measure 18
0000
0301
0000
0010
,  // measure 19
0010
0100
0000
0000
0100
0000
0000
0000
0200
0000
0000
0000
0000
0000
0010
0000
,  // measure 20
0000
1300
0000
0001
,  // measure 21
0100
1000
0100
0010
0000
0000
0000
0000
,  // measure 22
0110
0000
0000
1001
0000
0000
0010
0010
,  // measure 23
0100
0000
1000
0000
0001
0000
0001
0001
,  // measure 24
0000
0010
0001
0001
1000
0100
0010
0000
,  // measure 25
0001
0100
0010
1000
0200
0000
0000
0000
,  // measure 26
2300
0000
0000
0000
3002
0000
0000
0013
,  // measure 27
1000
0010
0001
0100
0020
0000
0000
0000
,  // measure 28
2030
0000
3002
0000
,  // measure 29
0103
1000
0100
0001
0020
0000
0000
0000
,  // measure 30
0230
0000
2300
0000
,  // measure 31
3002
0000
0203
0000
,  // measure 32
0310
0000
0000
0000
0010
0100
0010
0100
,  // measure 33
0010
0001
0100
0010
2000
0000
0000
0000
,  // measure 34
3020
0000
0000
0000
2030
0000
0000
3001
,  // measure 35
0100
0010
0100
0001
0020
0000
0000
0000
,  // measure 36
0032
0000
0023
0000
,  // measure 37
0031
1000
0100
1000
0002
0000
0010
0000
,  // measure 38
0010
1000
1000
0100
,  // measure 39
0100
0000
0103
0000
1001
0000
0010
0010
,  // measure 40
0000
0100
0010
0100
0001
1000
0001
0010
,  // measure 41
0100
0000
0010
0000
0100
0000
0000
0000
0000
0000
0000
0000
0001
0000
0000
0001
,  // measure 42
0000
0000
0000
0000
0100
0000
0000
0000
0000
0000
0000
0000
0010
0000
0000
0100
,  // measure 43
0000
0000
0000
0000
0110
0000
0000
0000
0000
0000
0000
0000
1000
0000
0000
1000
,  // measure 44
0000
0000
0000
0000
0100
0000
0000
0000
0010
0000
0000
0100
0000
0000
0110
0000
,  // measure 45
0000
0000
0001
0000
0100
0000
0010
0000
0200
0000
0000
0001
0000
0000
0301
0000
,  // measure 46
0000
0000
0001
0000
0010
0000
1000
0000
0200
0000
0000
1000
0000
0000
1300
0000
,  // measure 47
0000
0000
0010
0000
0001
0000
1000
0000
0010
0000
0000
0000
1100
0000
0000
0101
,  // measure 48
0000
0001
0010
1000
0100
1000
0100
1000
,  // measure 49
0100
0100
0010
0100
0010
0100
0020
0000
,  // measure 50
0000
0032
0000
0203
,  // measure 51
0000
0310
1000
0001
0010
0100
2000
0000
,  // measure 52
0000
3020
0000
0230
,  // measure 53
0000
0000
0301
1000
0010
0100
0002
0000
,  // measure 54
0000
0023
0000
2030
,  // measure 55
0000
3020
0000
0032
,  // measure 56
0000
0000
0103
0000
0000
0000
0001
0100
,  // measure 57
0010
1000
0010
0100
0001
0010
0200
0000
,  // measure 58
0000
0000
0000
0300
0010
0010
0001
0010
,  // measure 59
0100
1000
0202
0000
0300
0000
0020
0000
,  // measure 60
0003
0000
0200
0000
0330
0000
1000
0100
,  // measure 61
0001
0100
1000
0000
1001
0000
0010
0000
,  // measure 62
1010
0100
0011
0100
,  // measure 63
0110
0000
0010
0000
0010
0010
0000
0010
,  // measure 64
0010
0010
0001
0010
0100
1000
0001
0010
,  // measure 65
0100
0000
0000
0000
0200
0000
0000
0000
0000
0000
0310
0010
0000
0000
0001
0000
,  // measure 66
1000
0001
0200
0000
0000
0000
0000
0000
,  // measure 67
0310
0010
0100
0100
0002
0000
0000
0000
0023
0000
0000
0000
0230
0000
0000
0000
,  // measure 68
0320
0000
0000
0000
2030
0000
0000
0000
3000
0000
0000
0000
0010
0001
0010
0001
,  // measure 69
0100
0001
0100
0000
0020
0000
0000
0000
0000
0000
1000
1000
0000
0000
0100
0000
,  // measure 70
0130
0100
0002
0000
0023
0000
1030
0000
,  // measure 71
1100
0000
0000
0100
0010
0100
1000
0001
,  // measure 72
1000
0001
1000
0000
1000
1000
0000
0100
,  // measure 73
0100
0010
0001
0010
0100
1000
0001
0010
,  // measure 74
0200
0300
0000
0000
0000
0000
0000
0000
0000
0000
0000
0000
0000
0000
0000
0000
;
