#TITLE:amaterasu;
#SUBTITLE:;
#ARTIST:Ryunosuke Kudo;
#TITLETRANSLIT:;
#SUBTITLETRANSLIT:;
#ARTISTTRANSLIT:;
#GENRE:;
#CREDIT:BadWolf;
#BANNER:amaterasu.png;
#BACKGROUND:amaterasu-bg.png;
#LYRICSPATH:;
#CDTITLE:cdtitle.png;
#MUSIC:amaterasu.ogg;
#OFFSET:0.000000;
#SAMPLESTART:57.126110;
#SAMPLELENGTH:19.027622;
#SELECTABLE:YES;
#BPMS:0.000000=100.800003
;
#STOPS:
;
#BGCHANGES:;
#KEYSOUNDS:;
#ATTACKS:;

//---------------dance-single - ----------------
#NOTES:
     dance-single:
     :
     Hard:
     9:
     0.344397,0.355689,0.276647,0.098803,0.000000,244.000000,216.000000,28.000000,10.000000,0.000000,0.000000,0.344397,0.355689,0.276647,0.098803,0.000000,244.000000,216.000000,28.000000,10.000000,0.000000,0.000000:
// measure 0
0000
0000
0000
0000
,  // measure 1
0000
0000
0000
0000
,  // measure 2
0000
0000
0000
0000
,  // measure 3
0000
0000
0000
0000
,  // measure 4
2000
0000
3020
0000
,  // measure 5
0032
0000
0000
0203
0000
0000
1300
0001
,  // measure 6
2000
0000
3200
0000
,  // measure 7
0302
0000
0000
0023
0000
1030
1001
0000
,  // measure 8
1000
1000
0010
0000
0100
0001
1000
0000
,  // measure 9
0001
0001
0010
0000
0100
1000
0001
0000
,  // measure 10
0100
0100
0010
0000
1000
0001
0010
0000
,  // measure 11
0100
0100
0010
0001
0000
0001
1000
0000
,  // measure 12
0001
0100
1000
0000
1000
0100
0001
0000
,  // measure 13
1000
0100
0010
0100
1000
0001
1000
0000
,  // measure 14
0010
0100
0001
0000
0001
1000
0100
0000
,  // measure 15
1010
0011
0101
1100
,  // measure 16
1000
0010
0100
0000
0100
0001
1000
0000
,  // measure 17
0001
0010
1000
0001
1000
0010
0001
1000
,  // measure 18
0001
0100
0010
0000
0010
1000
0001
0000
,  // measure 19
1000
0100
0001
1000
0001
0100
1000
0001
,  // measure 20
1000
0100
0010
0000
0010
0001
1000
0000
,  // measure 21
0001
0100
1000
0010
1000
0100
0001
1000
,  // measure 22
0001
0010
0100
0000
0100
1000
0001
0000
,  // measure 23
0101
0000
1100
0000
1010
0000
0011
0001
,  // measure 24
1000
0010
1010
0000
0001
0010
0011
0000
,  // measure 25
1000
0010
0100
0010
0001
0010
1000
0000
,  // measure 26
0001
0100
0101
0000
1000
0100
1100
0000
,  // measure 27
0001
0100
0010
0100
1000
0100
0001
0000
,  // measure 28
1000
0100
1100
0000
0001
0100
0101
0000
,  // measure 29
1000
0100
0010
0100
0001
0100
1000
0000
,  // measure 30
0001
0010
0011
0000
1000
0010
1010
0000
,  // measure 31
0001
0010
0100
0010
1000
0010
0001
0000
,  // measure 32
1001
1001
0010
0000
0100
0100
1001
0000
,  // measure 33
1000
0010
0001
0010
0100
0010
1000
0000
,  // measure 34
1001
1001
0100
0000
0010
0010
1001
0000
,  // measure 35
0001
0100
1000
0100
0010
0100
0001
0000
,  // measure 36
1000
0010
0101
0000
0001
0010
1100
0000
,  // measure 37
1000
0001
0100
1000
0100
0001
1000
0000
,  // measure 38
0001
0010
1100
0000
1000
0010
0101
0000
,  // measure 39
0001
1000
0100
0001
0100
1000
2002
0000
,  // measure 40
3003
0000
0000
0000
;

//---------------dance-single - ----------------
#NOTES:
     dance-single:
     :
     Medium:
     7:
     0.283704,0.296408,0.167964,0.098803,0.000000,201.000000,184.000000,17.000000,10.000000,0.000000,0.000000,0.283704,0.296408,0.167964,0.098803,0.000000,201.000000,184.000000,17.000000,10.000000,0.000000,0.000000:
0000
0000
0000
0000
,
0000
0000
0000
0000
,
0000
0000
0000
0000
,
0000
0000
0000
0000
,
2000
3000
0002
0103
,
0020
0000
0030
2000
0000
3000
0001
1000
,
0002
0013
2000
3100
,
0020
0000
0030
0002
0000
1003
1001
0000
,
0001
0001
0100
0000
0010
0000
1000
0000
,
0100
0010
0001
0000
1000
0000
0001
0000
,
1000
1000
0010
0000
0100
0000
0001
0000
,
0010
0100
1000
0000
0001
1000
0001
0000
,
1000
1000
0010
0000
0100
0000
0001
0000
,
0010
0100
1000
0000
0001
0000
1000
0000
,
0001
0001
0100
0000
0010
0000
1000
0000
,
0001
0010
0100
0010
0001
0010
0100
0000
,
1000
0001
0100
0000
0010
1000
0001
0000
,
1000
0001
0010
0000
0100
1000
0001
0000
,
1000
0010
0100
0000
0001
0000
1000
0000
,
0001
0010
1000
0000
0010
0000
0001
0000
,
1000
0001
0010
0000
0001
1000
0010
0000
,
0100
0001
1000
0000
0100
1000
0001
0000
,
0010
0100
1000
0000
0100
0010
0001
0000
,
1010
0011
0101
1100
,
1000
1000
0010
0000
0100
0001
1000
0000
,
0001
0011
1000
1010
,
0001
0001
0010
0000
0100
1000
0001
0000
,
1000
1010
0001
0011
,
1000
0100
0010
0000
0010
0100
1000
0000
,
0001
0000
0100
0000
0010
1000
0001
0000
,
1000
1000
0100
0000
0010
0001
1000
0000
,
0001
0101
1000
1100
,
0001
0001
0100
0000
0010
1000
0001
0000
,
1000
1100
0001
0101
,
1000
1000
0100
0000
0010
0001
1000
0000
,
0001
0101
1000
1100
,
0001
0010
0100
0000
0100
0010
0001
0000
,
1000
0000
0010
0000
0100
0001
1000
0000
,
0001
0001
0010
0000
0100
1000
0001
0000
,
1000
1010
0001
2002
,
3003
0000
0000
0000
;

//---------------dance-single - ----------------
#NOTES:
     dance-single:
     :
     Easy:
     5:
     0.206074,0.256887,0.108683,0.019761,0.000000,146.000000,135.000000,11.000000,2.000000,0.000000,0.000000,0.206074,0.256887,0.108683,0.019761,0.000000,146.000000,135.000000,11.000000,2.000000,0.000000,0.000000:
0000
0000
0000
0000
,
0000
0000
0000
0000
,
0000
0000
0000
0000
,
0000
0000
0000
0000
,
1000
0000
0001
0000
,
0100
0000
0000
0010
0000
0000
0100
0000
,
0001
0000
1000
0000
,
0010
0000
0000
0100
0000
0000
1001
0000
,
0001
0010
0001
1000
,
0010
0100
0010
1000
,
0001
0010
0100
0010
,
0001
1000
0010
0110
,
1000
0100
1000
0001
,
0100
0010
0100
0001
,
1000
0100
0010
0100
,
1000
1000
0001
1001
,
1000
0010
0100
0001
,
1000
0100
0010
0000
,
0001
0100
0010
1000
,
0001
0010
0100
0000
,
1000
0010
0001
0010
,
1000
0001
1000
0000
,
0001
0100
1000
0100
,
1001
1001
0110
0110
,
1000
0100
0010
0100
,
1000
0100
0010
0001
,
0100
0010
0100
0001
,
0100
0010
1000
1001
,
0001
0010
0100
0010
,
0001
0010
0100
1000
,
0010
0100
0010
1000
,
0010
0100
0001
1001
,
1000
0100
0001
0100
,
1000
0100
0010
0001
,
1000
0010
0001
0010
,
1000
0010
0100
0110
,
0001
0010
1000
0010
,
0001
0010
0100
1000
,
0001
0100
1000
0100
,
0001
0100
0010
2002
,
3003
0000
0000
0000
;

//---------------dance-single - ----------------
#NOTES:
     dance-single:
     :
     Beginner:
     2:
     0.098803,0.136594,0.000000,0.000000,0.000000,70.000000,70.000000,0.000000,0.000000,0.000000,0.000000,0.098803,0.136594,0.000000,0.000000,0.000000,70.000000,70.000000,0.000000,0.000000,0.000000,0.000000:
0000
0000
0000
0000
,
0000
0000
0000
0000
,
0000
0000
0000
0000
,
0000
0000
0000
0000
,
1000
0000
0000
0000
,
0001
0000
0000
0000
,
0010
0000
0000
0000
,
0100
0000
0000
0000
,
1000
0000
0001
0000
,
1000
0000
0001
0000
,
0100
0000
0010
0000
,
0100
0000
0010
0000
,
1000
0000
0001
0000
,
1000
0000
0001
0000
,
0010
0000
0100
0000
,
0010
0000
0100
0000
,
1000
0000
1000
0000
,
0001
0000
1000
0000
,
0001
0000
0001
0000
,
1000
0000
0001
0000
,
0100
0000
0100
0000
,
0010
0000
0100
0000
,
0010
0000
0010
0000
,
1000
1000
0001
0001
,
1000
0000
0001
0000
,
1000
0000
0001
0000
,
0100
0000
0010
0000
,
0100
0000
0010
0000
,
1000
0000
0001
0000
,
1000
0000
0001
0000
,
0010
0000
0100
0000
,
0010
0000
0100
0000
,
1000
0000
0010
0000
,
1000
0000
0010
0000
,
0100
0000
0001
0000
,
0100
0000
0001
0000
,
1000
0000
0100
0000
,
1000
0000
0100
0000
,
0010
0000
0001
0000
,
0010
0000
0001
0000
;
