#TITLE:絶対よい子のエトセトラ;
#SUBTITLE:;
#ARTIST:After the Rain;
#TITLETRANSLIT:Zettai Yoiko no Etc.;
#SUBTITLETRANSLIT:;
#ARTISTTRANSLIT:;
#GENRE:;
#CREDIT:;
#BANNER:Zettai Yoiko no Etc.png;
#BACKGROUND:Zettai Yoiko no Etc-bg.png;
#LYRICSPATH:;
#CDTITLE:;
#MUSIC:Zettai Yoiko no Etc.ogg;
#OFFSET:-0.048100;
#SAMPLESTART:60.210957;
#SAMPLELENGTH:12.000000;
#LASTBEATHINT:400.096069;
#SELECTABLE:YES;
#BPMS:0.000000=182.000000
,15.000000=91.000000
,19.000000=364.000000
,91.000000=182.000000
,93.000000=91.000000
,107.000000=182.000000
,160.000000=100.000000
,166.000000=182.000000
,182.000000=91.000000
,186.000000=364.000000
;
#STOPS:57.000000=0.165000,
64.000000=0.165000,
93.000000=0.330000,
165.500000=1.200000,
243.000000=0.082000,
243.500000=0.082000,
244.000000=0.082000,
244.500000=0.082000,
245.000000=0.082000,
245.500000=0.082000,
304.000000=0.082000,
304.500000=0.082000,
305.000000=0.082000,
305.500000=0.082000,
306.000000=0.082000,
306.500000=0.082000,
365.000000=0.082000,
365.500000=0.082000,
366.000000=0.082000,
366.500000=0.082000,
367.000000=0.082000,
367.500000=0.082000
;
#BGCHANGES:;
#KEYSOUNDS:;
#ATTACKS:;

//---------------dance-single - ----------------
#NOTES:
     dance-single:
     :
     Hard:
     17:
     0.943601,1.566331,0.678756,0.172222,0.339378,652.000000,585.000000,67.000000,17.000000,33.000000,0.000000,0.943601,1.566331,0.678756,0.172222,0.339378,652.000000,585.000000,67.000000,17.000000,33.000000,0.000000:
0000
0000
0000
0000
,
0000
0000
0000
0000
,
1010
0000
0000
0000
0011
0000
0000
0000
0001
0010
0100
0000
1000
0000
0001
0000
,
0000
0000
1000
0000
0001
0000
0100
0000
0020
0000
0000
0000
003M
0000
1000
0100
,
1000
0100
0010
0001
0010
0001
0100
0001
0010
0001
0100
0000
M110
0000
0000
0000
,
0000
0000
0010
0000
1000
0100
1000
0000
,
0001
0100
0001
0000
0010
0000
0001
0000
,
1000
0010
1000
0000
0001
0010
0001
0000
,
0010
0100
0010
0000
0001
0000
0100
0000
,
0001
0000
0010
0000
0100
1000
0200
0000
,
0010
0000
1300
0000
0001
0200
0010
0000
,
0301
1000
0100
0000
0010
0001
1000
0000
,
0001
0100
0010
0000
1000
0000
0100
1000
,
0100
1000
0001
0000
0001
0100
0001
0000
,
0010
0000
11MM
0000
0100
0000
0100
1000
,
0010
0000
0010
1000
0001
0000
0010
0000
,
M1M1
0000
0020
0000
0000
0000
1030
0100
,
1000
0100
1000
0001
0020
0000
0000
0000
,
0031
0100
0001
0000
1020
0000
0000
0000
,
1030
0100
1000
0001
0010
0000
0100
1000
,
0100
0000
0010
0001
0020
0000
0100
0000
,
0100
0100
0100
0230
,
1000
0000
0000
0000
1000
0000
0000
0000
1000
0000
0000
0000
130M
0000
0100
1000
,
0001
0000
0100
0000
M01M
0000
1000
0100
1000
0100
0010
0001
0100
0001
0000
0001
,
0010
0100
1000
0010
0100
0000
0000
0001
0100
1000
0100
0000
0001
1000
0000
1000
,
0100
0000
0010
0000
011M
0000
1M01
0001
0010
0010
0001
1000
0010
0100
0000
0100
,
0001
0100
0010
1000
0001
0000
0000
1000
1000
0100
0010
0001
0100
0000
10M1
0000
,
0000
0000
0001
0000
0100
0001
0100
0000
0010
0000
1000
0100
1000
0100
0010
0100
,
1000
0001
0010
0001
1000
0010
1000
0001
,
0010
0100
0010
1000
0010
0100
2000
0100
,
3001
0100
0001
1000
0100
0000
0100
2000
,
0000
3001
0100
0000
0010
1010
2010
0000
,
3001
1000
0010
1000
0001
0010
0001
1000
,
0010
0100
0010
0001
0010
1000
0002
0010
,
1003
0100
1100
0000
0001
0100
0101
0000
,
0001
0000
0100
0001
1000
0000
0100
1000
0010
0000
0100
0000
0100
0010
0100
0010
,
0100
0000
0001
1000
0100
0000
0000
0000
0010
0001
1000
0000
0001
0000
0100
0000
,
0000
0001
1000
0100
0000
1000
0001
0010
,
0000
0000
0001
0100
0001
0000
1000
0000
0000
0000
0100
0000
1000
0000
0010
0000
,
0000
0001
0010
1000
0010
0100
0001
0000
,
1M00
0000
0010
1000
0010
0100
0001
0000
0010
0001
0010
0100
1000
0000
0001
0000
,
0100
0000
2010
0000
0000
0000
0M0M
0000
30M1
0100
0001
0100
0001
0000
0010
0000
,
0000
0000
0100
1000
0100
0000
0010
0000
0000
0000
0001
0000
0010
0100
0001
0000
,
0100
0010
0100
0010
0100
1000
0100
1000
0001
0000
0100
0000
0001
0000
0001
0000
,
1000
0100
1000
1000
0010
1000
0010
0010
,
0100
0000
0000
0000
0001
0000
0000
0000
0100
0000
0000
0000
0100
0000
0000
0000
00M1
0000
0100
0000
1000
0000
0100
0010
1000
0000
0100
0000
0001
0000
0100
0010
,
0001
0000
0100
0001
0000
1000
0100
0000
0010
0000
0001
0010
0001
0010
0001
0010
M001
0000
0000
0000
0000
0000
0000
0000
0100
0000
0000
0000
0001
0000
0000
0000
,
1000
0000
0100
0000
0010
0000
0001
0010
,
1000
0010
0001
0100
,
1010
0100
0011
0000
,
0001
0000
0010
0000
1000
0000
0010
0100
,
1000
0000
0001
0000
0100
0000
0010
1000
,
0001
0100
0001
0010
,
1100
0000
0010
0000
0101
0000
0001
1000
,
0001
0000
1000
0001
1000
0000
0010
0000
,
0100
0000
1000
0000
0001
0000
0010
0100
,
0010
0001
1000
0100
,
0110
0000
1000
0000
1001
0000
0001
0100
,
0001
0000
0100
0000
0001
0000
0010
1000
,
0010
0000
0001
0000
0100
0000
0010
0001
,
0010
0000
2000
0000
3000
0000
1MM1
1010
,
1001
0011
1001
1100
M1M1
0000
0001
0000
,
1000
0001
0010
0000
0100
0000
0010
0000
,
1000
0010
0001
0000
0100
0000
1000
0000
,
0100
0011
0100
1010
,
1000
0010
1000
0000
0100
0000
0001
0000
,
0100
0010
0001
0000
1000
0000
0010
0000
,
0100
0001
1000
0000
0010
0000
1000
0000
,
0010
0101
0010
1100
,
1000
0001
1000
0000
0001
1000
0001
0000
,
0010
0100
0200
1300
,
0010
0100
0010
1100
,
0101
1010
1100
0011
,
0001
1000
0001
0000
0010
0000
0100
0000
,
1000
0001
0100
0000
0010
0000
1000
0000
,
0100
1000
0100
0000
0220
0000
0330
0000
,
1MM1
0101
1001
1100
1001
0011
1M1M
0000
,
1000
0010
1000
0100
,
0001
1000
0010
0001
,
0100
0001
0010
1000
,
0001
0100
0010
0001
,
0100
0001
0100
0000
0010
1000
0010
0000
,
1000
0001
1000
0000
0100
0010
0100
0000
,
1100
1000
0101
0001
,
1001
0000
0001
0010
0001
0000
1000
0010
,
1000
0100
1000
0010
,
0001
1000
0100
0001
,
0010
1000
0001
0100
,
1000
0000
0001
0100
0001
0000
0010
0100
,
0010
0010
0100
0100
,
1000
0001
0100
0110
,
0000
0000
M11M
1010
1100
0110
0011
0101
,
1MM1
0000
0001
0000
1000
0100
1000
0000
,
0000
1010
0101
0001
,
0011
0000
1100
1000
,
0001
0100
0010
0000
0001
0000
0110
0000
,
0000
1001
0000
1100
,
0100
0000
0010
0001
0010
0000
0100
0000
,
0011
0000
1010
0110
,
0101
1001
0000
MM1M
;

//---------------dance-single - ----------------
#NOTES:
     dance-single:
     :
     Medium:
     13:
     0.633892,0.960009,0.182352,0.182352,0.040523,438.000000,420.000000,18.000000,18.000000,33.000000,0.000000,0.633892,0.960009,0.182352,0.182352,0.040523,438.000000,420.000000,18.000000,18.000000,33.000000,0.000000:
0000
0000
0000
0000
,
0000
0000
0000
0000
,
1100
0000
1100
0000
0001
0010
0000
0001
,
0000
0000
0100
0000
0010
0000
1000
0000
0001
0000
0000
0000
00M0
0000
1000
0100
,
1000
0000
0010
0001
0010
0000
0100
0001
1000
0001
0100
0000
10M1
0000
0000
0000
,
0000
1000
0100
0010
,
0100
1000
0010
0001
,
0010
0100
0010
1000
,
0010
1000
0100
0010
,
0001
1000
0001
0100
,
0000
0001
1000
0100
,
0000
1000
0001
0100
,
0001
1000
0010
1000
,
0001
0010
0100
1000
,
0100
M01M
1001
0000
,
0010
0100
0001
0010
,
M10M
1001
0000
1000
,
0100
1000
0010
0000
,
0100
0001
0010
0000
,
0001
1000
0010
0000
,
0100
0001
0020
0100
,
0000
0100
0000
0100
,
0000
0000
0100
0000
0000
0000
013M
1000
,
1000
0001
MM10
0001
0100
0010
1000
0010
,
0010
0100
0001
1000
0100
1000
1000
0001
,
0100
0010
M110
1M01
0001
0010
0010
0001
,
0100
0100
0010
1000
0001
0100
0001
M010
,
0000
0001
0010
1000
0010
0001
0100
0010
,
1000
0100
1000
0100
1000
0000
0001
0010
,
0000
0010
0001
0100
0010
0100
0010
0000
,
0000
0100
0001
0100
0001
0000
1000
0100
,
0000
0100
1000
0000
0020
1000
1030
0000
,
0001
0010
0100
0010
1000
0001
0100
0010
,
0000
0100
1000
0100
0001
0000
0110
0000
,
0001
0001
0100
0000
1000
1000
0100
0000
,
0001
1000
0010
1000
0001
0010
0001
0100
,
0000
0000
0110
0000
0010
1000
0001
0200
,
0000
0301
0000
0002
0000
1003
0100
2000
,
0000
3010
1000
0020
0000
0130
0001
1000
,
0000
0100
0010
0001
0010
0100
1000
0000
,
00M2
0100
0100
2003
0100
3100
1000
0010
,
0100
0002
0000
M0M0
0M13
0001
1000
0100
,
0000
1000
0001
0100
0000
0001
1000
0010
,
0100
0010
1000
0001
0010
0001
0010
0000
,
0010
1000
0010
0000
0100
1000
0100
0000
,
0100
0000
0001
0000
0100
0000
0000
0000
100M
0100
1000
0000
0010
0001
0010
0000
,
1000
0100
0001
0100
0020
0000
0000
0000
M031
0000
0000
0000
0000
0000
0000
0000
,
0011
0000
1000
0010
,
0000
1000
0100
1000
,
0010
0100
0001
0000
,
0001
0010
0100
1000
,
0100
1000
0001
0100
,
0000
0010
0000
0100
,
0001
0010
1000
0010
,
0001
0000
1010
0000
,
1000
0010
0100
0001
,
0000
0001
0100
0001
,
0010
0100
1000
0000
,
1000
0100
0001
0100
,
1000
0010
0001
0010
,
0100
0000
0002
0000
0000
0000
1MM0
1000
,
1000
1000
1000
1000
1MM0
0000
1003
0000
,
0000
0010
1000
0001
,
0010
1000
0010
0001
,
0100
0010
1000
0001
,
0000
1000
0100
0010
,
0001
0010
0001
1000
,
0010
0000
0100
0000
,
0010
1000
0100
0001
,
0100
1000
0000
0101
,
0000
1000
0010
1000
,
0001
0100
0001
1000
,
0100
0001
0010
1000
,
0000
0100
1000
0010
,
0010
0001
0010
0010
,
0100
0001
2000
0000
,
0MM1
0001
0001
0001
0001
0001
0MM1
0000
,
3001
0000
0100
0001
,
1000
0010
0000
0100
,
0000
0010
1000
0001
,
0020
0000
0100
0000
,
0031
0001
0100
0002
,
0000
2003
0000
3100
,
0000
1000
0001
0100
,
0010
0000
1001
0000
,
1000
0000
0100
1000
,
0001
0010
0000
0100
,
0000
0010
0001
1000
,
0010
0000
0100
0010
,
1000
0100
0100
0001
,
0100
0010
0001
0200
,
0000
0000
M01M
0010
0010
0010
0010
0010
,
M31M
0101
0000
0101
,
0000
0001
0010
0000
,
0002
0000
1003
0001
,
0100
0001
1000
0010
,
0000
1010
0000
0011
,
0000
0001
0010
0000
,
0200
0000
1300
0001
,
0100
1001
0000
M1MM
;

//---------------dance-single - ----------------
#NOTES:
     dance-single:
     :
     Easy:
     8:
     0.324182,0.606322,0.091176,0.151960,0.000000,224.000000,215.000000,9.000000,15.000000,41.000000,0.000000,0.324182,0.606322,0.091176,0.151960,0.000000,224.000000,215.000000,9.000000,15.000000,41.000000,0.000000:
0000
0000
0000
0000
,
0000
0000
0000
0000
,
1000
1000
0001
0001
,
1000
0000
0100
0000
0010
0000
M000
0001
,
0001
1000
1000
0001
1000
0001
0M00
0000
,
0000
0010
0000
0001
,
0000
0100
0000
0100
,
0000
0001
0000
0010
,
0000
0100
0000
0100
,
0000
1000
0000
0010
,
0000
0100
0000
0100
,
0000
1000
0000
0100
,
0000
0010
0000
0010
,
0000
1000
0000
0010
,
0000
1M0M
0000
0000
,
0010
0000
0100
0000
,
M0M1
0000
0000
0001
,
0000
0000
1000
0000
,
0000
0000
0100
0000
,
0000
0000
0010
0000
,
0000
0000
0002
0000
,
0000
1000
0000
1000
,
0000
1000
0000
20M3
,
3100
0000
M01M
0000
0001
0100
0000
0010
,
0100
0001
0001
0000
1000
0100
0000
0010
,
0100
1000
000M
00M0
0001
0100
0000
0010
,
0100
0001
0001
0000
1000
0010
0000
020M
,
0000
0000
0000
0300
,
0001
1000
0100
0000
,
0010
0100
1000
1000
,
0000
0001
0100
0000
,
0010
0100
0002
1003
,
0000
0001
0100
0000
,
0010
0100
0001
0001
,
0000
1100
0000
0101
,
0001
1000
0010
0000
,
1000
0000
0000
0000
1000
0000
0000
0010
,
0000
0100
0000
0010
0000
1000
0000
0001
,
0000
0010
0000
0100
0000
0010
0000
0001
,
0000
0100
0010
0010
,
200M
0000
0000
3002
0000
0000
2003
0000
,
0000
3200
0000
00MM
M310
0000
0000
0001
,
0000
0000
0000
1000
0000
0000
0000
0010
,
0000
0100
0001
0001
,
0001
0001
1000
1000
,
1000
0000
1000
0000
010M
0100
0010
0010
,
0100
1000
0020
0000
M130
0000
0000
0000
,
0001
0000
0100
0000
,
0000
0000
0100
0000
,
0010
0000
1000
0000
,
0000
0000
0001
0000
,
0010
0000
0001
0000
,
0000
0000
0100
0000
,
1000
0000
0100
0000
,
0000
0000
0010
0000
,
1000
0000
0010
0000
,
0000
0000
0100
0000
,
0001
0000
0100
0000
,
0000
0000
0001
0000
,
1000
0000
0001
0000
,
0000
0000
2002
0000
0000
0000
0M00
00M0
,
0M00
00M0
0M00
00M0
0M03
0000
3100
0000
,
0000
0010
0000
0001
,
0000
0100
0000
0010
,
0000
0100
0000
0001
,
0000
0000
0000
1000
,
0000
0100
0000
1000
,
0000
0000
0000
0010
,
0000
0001
0000
0010
,
0000
0000
0000
0100
,
0000
0001
0000
0100
,
0000
0010
0000
1010
,
0000
1001
0000
0011
,
0000
0000
0000
1000
,
0000
0001
0000
1000
,
0000
0000
0022
0000
,
M000
0M00
M000
0M00
M000
0M00
M003
0000
,
0130
0000
1000
0000
,
0001
0000
0001
0000
,
0100
0000
0001
0000
,
0010
0000
0000
0000
,
0010
0000
0001
0000
,
0100
0000
0100
0000
,
0001
0000
1000
0000
,
0010
0000
0000
0000
,
0100
0000
0001
0000
,
1000
0000
1000
0000
,
0100
0000
1000
0000
,
0010
0000
0100
0000
,
0010
0000
1000
0000
,
0100
0000
0000
0220
,
0000
0000
M000
000M
M000
000M
M000
000M
,
M300
0130
0000
1000
,
0000
0001
0000
0000
,
0001
0000
0000
1000
,
0000
0010
0000
0100
,
0000
0001
0000
0001
,
0000
1000
0000
0000
,
1000
0000
0000
0100
,
0000
0010
0000
1MM1
;

//---------------dance-double - ----------------
#NOTES:
     dance-double:
     :
     Challenge:
     16:
     0.846636,1.414750,0.435620,0.233006,0.278594,585.000000,542.000000,43.000000,23.000000,84.000000,0.000000,0.846636,1.414750,0.435620,0.233006,0.278594,585.000000,542.000000,43.000000,23.000000,84.000000,0.000000:
// measure 0
00000000
00000000
00000000
00000000
,  // measure 1
00000000
00000000
00000000
00000000
,  // measure 2
11000000
00000000
00120000
00000000
01030000
00001000
00000000
00010000
,  // measure 3
00000000
00000000
00000100
00000000
00001000
00000000
00000001
00000000
00000010
00000000
00000000
00000000
MM000000
00000000
00000001
00000100
,  // measure 4
00001000
00010000
00100000
00010000
00001000
00000100
00000001
00000100
00000010
00000100
00000001
00000000
MM000011
00000000
00000000
00000000
,  // measure 5
00000000
00000000
00000001
00000000
00000100
00000010
00001000
00000000
,  // measure 6
00000100
00010000
00001000
00000000
01000000
00000000
00100000
00000000
,  // measure 7
00010000
00100000
10000000
00000000
00010000
00100000
01000000
00000000
,  // measure 8
10000000
00100000
00010000
00000000
00100000
00000000
01000000
00000000
,  // measure 9
00001000
00000000
00010000
00000000
00000100
00001000
00000100
00000000
,  // measure 10
00000010
00000000
00000001
00000000
00000100
00000001
00000100
00000000
,  // measure 11
00000010
00000000
00010000
00000000
00001000
01000000
00010000
00000000
,  // measure 12
00100000
10000000
00100000
00000000
00001000
00000000
00010000
00000000
,  // measure 13
00000100
00000000
00001000
00000000
00000010
00010000
00001000
00000000
,  // measure 14
00100000
00000000
0011MMMM
00000000
00010000
00000000
00010000
01000000
,  // measure 15
00100000
00000000
00100000
00010000
00001000
00000000
00000100
00000000
,  // measure 16
MMMM1010
00000002
00000000
00000103
,  // measure 17
00000001
00000100
00000020
00000000
,  // measure 18
00001030
00000100
00010000
00000000
00002000
00000000
00000000
00000000
,  // measure 19
01003000
00010000
01000000
00010000
00200000
00000000
00000000
00000000
,  // measure 20
01300000
00010000
00000020
00000000
,  // measure 21
00000030
00000010
00000010
00000100
,  // measure 22
00000100
00000000
00000000
00000000
00000001
00000000
00000000
00000000
00000001
00000000
00000000
00000000
MM000010
00000000
00000100
00010000
,  // measure 23
00001000
00000000
01000000
00000000
0010MMMM
00000000
00100000
10000000
01000000
01000000
10000000
00010000
01000000
00100000
00000000
00100000
,  // measure 24
10000000
00100000
01000000
00010000
10000000
00000000
00000000
01000000
10000000
00010000
01000000
00000000
01000000
00100000
00000000
10000000
,  // measure 25
01000000
00000000
00100000
00000000
001100MM
00000000
MM001010
00001000
00000010
00000010
00000001
00000010
00000010
00000100
00000000
00000001
,  // measure 26
00001000
00000100
00000010
00000100
00000100
00000000
00000000
00001000
00000100
00000010
00000001
00000100
00000010
00000000
MM001000
00000000
,  // measure 27
00000000
00000000
00000100
00000000
00010000
00001000
00010000
00000000
00100000
00000000
01000000
00100000
01000000
00100000
01000000
00010000
,  // measure 28
10000000
01000000
00100000
00001000
00010000
00000010
00000100
00000001
,  // measure 29
00001000
00000100
00010000
00001000
01000000
00100000
00010000
00100000
,  // measure 30
01000000
00001000
00010000
00000100
00000010
00000000
00000010
00001000
,  // measure 31
00000000
00000001
00000100
00000000
00001000
00010100
00010100
00000000
,  // measure 32
00000100
00000010
00000100
00010000
00001000
01000000
00100000
10100000
,  // measure 33
00000000
00010000
01000000
00001000
00010000
00000100
00000010
00000100
,  // measure 34
00010000
00001000
00110000
00000000
00001000
00010000
00001010
00000000
,  // measure 35
00000001
00000000
00000100
00000010
00010000
00000000
00001000
01000000
00100000
00000000
01000000
00000000
01000000
00001000
01000000
00001000
,  // measure 36
00010000
00000000
01001000
00000000
01000000
00100000
10000000
01000000
,  // measure 37
00000000
01100000
02000000
00100000
00000000
03100000
00002000
00010000
,  // measure 38
00000000
00013000
00000020
00001000
00000000
00001030
00000200
00000001
,  // measure 39
00000000
00000301
00000100
00001000
00000010
00010000
00002000
00000000
,  // measure 40
020030MM
00100000
00100000
03002000
00010000
00010000
00003200
00000010
,  // measure 41
00000010
00000000
00000302
00000000
00000000
00000000
MMMM0000
00000000
0MM01003
00000000
00000100
00010000
00000100
00010000
00001000
00000000
,  // measure 42
00000000
00000000
01000000
00001000
01000000
00001000
00010000
00000000
00000000
00000000
01000000
00000000
10000000
01000000
10000000
00000000
,  // measure 43
00010000
00100000
00010000
00000000
00100000
00001000
00010000
00000100
00001000
00000000
00000010
00000000
00001000
00000000
00000100
00000000
,  // measure 44
00000100
00000010
00000001
00000100
00000100
00001000
00010000
01000000
,  // measure 45
01000000
00000000
10000000
00000000
00010000
00000000
00010000
00000000
100000MM
00100000
00010000
00001000
00000100
00001000
00010000
00100000
,  // measure 46
10000000
00000000
01000000
00000000
00010000
00000000
00001000
00000000
00000010
00000000
00000001
00000010
00000001
00000010
00000001
00000010
MM000001
00000000
00000000
00000000
00000000
00000000
00000000
00000000
00000100
00000000
00000000
00000000
00000000
00000000
00000000
00000000
,  // measure 47
00000010
00001000
00000100
00010010
,  // measure 48
00010000
00001000
01000000
00010000
,  // measure 49
10100000
01000000
00101000
00001000
,  // measure 50
00010000
00000000
01000000
00000000
00100000
00000000
00010000
00100000
,  // measure 51
00010000
00000000
01000000
00000000
00100000
00000000
00010000
00100000
,  // measure 52
00010000
10000000
01000000
00001000
,  // measure 53
00010000
00000000
00000010
00000000
00000100
00000000
00000001
00000100
,  // measure 54
00000001
00000000
00000001
00000100
00000001
00000000
00000010
00000000
,  // measure 55
00000100
00001000
00000010
00010100
,  // measure 56
00000100
00010000
00001000
00100000
,  // measure 57
11000000
00100000
01001000
00010000
,  // measure 58
00001000
00000000
00000010
00000000
00000001
00000000
00000100
00000001
,  // measure 59
00000100
00000000
00000010
00001000
00000010
00000000
00010000
00000000
,  // measure 60
00001000
00000000
00102000
00000000
00000000
00000000
M100000M
M010000M
,  // measure 61
M002300M
M000001M
M000010M
M000001M
M003100M
00000000
10000000
00000000
,  // measure 62
01000000
00100000
00010000
00000000
01000000
00001000
00010000
00000000
,  // measure 63
01000000
00100000
00001000
00010000
,  // measure 64
00000100
00000110
00000001
00001001
,  // measure 65
00001000
00000010
00010000
01000000
,  // measure 66
00100000
00010000
01000000
00100000
,  // measure 67
10100000
00100000
01000000
01001000
,  // measure 68
00010000
00010100
00001000
02001000
,  // measure 69
03100000
01000000
00100000
00000000
00100000
01000000
00100000
00000000
,  // measure 70
10000000
01000000
00010000
00001000
,  // measure 71
00000100
00000001
00000010
00000110
,  // measure 72
00001100
00010100
00001100
00000120
,  // measure 73
00000031
00000100
00000010
00010000
,  // measure 74
00001000
01000000
00100000
10000000
,  // measure 75
01000000
00100000
00021000
00000000
,  // measure 76
M000010M
M000001M
M000010M
M003200M
M100000M
M010000M
M100000M
00000000
,  // measure 77
00013000
01000000
10000000
01000000
,  // measure 78
00010000
00001000
00010000
00001000
,  // measure 79
00000100
00000001
00000100
00001000
,  // measure 80
00010000
00000000
00000010
00010000
00000010
00000000
00001000
00000001
,  // measure 81
00001000
00000010
00000001
00000010
,  // measure 82
00001000
00010000
00100000
10000000
,  // measure 83
00100000
01000000
10000000
00010000
,  // measure 84
00100000
00000000
00001000
00010000
00001000
00000000
00010000
00001000
,  // measure 85
00010000
00000100
00000001
00000100
,  // measure 86
00010000
00001000
01000000
10000000
,  // measure 87
01000000
00001000
00010000
00001000
,  // measure 88
00100000
01000000
10000000
00010000
,  // measure 89
00100000
00000000
00010000
01000000
00001000
00000000
00010000
00000100
,  // measure 90
00001000
00000010
00010000
00012000
,  // measure 91
00000000
00000000
M100000M
M100000M
M010000M
M002300M
M000001M
M000001M
,  // measure 92
M000010M
00031000
00000000
01010000
,  // measure 93
00000000
10100000
10000000
00000000
,  // measure 94
11000000
00000000
00110000
00100000
,  // measure 95
00001000
00010000
00000100
00000010
,  // measure 96
00000000
00000011
00000000
00001100
,  // measure 97
00000000
00001000
00000001
00000000
,  // measure 98
00000101
00000000
00001010
00000010
,  // measure 99
00010000
00001000
00000000
MMMMMM11
;
