#VERSION:0.83;
#TITLE:Young Love Rock'n'Roll;
#SUBTITLE:(English Version);
#ARTIST:Tsunku;
#TITLETRANSLIT:;
#SUBTITLETRANSLIT:;
#ARTISTTRANSLIT:;
#GENRE:FROG HOP;
#ORIGIN:;
#CREDIT:;
#BANNER:;
#BACKGROUND:;
#PREVIEWVID:;
#JACKET:;
#CDIMAGE:;
#DISCIMAGE:;
#LYRICSPATH:;
#CDTITLE:cdtitle.png;
#MUSIC:youngloverockandroll.ogg;
#OFFSET:-0.434762;
#SAMPLESTART:77.166000;
#SAMPLELENGTH:12.500000;
#SELECTABLE:YES;
#BPMS:0.000=155.991;
#STOPS:;
#DELAYS:;
#WARPS:;
#TIMESIGNATURES:0.000=4=4;
#TICKCOUNTS:0.000=4;
#COMBOS:0.000=1;
#SPEEDS:0.000=1.000=0.000=0;
#SCROLLS:0.000=1.000;
#FAKES:;
#LABELS:0.000=Song Start;
#BGCHANGES:;
#KEYSOUNDS:;
#ATTACKS:
;

//---------------dance-single - ----------------
#NOTEDATA:;
#CHARTNAME:;
#STEPSTYPE:dance-single;
#DESCRIPTION:;
#CHARTSTYLE:;
#DIFFICULTY:Hard;
#METER:9;
#RADARVALUES:0.446495,0.560570,0.253618,0.298374,0.000000,419.000000,385.000000,34.000000,40.000000,0.000000,0.000000,0.000000,0.000000,0.000000,0.446495,0.560570,0.253618,0.298374,0.000000,419.000000,385.000000,34.000000,40.000000,0.000000,0.000000,0.000000,0.000000,0.000000;
#CREDIT:TonyAkita;
#NOTES:
// measure 0
0000
0000
0000
0000
,  // measure 1
0000
0000
0000
0000
,  // measure 2
0000
0000
0000
0000
,  // measure 3
0000
0000
0000
0000
,  // measure 4
0000
0000
0000
0000
,  // measure 5
0000
0000
0000
0000
,  // measure 6
0000
0000
0000
0000
,  // measure 7
2000
0001
0001
3010
,  // measure 8
1000
0010
0001
0010
1000
0010
0100
0000
,  // measure 9
0101
0000
0001
0010
0000
1000
0010
0000
,  // measure 10
0001
0100
1000
0100
0001
0100
0010
0000
,  // measure 11
1010
0000
1000
0001
0000
0010
0100
0000
,  // measure 12
1000
0010
1000
0100
1000
0010
0100
0000
,  // measure 13
0101
0000
1000
0100
0000
0010
0001
0000
,  // measure 14
0100
0001
0010
0001
0100
0010
1000
0000
,  // measure 15
0011
0000
1000
0010
0000
0001
0010
0000
,  // measure 16
2000
0000
3020
0000
0230
0000
0301
0010
,  // measure 17
0001
0000
1000
0001
1000
0000
0001
0000
,  // measure 18
0100
1000
0100
1001
,  // measure 19
1000
1000
0001
0001
0010
0010
0100
0100
,  // measure 20
1000
0100
0010
0100
0001
0100
0010
0000
,  // measure 21
1100
0000
0001
0100
0000
1000
0100
0000
,  // measure 22
0001
0100
0010
1000
0001
0010
0100
0000
,  // measure 23
1100
0000
1000
0001
0000
0100
0010
0000
,  // measure 24
1000
0010
0100
0010
0001
0010
0100
0000
,  // measure 25
1010
0000
0001
0010
0000
1000
0010
0000
,  // measure 26
0001
0010
0100
1000
0001
0100
0010
0000
,  // measure 27
1010
0000
1000
0001
0000
0010
0100
0000
,  // measure 28
2000
0000
3020
0000
0230
0000
0301
0010
,  // measure 29
0001
0000
1000
0001
1000
0000
0001
0000
,  // measure 30
0100
1000
0100
0101
,  // measure 31
1000
1000
0100
0100
0010
0010
0001
0001
,  // measure 32
2000
0000
0000
0001
0000
3010
0100
0010
,  // measure 33
0200
0001
1300
0000
,  // measure 34
0002
0000
0000
1000
0000
0000
0013
0100
,  // measure 35
1100
1001
0101
0000
,  // measure 36
0002
0000
0000
1000
0000
0013
0100
0010
,  // measure 37
0200
0000
1000
0000
0301
0000
1000
0100
,  // measure 38
0000
0010
0001
0010
0011
0000
0001
0100
,  // measure 39
0000
0010
1000
0010
1010
0000
1000
0001
,  // measure 40
0000
0010
0100
0010
0110
0000
1000
0000
,  // measure 41
0002
0203
2300
3020
,  // measure 42
0031
0000
1000
0000
0001
0000
0010
0100
,  // measure 43
1000
0000
0001
0100
0000
1000
0100
0000
,  // measure 44
0101
0000
0001
0010
0100
0000
1100
0000
,  // measure 45
1001
0001
0011
0000
1100
1000
1001
0000
,  // measure 46
1000
0000
0001
0000
1000
0000
0010
0100
,  // measure 47
0001
0000
1000
0100
0000
0001
0100
0000
,  // measure 48
1000
0010
0100
0001
,  // measure 49
2000
3200
0302
0023
,  // measure 50
1030
0000
0010
0000
0001
0000
0010
1000
,  // measure 51
0100
0000
0010
0001
0000
1000
0010
0000
,  // measure 52
0110
0000
0100
0001
1000
0000
1001
0000
,  // measure 53
1000
0100
1000
0100
0010
0000
0010
0001
,  // measure 54
0010
0000
0001
1000
0001
0000
1000
0001
,  // measure 55
1000
0000
0010
1000
0010
0000
0110
0000
,  // measure 56
0002
0000
0000
0100
0000
0000
0100
0000
,  // measure 57
0203
0000
0000
1000
0000
0000
1000
0000
,  // measure 58
2300
0000
0000
0100
0000
0000
0100
0000
,  // measure 59
3200
0000
0000
0010
0000
0000
0310
0000
,  // measure 60
1000
0100
0001
0010
0000
0001
0100
1000
,  // measure 61
0001
0100
1000
0010
0000
1000
0100
0001
,  // measure 62
1000
0100
0010
0001
0000
0010
0100
1000
,  // measure 63
0002
0203
2300
3020
,  // measure 64
0031
0000
0100
0000
0001
0000
0010
0100
,  // measure 65
1000
0000
0001
0100
0000
1000
0100
0000
,  // measure 66
0101
0000
0001
0010
0100
0000
1100
0000
,  // measure 67
1001
0001
0101
0000
1010
1000
1001
0000
,  // measure 68
1000
0000
0100
0000
1000
0000
0010
0100
,  // measure 69
0001
0000
1000
0100
0000
0001
0100
0000
,  // measure 70
1000
0010
0100
0001
,  // measure 71
2000
3200
0302
0023
,  // measure 72
1030
0000
0010
0000
0001
0000
0010
1000
,  // measure 73
0100
0000
0010
0001
0000
1000
0010
0000
,  // measure 74
0110
0000
0100
0001
1000
0000
1001
0000
,  // measure 75
1000
0100
1000
0100
0010
0000
0010
0001
,  // measure 76
0010
0000
0001
1000
0001
0000
1000
0001
,  // measure 77
1000
0000
0010
1000
0010
0000
0110
0000
,  // measure 78
0002
0000
0000
0010
0000
0000
0010
0000
,  // measure 79
0023
0000
0000
0100
0000
0000
0100
0000
,  // measure 80
0230
0000
0000
1000
0000
0000
1300
0000
,  // measure 81
0002
0203
2300
3020
,  // measure 82
0032
0000
0000
0000
,  // measure 83
0000
0000
0003
0000
;

//---------------dance-single - ----------------
#NOTEDATA:;
#CHARTNAME:;
#STEPSTYPE:dance-single;
#DESCRIPTION:;
#CHARTSTYLE:;
#DIFFICULTY:Medium;
#METER:8;
#RADARVALUES:0.369770,0.435999,0.044756,0.007459,0.000000,347.000000,341.000000,6.000000,1.000000,0.000000,0.000000,0.000000,0.000000,0.000000,0.369770,0.435999,0.044756,0.007459,0.000000,347.000000,341.000000,6.000000,1.000000,0.000000,0.000000,0.000000,0.000000,0.000000;
#CREDIT:TonyAkita;
#NOTES:
0000
0000
0000
0000
,
0000
0000
0000
0000
,
0000
0000
0000
0000
,
0000
0000
0000
0000
,
0000
0000
0000
0000
,
0000
0000
0000
0000
,
0000
0000
0000
0000
,
0010
0010
0010
0010
,
1000
0100
0001
0100
,
1000
0000
0010
0001
0000
0000
0010
0100
,
0001
0100
1000
0100
,
0001
0000
0010
1000
0000
0000
0010
0100
,
1000
0010
1000
0100
,
0010
0000
0001
1000
0000
0000
0010
0100
,
0001
0010
0001
0100
,
0010
0000
1000
0001
0000
0000
0010
0100
,
1000
0000
0001
0000
1000
0000
0010
0100
,
0010
0000
1000
0001
1000
0000
0000
0000
,
0101
1100
0101
0001
,
1000
0100
0001
0000
0001
0010
1000
0000
,
1000
0100
0010
0100
,
1000
0000
0100
0010
0000
0000
0001
1000
,
0001
0100
0010
0100
,
0001
0000
0100
0010
0000
0000
1000
0001
,
0010
0001
1000
0001
,
0010
0000
0100
0001
0000
0000
0100
1000
,
0010
1000
0001
1000
,
0010
0000
0100
1000
0000
0000
0100
0001
,
0010
0000
0001
0000
1000
0000
0010
0100
,
0010
0000
1000
0001
1000
0000
0000
0000
,
1010
0011
1010
0001
,
1000
0010
0001
0000
0001
0100
1000
0000
,
0001
0010
0001
0100
,
1000
0100
0001
0100
,
0010
1000
0100
1000
,
0010
0001
0010
1000
,
0001
0010
0100
1000
,
0001
0000
1000
0000
0010
0000
0100
0001
,
0000
0000
1000
0100
0000
0000
0010
0001
,
0000
0000
1000
0010
0000
0000
0010
0100
,
0000
0000
0001
1000
0000
0000
0000
0000
,
0001
0100
1000
0000
1000
0010
0001
0000
,
0001
1000
0001
0010
,
0100
0000
0001
0100
0000
0000
1000
0100
,
0010
0001
1000
0010
,
0100
0010
0100
0000
0010
1000
0010
0000
,
1000
0001
1000
0010
,
0100
0000
1000
0100
0000
0000
0001
0100
,
0010
1000
0001
1000
,
0001
0100
1000
0000
1000
0010
0001
0000
,
0001
1000
0001
0010
,
0100
0000
0001
0100
0000
0000
1000
0100
,
0010
0001
1000
0010
,
0100
0000
0001
0000
1000
0000
0001
0010
,
0001
0000
1000
0001
1000
0000
0010
1000
,
0010
0000
1000
0001
1000
0000
0000
0000
,
0001
0100
1000
0100
,
0001
0010
1000
0010
,
0001
0100
0010
1000
,
0001
0010
0100
1000
,
0010
0000
0100
0001
0000
0000
1000
0100
,
0000
0000
0010
0001
0000
0000
1000
0010
,
0000
0000
0010
0100
0000
0000
0001
1000
,
0001
0100
1000
0000
1000
0010
0001
0000
,
0001
1000
0001
0010
,
0100
0000
0001
0100
0000
0000
1000
0100
,
0010
0001
1000
0010
,
0100
0010
0100
0000
0010
1000
0010
0000
,
1000
0001
1000
0010
,
0100
0000
1000
0100
0000
0000
0001
0100
,
0010
1000
0001
1000
,
0001
0100
1000
0000
1000
0010
0001
0000
,
0001
1000
0001
0010
,
0100
0000
0001
0100
0000
0000
1000
0100
,
0010
0001
1000
0010
,
0100
0000
0001
0000
1000
0000
0001
0010
,
0001
0000
1000
0001
1000
0000
0010
1000
,
0010
0000
1000
0001
1000
0000
0000
0000
,
0001
0100
1000
0100
,
0001
0010
1000
0010
,
0001
0100
0010
1000
,
0001
0010
1000
0000
1000
0100
0001
0000
,
0002
0000
0000
0000
,
0000
0000
0003
0000
;

//---------------dance-single - ----------------
#NOTEDATA:;
#CHARTNAME:;
#STEPSTYPE:dance-single;
#DESCRIPTION:;
#CHARTSTYLE:;
#DIFFICULTY:Easy;
#METER:4;
#RADARVALUES:0.258946,0.311428,0.320752,0.104431,0.000000,243.000000,200.000000,43.000000,14.000000,0.000000,0.000000,0.000000,0.000000,0.000000,0.258946,0.311428,0.320752,0.104431,0.000000,243.000000,200.000000,43.000000,14.000000,0.000000,0.000000,0.000000,0.000000,0.000000;
#CREDIT:TonyAkita;
#NOTES:
0000
0000
0000
0000
,
0000
0000
0000
0000
,
0000
0000
0000
0000
,
0000
0000
0000
0000
,
0000
0000
0000
0000
,
0000
0000
0000
0000
,
0000
0000
0000
0000
,
0000
0000
0000
0000
,
0000
1000
0010
1000
,
0000
0000
0110
0000
0000
1001
0000
0000
,
0000
0001
0010
0001
,
0000
0000
0110
0000
0000
1100
0000
0000
,
0000
0100
1000
0010
,
0000
0000
0110
0000
0000
0101
0000
0000
,
0000
0100
0001
0010
,
0000
0000
0110
0000
0000
1001
0000
0000
,
1000
0100
0001
0010
,
2000
0000
3001
0000
,
0001
0100
1000
0100
,
0010
0010
0010
0010
,
0000
1000
0010
0001
,
0000
0000
1010
0000
0000
0110
0000
0000
,
0000
0001
0100
1000
,
0000
0000
0101
0000
0000
0110
0000
0000
,
0000
1000
0100
0001
,
0000
0000
1100
0000
0000
0110
0000
0000
,
0000
0001
0010
1000
,
0000
0000
0011
0000
0000
0110
0000
0000
,
1000
0100
0001
0010
,
2000
0000
3001
0000
,
0001
0100
1000
0100
,
0010
0010
0010
0010
,
0020
0000
0000
0030
,
1000
0000
0001
0000
,
0200
0000
0000
0300
,
0001
0010
0100
0000
,
2000
0000
0000
3000
,
0001
0000
0010
0000
,
0100
0100
1001
0000
,
0010
0010
1001
0000
,
1000
0100
0001
0100
,
0010
0010
0010
0010
,
0001
0100
0001
0010
,
0100
0000
1001
0000
,
1000
0100
1000
0010
,
0100
0000
1001
0000
,
0001
0100
1000
0100
,
0001
0000
1001
0000
,
0001
0010
1000
0010
,
0001
0000
1001
0000
,
1000
0100
0010
0100
,
1000
0000
1001
0000
,
0001
0100
0010
0100
,
0001
0000
1001
0000
,
0000
1010
1100
0000
,
0000
0011
0101
0000
,
0002
0000
0003
1000
,
2000
0000
3000
0010
,
0020
0000
0030
0100
,
0200
0000
0000
0300
,
0000
0101
0000
1100
,
0000
0011
0000
1010
,
0000
0001
0000
1000
,
0010
0010
0010
0010
,
1000
0100
1000
0010
,
0100
0000
1001
0000
,
0001
0100
0001
0010
,
0100
0000
1001
0000
,
1000
0100
0001
0100
,
1000
0000
1001
0000
,
1000
0010
0001
0010
,
1000
0000
1001
0000
,
0001
0100
0010
0100
,
0001
0000
1001
0000
,
1000
0100
0010
0100
,
1000
0000
1001
0000
,
0000
1100
1010
0000
,
0000
0101
0011
0000
,
0002
0000
0003
1000
,
2000
0000
3000
0010
,
0020
0000
0030
0100
,
0100
0100
0100
0100
,
2002
0000
0000
0000
,
0000
0000
3003
0000
;

//---------------dance-single - ----------------
#NOTEDATA:;
#CHARTNAME:;
#STEPSTYPE:dance-single;
#DESCRIPTION:;
#CHARTSTYLE:;
#DIFFICULTY:Beginner;
#METER:3;
#RADARVALUES:0.133203,0.214083,0.082053,0.052215,0.000000,125.000000,114.000000,11.000000,7.000000,0.000000,0.000000,0.000000,0.000000,0.000000,0.133203,0.214083,0.082053,0.052215,0.000000,125.000000,114.000000,11.000000,7.000000,0.000000,0.000000,0.000000,0.000000,0.000000;
#CREDIT:TonyAkita;
#NOTES:
0000
0000
0000
0000
,
0000
0000
0000
0000
,
0000
0000
0000
0000
,
0000
0000
0000
0000
,
0000
0000
0000
0000
,
0000
0000
0000
0000
,
0000
0000
0000
0000
,
0000
0000
0000
0000
,
1000
0000
0001
0000
,
1001
0000
0000
0000
,
0001
0000
1000
0000
,
1001
0000
0000
0000
,
0010
0000
0100
0000
,
0110
0000
0000
0000
,
0100
0000
0010
0000
,
0110
0000
0000
0000
,
0001
0001
0001
0001
,
0001
0000
0000
0000
,
1001
0000
0000
0000
,
1000
1000
1000
0000
,
0010
0000
0100
0000
,
1001
0000
0000
0000
,
0100
0000
0010
0000
,
1001
0000
0000
0000
,
0001
0000
1000
0000
,
0110
0000
0000
0000
,
1000
0000
0001
0000
,
0110
0000
0000
0000
,
1000
1000
1000
1000
,
1000
0000
0000
0000
,
1001
0000
0000
0000
,
0001
0001
0001
0000
,
0200
0000
0000
0000
,
0300
0000
0010
0000
,
0020
0000
0000
0000
,
0030
0000
0100
0000
,
0002
0000
0000
0000
,
0003
0000
1000
0000
,
0000
0001
0001
0000
,
0000
0010
0010
0000
,
0000
0001
0001
0000
,
0100
0000
0010
0000
,
1000
0000
0001
0000
,
1000
0000
0000
0000
,
0010
0000
0100
0000
,
0010
0000
0000
0000
,
1000
0000
0010
0000
,
1000
0000
0000
0000
,
0001
0000
0100
0000
,
0001
0000
0000
0000
,
0001
0000
0010
0000
,
0001
0000
0000
0000
,
1000
0000
0100
0000
,
1000
0000
0000
0000
,
0000
0001
0001
0000
,
0000
1000
1000
0000
,
0020
0000
0000
0000
,
0030
0000
0000
0000
,
0200
0000
0000
0000
,
0300
0000
0000
0000
,
0000
0001
0000
0001
,
0000
1000
0000
1000
,
0000
0010
0000
0100
,
0000
0010
0010
0000
,
1000
0000
0001
0000
,
1000
0000
0000
0000
,
0100
0000
0010
0000
,
0100
0000
0000
0000
,
1000
0000
0100
0000
,
1000
0000
0000
0000
,
0001
0000
0010
0000
,
0001
0000
0000
0000
,
0001
0000
0100
0000
,
0001
0000
0000
0000
,
1000
0000
0010
0000
,
1000
0000
0000
0000
,
0000
0010
0010
0000
,
0000
0100
0100
0000
,
0002
0000
0000
0000
,
0003
0000
0000
0000
,
2000
0000
0000
0000
,
3000
0000
0001
0000
,
1001
0000
0000
0000
;
