#VERSION:0.83;
#TITLE:一剪梅;
#SUBTITLE:Why the center panel is my favorite (ITG DOM);
#ARTIST:費玉清;
#TITLETRANSLIT:Yi Jian Mei;
#SUBTITLETRANSLIT:;
#ARTISTTRANSLIT:Fei Yu-ching;
#GENRE:mandopop;
#ORIGIN:;
#CREDIT:;
#BANNER:banner.png;
#BACKGROUND:bg.png;
#PREVIEWVID:;
#JACKET:;
#CDIMAGE:;
#DISCIMAGE:;
#LYRICSPATH:;
#CDTITLE:;
#MUSIC:session.ogg;
#OFFSET:-6.714000;
#SAMPLESTART:6.714000;
#SAMPLELENGTH:8.000000;
#SELECTABLE:YES;
#BPMS:0.000=71.500,
2.000=35.750,
3.000=143.000,
22.000=71.500,
24.000=143.000,
94.000=71.500,
107.000=143.000;
#STOPS:4.000=0.420,
8.000=0.420,
14.000=0.210,
15.000=0.210,
17.000=0.420,
20.000=0.420,
22.000=0.210,
22.250=0.210,
22.500=0.210,
22.750=0.210,
23.000=0.210,
23.250=0.210,
23.500=0.210,
23.750=0.210,
30.000=0.420,
36.000=0.420,
39.000=0.420,
42.000=0.420,
48.000=0.839,
56.000=0.420,
62.000=0.420,
65.000=0.420,
72.000=0.420,
98.000=0.839;
#DELAYS:;
#WARPS:;
#TIMESIGNATURES:0.000=4=4;
#TICKCOUNTS:0.000=4;
#COMBOS:0.000=1;
#SPEEDS:0.000=1.000=0.000=0;
#SCROLLS:0.000=1.000;
#FAKES:;
#LABELS:0.000=Song Start;
#BGCHANGES:0.000=output.webm=1.000=0=0=0=StretchNoLoop====,
99999=-nosongbg-=1.000=0=0=0 // don't automatically add -songbackground-
;
#KEYSOUNDS:;
#ATTACKS: TIME=35.25:LEN=1.68:MODS=RandomVanish, Overhead, Uswcelett;

//---------------dance-single - ----------------
#NOTEDATA:;
#CHARTNAME:;
#STEPSTYPE:dance-single;
#DESCRIPTION:;
#CHARTSTYLE:;
#DIFFICULTY:Hard;
#METER:11;
#RADARVALUES:0.225673,0.334990,0.013980,1.230219,0.027960,113.000000,112.000000,1.000000,88.000000,0.000000,3.000000,0.000000,0.000000,0.000000,0.225673,0.334990,0.013980,1.230219,0.027960,113.000000,112.000000,1.000000,88.000000,0.000000,3.000000,0.000000,0.000000,0.000000;
#CREDIT:;
#NOTES:
// measure 0
0000
0000
0000
2000
,  // measure 1
0002
0000
3013
0000
0200
0320
0230
0320
,  // measure 2
2030
3020
0230
0320
,  // measure 3
2030
0000
3200
0302
0203
0000
0000
0000
,  // measure 4
0302
0203
0300
2000
,  // measure 5
3200
0320
0032
2003
,  // measure 6
3020
0000
0230
0300
0200
0300
0002
0000
,  // measure 7
0203
0320
0230
0320
0230
0000
0320
0000
,  // measure 8
2030
0000
3020
0000
2030
0000
3020
0230
,  // measure 9
0320
0000
0000
0000
0000
0000
0000
0000
0000
0000
0000
0000
0000
0000
0000
0000
0000
0000
0000
0000
0000
0000
0000
0000
0000
0000
0000
0000
0000
0000
0000
0000
0000
0000
0000
0000
0000
0000
0000
0000
0000
0000
0000
0000
0000
0000
0000
0000
0000
0000
0000
0000
0000
0000
0000
0000
0000
0000
0000
0000
0000
0000
0000
0000
0000
0000
0000
0000
0000
0000
0000
0000
0000
0000
0000
0000
0000
0000
0000
0000
0000
0000
0000
0000
0000
0000
0000
0000
0000
0000
0000
0000
0000
0000
0000
0000
2030
0000
0000
0000
0000
0000
0000
0000
0000
0000
0000
0000
0000
0000
0000
0000
0000
0000
0000
0000
0000
0000
0000
0000
0000
0000
0000
0000
0000
0000
0000
0000
0000
0000
0000
0000
0000
0000
0000
0000
0000
0000
0000
0000
0000
0000
0000
0000
0200
3000
0000
0000
0000
0000
0000
0000
0000
0000
0000
0000
0000
0000
0000
0000
0000
0000
0000
0000
0000
0000
0000
0000
0000
0000
0000
0000
0000
0000
0000
0000
0000
0000
0000
0000
0000
0000
0000
0000
0000
0000
0000
0000
0000
0000
0000
0000
,  // measure 10
0000
0000
0000
0000
0000
0000
0000
0000
0000
0000
0000
0000
0000
0000
0000
0000
0000
0000
0000
0000
0000
0000
0000
0000
0000
0000
0000
0000
0000
0000
0000
0000
0000
0000
0000
0000
0000
0000
0000
0000
0000
0000
0000
0000
0000
0000
0000
0000
0002
0000
0000
0000
0000
0000
0000
0000
0000
0000
0000
0000
0000
0000
0000
0000
0000
0000
0000
0000
0000
0000
0000
0000
0300
0000
0000
0000
0000
0000
0000
0000
0000
0000
0000
0000
0000
0000
0000
0000
0000
0000
0000
0000
0000
0000
0000
0000
0020
0003
0000
0000
0000
0000
0000
0000
0000
0000
0000
0000
0000
0000
0000
0000
0000
0000
0000
0000
0000
0000
0000
0000
0000
0000
0000
0000
0000
0000
0000
0000
0000
0000
0000
0000
0000
0000
0000
0000
0000
0000
0000
0000
0000
0000
0000
0000
0230
0000
0000
0000
0000
0000
0000
0000
0000
0000
0000
0000
0000
0000
0000
0000
0000
0000
0000
0000
0000
0000
0000
0000
0000
0000
0000
0000
0000
0000
0000
0000
0000
0000
0000
0000
0000
0000
0000
0000
0000
0000
0000
0000
0000
0000
0000
0000
,  // measure 11
0000
0300
0200
0000
0000
0000
0000
0000
,  // measure 12
0320
0000
0230
2300
,  // measure 13
3200
0000
0320
0000
0032
2003
3020
0230
,  // measure 14
0302
0003
0200
0300
0200
0300
0200
0000
,  // measure 15
0000
0020
2330
3020
2030
0000
0001
0000
,  // measure 16
0002
0000
3203
0000
0300
0000
0001
0010
,  // measure 17
1000
0100
0000
0000
0000
0000
0200
0000
,  // measure 18
0302
0000
0000
0000
1003
0100
0001
0010
,  // measure 19
0000
0000
1001
0000
,  // measure 20
0000
0002
0203
0000
,  // measure 21
0300
2000
3002
0000
,  // measure 22
0010
0010
0013
0000
0100
0100
0010
0000
,  // measure 23
1000
0000
0000
0000
0001
0000
0000
0000
1000
0000
0020
0000
0000
0030
0020
0230
,  // measure 24
2300
3200
0320
0230
2300
0000
3001
0100
,  // measure 25
0010
0000
2000
3000
2000
0000
0200
3000
0000
0000
0320
0032
0023
0000
0230
0000
,  // measure 26
2300
3020
2030
3100
0002
0000
0203
0000
0000
0000
0300
0000
0000
0000
0000
0000
;
