#VERSION:0.83;
#TITLE:Yes OK;
#SUBTITLE:;
#ARTIST:she;
#TITLETRANSLIT:;
#SUBTITLETRANSLIT:;
#ARTISTTRANSLIT:;
#GENRE:;
#ORIGIN:;
#CREDIT:loodee;
#BANNER:bn-slim.png;
#BACKGROUND:bg-wide.png;
#PREVIEWVID:;
#JACKET:jacket.png;
#CDIMAGE:;
#DISCIMAGE:;
#LYRICSPATH:;
#CDTITLE:loodeecdtitle.png;
#MUSIC:music.ogg;
#OFFSET:-0.145000;
#SAMPLESTART:30.143999;
#SAMPLELENGTH:29.997999;
#SELECTABLE:YES;
#BPMS:0.000=128.000;
#STOPS:;
#DELAYS:;
#WARPS:;
#TIMESIGNATURES:0.000=4=4;
#TICKCOUNTS:0.000=4;
#COMBOS:0.000=1;
#SPEEDS:0.000=1.000=0.000=0;
#SCROLLS:0.000=1.000;
#FAKES:;
#LABELS:0.000=Song Start;
#BGCHANGES:;
#KEYSOUNDS:;
#ATTACKS:
;

//---------------dance-single - loodee----------------
#NOTEDATA:;
#CHARTNAME:loodee;
#STEPSTYPE:dance-single;
#DESCRIPTION:loodee;
#CHARTSTYLE:;
#DIFFICULTY:Challenge;
#METER:15;
#RADARVALUES:0.728211,0.796335,0.354121,0.633690,0.796772,547.000000,509.000000,38.000000,68.000000,0.000000,0.000000,5.000000,0.000000,0.000000,0.728211,0.796335,0.354121,0.633690,0.796772,547.000000,509.000000,38.000000,68.000000,0.000000,0.000000,5.000000,0.000000,0.000000;
#CREDIT:loodee;
#NOTES:
// measure 0
0000
0000
0000
0000
,  // measure 1
0000
0000
0000
0000
,  // measure 2
0000
0000
0000
0000
,  // measure 3
0000
0000
0000
0000
,  // measure 4
0002
0000
0000
1003
0000
0000
0100
0000
0200
0300
0000
0010
0000
0000
0200
0000
,  // measure 5
0000
0000
0300
1000
0002
0000
0000
0003
2000
0000
0000
3000
0000
0020
0000
0000
,  // measure 6
0230
0000
0000
0301
0000
0000
1000
0000
2000
3000
0000
0000
0000
0000
0200
0000
,  // measure 7
0000
0300
0000
0020
0000
0000
0130
0000
4000
0000
3000
0000
0000
0000
0000
0000
,  // measure 8
0010
1000
0010
0100
2000
0000
3100
0001
0000
0010
0100
0000
0010
0000
0001
1000
,  // measure 9
0001
0100
0010
0000
0002
0000
0013
0100
0000
0001
1000
0000
0100
0000
0010
0100
,  // measure 10
1000
0001
0010
0100
0002
0000
0103
1000
0000
0001
1000
0000
0010
0000
0100
0010
,  // measure 11
1000
0001
0100
0000
2000
0000
3100
0010
0000
0100
0001
0000
0010
0000
0100
0010
,  // measure 12
0001
0010
0100
0010
2000
0000
3010
0001
0000
1000
0010
0000
0100
0000
0001
0010
,  // measure 13
0001
1000
0010
0000
0002
0000
0013
0100
0000
0010
1000
0000
0001
0000
0010
0100
,  // measure 14
1000
0001
0100
0010
0002
0000
0013
0000
1000
0000
0100
0000
0110
0000
0010
0001
,  // measure 15
1000
0000
1000
0000
0001
0000
1000
0000
2000
0000
0000
3000
0220
0000
0000
0330
,  // measure 16
1001
0000
0000
0000
0001
0000
0000
0000
0101
0000
0000
0000
0010
1000
0010
1000
0010
0000
0000
0000
0100
0000
0000
0000
0101
0000
0000
0000
0001
0000
0000
0000
,  // measure 17
1000
0000
0100
0000
0002
0000
0103
0010
0001
0000
0002
0000
0103
0000
0020
0000
,  // measure 18
1030
0000
0000
0000
0100
0000
0000
0000
1100
0000
0000
0000
1000
0001
1000
0001
1000
0000
0000
0000
0010
0000
0000
0000
0110
0000
0000
0000
0100
0000
0000
0000
,  // measure 19
0001
0000
0001
0010
2000
0000
3010
0100
0010
0000
0001
0000
1001
0000
2000
0000
,  // measure 20
3010
0000
0000
0000
0100
0000
0000
0000
0101
0000
0000
0000
0001
1000
0001
1000
0001
0000
0000
0000
0010
0000
0000
0000
0011
0000
0000
0000
0001
0000
1000
0000
,  // measure 21
0000
1000
0100
0010
2000
0000
3010
0001
0100
0000
0200
0000
0310
0000
2000
0000
,  // measure 22
3001
0000
0000
0000
0010
0000
0000
0000
0110
0000
0000
0000
0100
1000
0100
1000
0100
0000
0000
0000
0010
0000
0000
0000
0011
0000
0000
0000
0001
0000
0000
0000
,  // measure 23
1000
0000
1000
0010
0002
0000
0013
0100
0020
0000
2030
0000
3001
0000
0040
0000
,  // measure 24
0130
1000
0010
0000
0001
0000
0010
0100
0000
0001
0010
0000
0110
0000
0100
1000
,  // measure 25
0000
1000
0010
0000
0001
0000
0010
0100
0001
0010
0100
0000
1100
0000
1000
0001
,  // measure 26
0000
0001
0100
0000
1000
0000
0100
0100
0010
1000
0001
0000
1001
0000
1000
0100
,  // measure 27
0000
0100
0010
0000
1000
0000
0010
0001
0100
0001
0100
0000
0101
0000
0010
0000
,  // measure 28
1000
0001
0100
0000
1000
0000
0100
0010
0000
0100
0001
0000
1001
0000
0001
0100
,  // measure 29
0000
0100
0010
0000
0001
0000
0010
1000
0100
1000
0100
0000
1100
0000
1000
0100
,  // measure 30
0000
0100
0010
0000
1000
0000
0010
0010
0001
1000
0010
0000
0110
0000
0100
0001
,  // measure 31
0000
0001
0100
0000
1000
0000
0100
0010
1000
0000
1000
0000
0200
0000
0320
0000
,  // measure 32
0032
0000
0000
0000
2003
0000
0000
0000
3001
0001
0100
0001
2000
0000
3200
0000
,  // measure 33
0320
0000
0000
0000
0230
0000
0000
0300
1000
1000
0001
1000
0010
0100
0020
0000
,  // measure 34
2030
0000
0000
0000
3001
0020
0000
0030
0100
0001
0100
0010
0002
0000
2003
0000
,  // measure 35
3020
0000
0000
0000
0230
0000
0000
0000
0301
0001
1000
0001
0010
0100
0020
0000
,  // measure 36
0032
0000
0000
0000
2003
0000
0000
3000
0010
0100
0001
1000
0000
1000
0100
0000
,  // measure 37
0020
0000
0000
0000
0230
0000
0000
0000
1300
0001
0010
0100
0000
0100
1000
0000
,  // measure 38
2000
0000
0000
0000
3020
0000
0000
0000
0130
0001
1000
0100
0000
0100
0010
0000
,  // measure 39
0002
0000
0000
0000
0000
0000
0000
0000
1003
0010
0000
0000
0220
0000
0000
0330
,  // measure 40
2000
0000
0000
3000
0000
0000
1000
0100
0010
0100
1000
0001
0100
0200
0000
0000
,  // measure 41
0310
1000
0100
0000
0001
0000
0100
0010
0100
0010
0001
1000
0010
0020
0000
0000
,  // measure 42
0230
0000
0000
0000
0300
0000
0001
0010
0001
1000
0010
1000
0001
0002
0000
0000
,  // measure 43
0013
0100
0010
0000
1000
0000
0010
0001
0100
0010
1000
1000
0004
0000
0000
0000
,  // measure 44
0103
0010
0100
0000
1000
0000
0100
0001
0100
0010
1000
0001
1000
2000
0000
0000
,  // measure 45
3200
0000
0000
0000
0300
0000
0000
0010
0001
0100
0010
0001
0000
0022
0000
0033
,  // measure 46
0220
0000
0000
0030
0000
0300
0000
0001
1000
0100
1000
0010
0100
0200
0000
0000
,  // measure 47
0301
1000
0010
0000
0001
0000
0010
0100
0001
0000
4000
0000
0000
0000
0000
0000
,  // measure 48
3100
0000
0000
0000
0010
0000
0000
0000
0011
0000
0000
0000
0001
1000
0001
1000
0001
0000
0000
0000
0100
0000
0000
0000
0110
0000
0000
0000
0010
0000
1000
0000
,  // measure 49
0001
0000
0000
0000
0010
0000
0000
0000
0110
0000
0000
0000
0100
1000
0100
1000
0100
0000
0000
0000
0010
0000
0000
0000
0011
0000
0000
0000
0001
0000
1000
0000
,  // measure 50
0010
0000
0000
0000
0100
0000
0000
0000
0110
0000
0000
0000
0010
1000
0010
1000
0010
0000
0000
0000
0100
0000
0000
0000
0101
0000
0000
0000
0001
0000
0010
0000
,  // measure 51
0100
0000
0000
0000
1000
0000
0000
0000
1001
0000
0000
0000
0001
0010
0001
0010
0001
0000
0000
0000
1000
0000
0000
0000
1010
0000
0000
0000
0010
0000
0100
0000
,  // measure 52
0001
0000
0000
0000
0100
0000
0000
0000
1001
0000
0000
0000
1000
0100
1000
0100
1000
0000
0000
0000
0001
0000
0000
0000
0011
0000
0000
0000
0010
0000
0100
0000
,  // measure 53
1000
0000
0000
0000
0100
0000
0000
0000
0110
0000
0000
0000
0010
0001
0010
0001
0010
0000
0000
0000
0001
0000
0000
0000
1001
0000
0000
0000
1000
0000
0010
0000
,  // measure 54
0100
0000
0000
0000
0010
0000
0000
0000
1010
0000
0000
0000
1000
0001
1000
0001
1000
0000
0000
0000
0100
0000
0000
0000
0110
0000
0000
0000
0010
0000
0001
0000
,  // measure 55
1000
0000
0000
0000
0010
0000
0000
0000
0110
0000
0000
0000
0100
0001
0100
0001
0100
0000
0000
0000
0010
0000
0000
0000
1010
0000
0000
0000
1000
0000
0100
0000
,  // measure 56
0040
0000
0000
0000
0000
0000
0000
0000
0000
0000
0000
0000
0000
0000
0000
0000
0000
0000
0000
0000
0000
0000
0000
0000
0000
0000
0000
0000
0000
0000
0000
0030
;

//---------------dance-single - loodee----------------
#NOTEDATA:;
#CHARTNAME:loodee;
#STEPSTYPE:dance-single;
#DESCRIPTION:loodee;
#CHARTSTYLE:;
#DIFFICULTY:Hard;
#METER:13;
#RADARVALUES:0.588426,0.583659,0.167741,0.726880,0.479927,442.000000,424.000000,18.000000,78.000000,0.000000,0.000000,2.000000,0.000000,0.000000,0.588426,0.583659,0.167741,0.726880,0.479927,442.000000,424.000000,18.000000,78.000000,0.000000,0.000000,2.000000,0.000000,0.000000;
#CREDIT:loodee;
#NOTES:
0000
0000
0000
0000
,
0000
0000
0000
0000
,
0000
0000
0000
0000
,
0000
0000
0000
0000
,
2000
0000
0000
3001
0000
0000
0010
0000
0020
0030
0000
0100
0000
0000
0020
0000
,
0000
0000
0030
0001
2000
0000
0000
3000
0002
0000
0000
0003
0000
0200
0000
0000
,
0320
0000
0000
1030
0000
0000
0001
0000
0002
0003
0000
0000
0000
0000
0020
0000
,
0000
0030
0000
0200
0000
0000
0310
0000
0004
0000
0003
0000
0000
0000
0000
0000
,
1000
0010
0100
0000
0002
0000
1003
0100
0000
0010
0100
0000
0010
0000
0001
0000
,
1000
0010
0100
0000
0002
0000
1003
0010
0000
1000
0001
0000
0100
0000
0001
0000
,
0010
0100
1000
0000
0020
0000
0130
0001
0000
1000
0001
0000
0010
0000
0100
0000
,
1000
0001
0100
0000
0020
0000
1030
0001
0000
0100
0001
0000
1000
0000
0100
0000
,
1000
0100
0010
0000
0002
0000
1003
0010
0000
0100
0010
0000
1000
0000
0001
0000
,
0010
0100
0010
0000
0002
0000
0103
0010
0000
1000
0010
0000
0100
0000
0001
0000
,
1000
0100
0010
0000
0200
0000
0310
0000
0002
0000
0103
0000
0020
0000
1030
0001
,
2000
0000
0000
0000
0000
0000
0000
3000
2000
0000
0000
3000
1100
0000
0000
0000
,
0210
0000
0000
0000
1300
0000
1000
0100
0010
0000
0001
0000
1000
0000
0010
0000
,
1000
0000
0100
0000
0002
0000
0103
0010
0001
0000
0001
0000
1000
0000
0010
0000
,
0210
0000
0000
0000
0301
0000
1000
0010
0100
0000
0010
0000
1000
0000
0100
0000
,
0010
0000
0001
0100
0020
0000
0130
0000
0002
0000
2003
0000
3100
0000
0010
0000
,
0012
0000
0000
0000
1003
0000
0010
0100
0001
0000
0100
0000
0010
0000
1000
0100
,
0000
0100
0010
0001
2000
0000
3020
0000
0032
0000
0023
0000
0130
0000
0001
0000
,
2001
0000
0000
0000
3100
0000
0010
0001
0010
0000
0001
0000
0100
0000
0010
0000
,
0100
0000
0001
0010
0200
0000
0300
0000
2000
0000
0010
0000
3010
0000
0000
0000
,
0100
0001
0100
0000
0010
0000
1000
0100
0000
0100
1000
0000
0001
0000
0100
0000
,
0010
1000
0001
0000
0010
0000
0100
1000
0000
1000
0001
0000
0100
0000
0010
0000
,
0100
0001
1000
0000
0100
0000
0010
0001
0010
0000
0010
0000
0012
0000
0000
0003
,
0001
1000
0010
0000
0100
0000
0010
1000
0000
1000
0001
0000
0100
0000
0010
0000
,
1000
0100
0010
0000
0001
0000
0100
0010
0000
0010
1000
0000
0001
0000
1000
0000
,
0100
0010
0001
0000
1000
0000
0010
0100
0000
0100
0001
0000
0010
0000
0100
0000
,
1000
0100
0010
0000
0100
0000
1000
0001
1000
0000
1000
0000
1200
0000
0000
0300
,
0100
1000
0001
0000
0100
0000
0010
1000
0001
0000
0001
0000
0001
0000
0010
0000
,
0200
0000
0000
0000
2300
0000
0000
0000
3001
0000
0001
0200
0000
0000
0320
0000
,
2030
0000
0000
0000
3200
0000
0000
0000
0310
0100
1000
0100
0010
0100
1000
0000
,
0002
0000
0000
0000
0203
0000
0000
0000
0310
1000
0010
2000
0000
0000
3002
0000
,
0023
0000
0000
0000
0230
0000
0000
0000
0310
0100
1000
0001
0000
0001
0200
0000
,
0320
0000
0000
0000
2030
0000
0000
0000
3001
0010
0000
0200
0000
0000
0320
0000
,
0032
0000
0000
0000
2003
0000
0000
0000
3010
0100
0010
0000
0100
0000
0002
0000
,
2003
0000
0000
0000
3200
0000
0000
0000
0310
0100
0000
2000
0000
0000
3002
0000
,
0203
0000
0000
0000
0000
0000
0000
0000
0320
0000
0000
0000
2000
0000
0000
3030
,
2002
0000
0000
3003
0000
0000
0001
1000
0001
0010
0100
0010
0001
2000
0000
0000
,
3020
0000
0000
0000
0030
0000
0100
0001
0100
0010
1000
0000
0001
2000
0000
0000
,
3200
0000
0000
0000
0300
0000
0010
0001
0010
0001
1000
0000
0010
2000
0000
0000
,
3001
0100
0001
0000
1000
0000
0100
0010
0000
0001
0010
0000
0001
0000
1000
0000
,
0020
0000
0000
0000
0030
0000
1000
0001
1000
0010
0100
0000
0001
0200
0000
0000
,
0320
0000
0000
0000
0030
0000
0000
1000
0100
1000
0001
0000
0000
0101
0000
0000
,
2002
0000
0000
3000
0000
0000
0003
0010
0100
0010
0001
0000
1000
0002
0000
0000
,
0103
0010
1000
0000
0001
0000
1000
0100
0010
0000
0200
0000
0000
0000
0000
0000
,
1300
0000
0001
0000
1001
0000
1000
0100
0010
0000
0100
0000
0001
0000
0100
0000
,
1000
0000
0001
0000
1001
0000
1000
0100
0010
0000
0100
0000
0001
0000
0100
0000
,
1000
0000
0001
0000
0101
0000
0100
0010
1000
0000
0010
0000
0001
0000
0010
0000
,
1000
0000
0001
0000
0101
0000
0100
0010
1000
0000
0010
0000
0001
0000
0010
0000
,
1000
0000
0100
0000
1100
0000
1000
0100
0010
0000
0100
0000
0001
0000
0100
0000
,
1000
0000
0100
0000
1100
0000
1000
0100
0010
0000
0100
0000
0001
0000
0100
0000
,
1000
0000
0001
0000
1001
0000
0001
0010
0100
0000
0010
0000
1000
0000
0010
0000
,
0001
0000
1000
0000
1001
0000
0001
0010
0100
0000
0010
0000
1000
0000
0040
0000
,
0000
0000
0000
0000
0000
0000
0000
0000
0000
0000
0000
0000
0000
0000
0000
0030
;
