#TITLE:Yeah Oh Ahhh Oh!;
#SUBTITLE:;
#ARTIST:supercell;
#TITLETRANSLIT:;
#SUBTITLETRANSLIT:;
#ARTISTTRANSLIT:;
#GENRE:;
#CREDIT:;
#BANNER:;
#BACKGROUND:;
#LYRICSPATH:;
#CDTITLE:;
#MUSIC:Yeah Oh Ahhh Oh!.ogg;
#OFFSET:0.000000;
#SAMPLESTART:59.060001;
#SAMPLELENGTH:12.307690;
#LASTBEATHINT:423.939697;
#SELECTABLE:YES;
#BPMS:0.000000=195.000000
;
#STOPS:423.666656=7.557000
;
#BGCHANGES:;
#KEYSOUNDS:;
#ATTACKS:;

//---------------dance-single - ----------------
#NOTES:
     dance-single:
     :
     Hard:
     13:
     0.629227,0.760402,0.509326,0.286944,0.853659,614.000000,543.000000,71.000000,40.000000,4.000000,0.000000,0.629227,0.760402,0.509326,0.286944,0.853659,614.000000,543.000000,71.000000,40.000000,4.000000,0.000000:
0000
0000
0000
0000
,
0000
0000
0000
0000
,
0000
0000
0000
0000
,
0000
0000
0000
0000
,
0010
0000
1000
0000
0000
1000
0000
0000
1000
0010
0000
0001
,
0000
0000
0001
0000
0000
0001
1000
0000
0100
0000
0000
0001
,
0010
0000
0001
0000
0000
0001
0000
0000
0001
0010
0000
1000
,
0000
0000
1000
0000
0000
1000
0001
0000
0100
1000
0000
0100
,
0010
0000
0001
0000
0000
0001
0000
0000
0001
1000
0000
0100
,
0010
0000
0001
0000
0000
0001
0000
0000
0001
1000
0000
0100
,
0010
0000
0001
0000
0000
0001
0010
0000
1000
0000
0000
1000
,
0010
2002
0000
3003
,
1010
0000
0000
0101
0000
0000
0011
0000
0000
2100
0000
3001
,
0000
0000
0001
0100
0000
0010
1000
0000
0000
0100
0000
0000
,
0011
0000
0000
1100
0000
0000
1010
0000
0000
0102
0000
1003
,
0000
0000
1000
0100
0000
0010
0001
0000
0000
0100
0000
0000
,
1010
0000
0000
1100
0000
0000
0011
0000
0000
0201
0000
0310
,
0000
0000
0010
1000
0000
0001
0010
0000
0000
0100
0000
0000
,
1000
0000
0000
0010
0000
0000
0001
0000
0010
0000
0000
1000
,
0100
0000
0000
0001
0000
0100
0000
0000
1000
0010
1000
0010
,
1000
0000
0000
0101
0000
0000
0011
0000
0000
1200
0000
1300
,
0000
0000
1000
0100
0000
0010
0001
0000
0000
0100
0000
0000
,
0011
0000
0000
1100
0000
0000
1010
0000
0000
0201
0000
0301
,
0000
0000
0001
0100
0000
0010
2000
0000
0000
3100
0000
0000
,
0011
1010
0011
1010
,
0011
0000
0000
1010
0000
0000
0011
0000
0000
1000
0000
0100
,
0001
0000
0000
0101
0000
0000
1100
0000
0000
1000
0000
1000
,
0100
0000
0100
0010
0001
0010
0001
0010
0001
0010
0000
0000
,
0110
0000
0000
1100
0000
0000
1000
0000
1000
0000
0000
0001
,
0000
0000
0001
1000
0000
1000
0100
0000
0100
0010
0000
0000
,
0110
0000
0000
0011
0000
0000
0001
0000
0000
0001
0000
1000
,
0000
0000
1000
0001
0000
1000
0010
0000
0100
0000
0000
0000
,
0101
0000
0100
0001
0000
0100
0001
0000
0000
1000
0000
0100
,
0000
0000
1000
0100
0000
1000
0001
0000
0000
0010
0000
0100
,
0010
0000
1000
0000
0000
1000
0000
0000
1000
0010
0000
0001
,
0000
0000
0001
0000
0000
0001
2000
0000
0000
3000
0000
0000
,
1010
0100
0011
0100
,
1010
0000
0000
1000
0000
0001
0010
0000
0000
0001
0000
1000
,
0010
0000
0100
0001
0000
0010
0100
0000
0000
1000
0000
0000
,
1100
1001
0011
0000
,
0101
0010
1100
0010
,
0101
0000
0000
0001
0000
0010
0100
0000
0000
1000
0000
0010
,
0100
0000
0001
1000
0000
0100
0010
0000
0000
0100
0000
0000
,
1010
0110
0101
0000
,
0002
0203
2300
3200
,
0310
0000
0000
0001
0000
1000
0000
0000
0100
0001
0000
0000
,
20M2
0000
0000
0000
,
3003
0000
0000
0000
,
2100
3001
0102
2003
,
3200
0000
0000
0301
0000
0200
0000
0000
1300
0001
0000
0100
,
0010
1010
0011
1100
,
0001
0000
0100
0010
0000
1000
0000
0000
0100
1000
0000
0000
,
0010
0000
0001
0010
0000
1000
0010
0000
0100
0000
0000
0001
,
0000
0000
1000
0100
0000
0100
0010
0000
0001
0010
0000
0001
,
0010
0000
0001
1000
0000
0100
0000
0000
1000
0010
0000
1000
,
0001
0000
0100
0001
0000
0000
1000
0001
1000
0001
0000
0000
,
0102
1003
2100
3002
,
0023
0000
0000
0130
0000
0000
1000
0000
0100
0000
0000
0100
,
0010
0000
0001
0010
0000
0001
1000
0000
0100
1000
0000
0100
,
0010
0000
0001
1000
0000
0010
0000
0000
0100
0001
0000
0000
,
0010
0000
1000
0010
0000
0001
0010
0000
0000
0100
0000
1000
,
0000
0000
1000
0010
0000
0100
0010
0000
1000
0010
0000
1010
,
0000
0000
1000
0100
0000
0000
0010
0000
0000
0010
0000
0011
,
0000
0000
0001
0100
0000
0000
0010
0000
0000
0010
0000
1010
,
0000
0000
1000
0100
0000
0100
1000
0000
1000
0001
0000
0000
,
0010
0000
0001
0100
0000
1000
0000
0000
0001
0010
0000
0000
,
2010
0000
0000
0000
0000
0000
3200
0000
0000
0000
0000
0001
,
0000
0000
0001
0300
0000
0100
0001
0000
0000
0100
0000
0010
,
0002
0000
0000
0000
0000
0000
0203
0000
0000
0000
0000
1000
,
0000
0000
1000
0300
0000
0100
1000
0000
0000
0100
0000
0001
,
2000
0000
0000
0000
0000
0000
3020
0000
0000
0000
0000
0001
,
0000
0000
0001
0030
0000
0010
0001
0000
0000
1000
0000
0100
,
0001
0000
0001
0010
0000
0000
1000
0000
1000
0010
0000
0000
,
0001
0000
0010
1000
0000
0010
0001
0000
0010
0100
0010
0100
,
1000
0000
1000
0100
0000
0100
0010
0000
0010
0001
0000
0001
,
1000
0000
0100
0001
0000
0100
1000
0000
0001
1000
0000
1000
,
0001
0000
0001
0100
0000
0100
0010
0000
0010
1000
0000
1000
,
0001
0000
0010
1000
0000
0010
0001
0000
1000
0001
0000
0001
,
0010
0000
0001
0100
0000
0100
0010
0000
1000
0100
0000
0100
,
0010
0000
0010
0001
0000
0001
1000
0000
1000
0010
0000
0010
,
0100
0000
0100
0010
0000
1000
0100
0000
0100
0010
0000
0001
,
0100
0010
0100
0010
0100
0010
1000
0001
1000
0001
0000
0000
,
2002
0000
0000
0000
,
0000
0000
3000
0000
,
0020
0000
0000
0000
,
0000
0000
0003
0000
,
0200
0000
0000
0000
,
0000
0000
0030
0000
,
100M
0000
0000
0000
0000
0000
0000
0000
0000
0000
0300
0000
,
1000
0001
1000
0001
1000
0001
1000
0001
1000
0010
0000
0000
,
2010
3001
0102
2003
,
3100
0000
0000
0100
0000
0001
0000
0000
0001
0100
0000
1000
,
0010
0011
1100
0201
,
0310
0000
1000
0001
0000
0010
0000
0000
0100
0010
0000
0000
,
0001
0000
1000
0010
0000
1000
0001
0000
0100
0001
0000
1000
,
0000
0000
0100
1000
0000
1000
0010
0000
0001
0010
0000
1000
,
0010
0000
1000
0001
0000
0100
0000
0000
0001
0010
0000
0001
,
1000
0000
0100
1000
0000
0000
0010
0100
0010
0100
0000
0000
,
0102
0000
0000
0013
0000
0000
2010
0000
0000
3100
0000
0010
,
0000
0000
0010
0100
0000
1000
0010
0000
0100
0000
0000
0100
,
0010
0000
0001
0010
0000
1000
0010
0000
0100
0010
0000
1000
,
0100
0000
0010
0000
0000
0011
0000
0000
1000
0100
0000
0000
,
1000
0000
0001
0000
0000
0001
1000
0000
0000
1000
0000
0010
,
0000
0000
0010
0100
0000
0001
0100
0001
0100
0010
0000
1010
,
0000
0000
1000
0100
0000
0000
0010
0000
0000
0010
0000
0011
,
0000
0000
0001
0100
0000
0000
0010
0000
0000
0010
0000
1MM1
,
1001
0000
0000
0000
;

//---------------dance-double - ----------------
#NOTES:
     dance-double:
     :
     Challenge:
     13:
     0.631277,0.760402,0.710187,0.179340,0.781923,616.000000,517.000000,99.000000,25.000000,8.000000,0.000000,0.631277,0.760402,0.710187,0.179340,0.781923,616.000000,517.000000,99.000000,25.000000,8.000000,0.000000:
00000000
00000000
00000000
00000000
,
00000000
00000000
00000000
00000000
,
00000000
00000000
00000000
00000000
,
00000000
00000000
00000000
00000000
,
00100000
00000000
10000000
00000000
00000000
10000000
00000000
00000000
10000000
00100000
00000000
00010000
,
00000000
00000000
00010000
00000000
00000000
00010000
00001000
00000000
00000100
00000000
00000000
00000001
,
00000010
00000000
00001000
00000000
00000000
00001000
00000000
00000000
00001000
00000010
00000000
00000001
,
00000000
00000000
00000001
00000000
00000000
00000001
00000100
00000000
00001000
00000000
00000000
00010000
,
01000000
00000000
10000000
00000000
00000000
10000000
00000000
00000000
10000000
00100000
00000000
01000000
,
00100000
00000000
00010000
00000000
00000000
00010000
00000000
00000000
00010000
00001000
00000000
00000100
,
00000010
00000000
00000001
00000000
00000000
00000001
00000010
00000000
00001000
00000000
00000000
00001000
,
00000100
00022000
00000000
00033000
,
10100000
01010000
00101000
00010100
,
00001010
00000000
00000000
00000100
00000000
00000001
00000000
00000000
00000001
00000100
00000000
00000000
,
00000011
00001100
00010010
01001000
,
00110000
00000000
00000000
01000000
00000000
10000000
00000000
00000000
10000000
00100000
00000000
00000000
,
01100000
01010000
00011000
00001100
,
00000110
00000000
00000000
00000010
00000000
00000001
00000000
00000000
00000001
00000100
00000000
00000000
,
00000010
00000000
00000000
00001000
00000000
00000000
00010000
00000000
00001000
00000000
00000000
00000100
,
00001000
00000000
00000000
00010000
00000000
00001000
00000000
00000000
00000100
00010000
00000000
00000000
,
00101000
00010100
00010010
01001000
,
01100000
00000000
00000000
10000000
00000000
01000000
00000000
00000000
00100000
00010000
00000000
00000000
,
00110000
01010000
00001010
00001100
,
00000110
00000000
00000000
00000001
00000000
00000100
00000000
00000000
00000010
00001000
00000000
00000000
,
00001010
00001100
00001010
00001100
,
00001010
00000000
00000000
00001100
00000000
00000000
00001010
00000000
00000000
00010000
00000000
00001000
,
00100000
01010000
00110000
01010000
,
01000000
00000000
01000000
00100000
10000000
00100000
10000000
00100000
10000000
00100000
00000000
00000000
,
01100000
00000000
00000000
01010000
00000000
00000000
00010000
00000000
00010000
00000000
00000000
00100000
,
00000000
00000000
00100000
00010000
00000000
01000000
00001000
00000000
00010000
00000010
00000000
00000000
,
00000110
00000000
00000000
00001010
00000000
00000000
00001000
00000000
00000000
00001000
00000000
00000100
,
00000000
00000000
00000100
00010000
00000000
00001000
00100000
00000000
01000000
00000000
00000000
00000000
,
11000000
00000000
10000000
01000000
00000000
01000000
10000000
00000000
00000000
00010000
00000000
01000000
,
00000000
00000000
01000000
00010000
00000000
00100000
01000000
00000000
00000000
10000000
00000000
01000000
,
00100000
00000000
00001000
00000000
00000000
00001000
00000000
00000000
00010000
00000010
00000000
00010000
,
00000000
00000000
00010000
00000000
00000000
00000100
00002000
00000000
00000000
00003000
00000000
00000000
,
00000011
00000100
00000011
00000100
,
00000011
00000000
00000000
00000100
00000000
00000010
00001000
00000000
00000000
00000100
00000000
00010000
,
00001000
00000000
01000000
00001000
00000000
00010000
00100000
00000000
00000000
01000000
00000000
00000000
,
01100000
01010000
10010000
00000000
,
10100000
01000000
10100000
01000000
,
10100000
00000000
00000000
10000000
00000000
01000000
00010000
00000000
00000000
01000000
00000000
00100000
,
00001000
00000000
00010000
00001000
00000000
00000100
00000010
00000000
00000000
00001000
00000000
00000000
,
00001010
00000110
00000101
00000000
,
00000001
00000100
00001000
00010000
,
00000100
00000000
00000000
00010000
00000000
00000010
00000000
00000000
00010000
00001000
00000000
00000000
,
02002000
00000000
00000000
00000000
,
M300300M
00000000
00000000
00000000
,
01100000
01010000
00110000
00011000
,
00010000
00000000
00000000
00010000
00000000
00001000
00000000
00000000
01000000
00100000
00000000
00000000
,
10100000
00110000
00001010
00000011
,
00000001
00000000
00000100
00000010
00000000
00001000
00000000
00000000
00000100
00001000
00000000
00000000
,
00000010
00000000
00000100
00000000
00000000
00000100
00000010
00000000
00000100
00000000
00000000
00000001
,
00000000
00000000
00000001
00001000
00000000
00000100
00000010
00000000
00000001
00000010
00000000
00000001
,
00000010
00000000
00000100
00001000
00000000
00010000
00000000
00000000
00001000
00000100
00000000
00010000
,
00001000
00000000
01000000
00100000
00000000
00000000
10000000
00010000
01000000
00001000
00000000
00000000
,
00011000
00001010
00001100
00000110
,
00000010
00000000
00000000
00000001
00000000
00000000
00000100
00000000
00000001
00000000
00000000
00001000
,
00000001
00000000
00000010
00001000
00000000
00000010
00001000
00000000
00010000
00001000
00000000
00010000
,
00100000
00000000
00010000
00100000
00000000
10000000
00000000
00000000
01000000
00100000
00000000
00000000
,
00010000
00000000
00100000
00000000
00000000
01000000
00010000
00000000
00000000
00000100
00000000
00001000
,
00000000
00000000
00000010
00000100
00000000
00001000
00010000
00001000
00010000
00001000
00000000
01001000
,
00000000
00000000
00001000
00100000
00000000
00000000
01000000
00000000
00000000
00010000
00000000
00010100
,
00000000
00000000
00010000
00000100
00000000
00000000
00000010
00000000
00000000
00001000
00000000
00101000
,
00000000
00000000
00100000
01000000
00000000
10000000
00100000
00000000
01000000
00010000
00000000
00000000
,
00100000
00000000
00100000
00001000
00000000
01000000
00000000
00000000
00000000
10100000
00000000
00000000
,
02020000
00000000
00000000
03030000
00000000
00000000
00022000
00000000
00000000
00033000
00000000
00001100
,
00000000
00000000
00001100
00000000
00000000
00000010
00000002
00000000
00000000
00000000
00000000
00002003
,
00000200
00000000
00000000
00003300
00000000
00000000
00022000
00000000
00000000
00033000
00000000
01010000
,
00000000
00000000
01010000
00000000
00000000
10000000
00200000
00000000
00000000
01300000
00000000
00000000
,
02020000
00000000
00000000
03030000
00000000
00000000
00022000
00000000
00000000
00033000
00000000
00001100
,
00000000
00000000
00001100
00000000
00000000
00000100
00000020
00000000
00000000
00000000
00000000
00000031
,
00000100
00000000
00000100
00000010
00000000
00000000
00001000
00000000
00001000
00000010
00000000
00000000
,
00010000
00000000
00001000
00100000
00000000
00010000
10000000
00000000
00001000
01000000
00000000
00001000
,
00010000
00000000
00000000
00000100
00000000
00010000
00001000
00000000
00000000
01000000
00000000
00001000
,
00010000
00000000
00100000
01000000
00000000
00010000
10000000
00000000
00000000
01000000
00000000
00100000
,
00001000
00000000
00000000
01000000
00000000
00001000
00010000
00000000
00000000
00000100
00000000
00010000
,
00001000
00000000
00000100
00000001
00000000
00000010
00000100
00000000
00000000
00010000
00000000
00000000
,
00000011
00000000
00000000
00000001
00000000
00000100
00001000
00000000
00000000
00010000
00000000
00000100
,
00001000
00000000
00000100
00010000
00000000
00001000
01000000
00000000
00010000
10000000
00000000
01000000
,
00100000
00000000
00001000
00010000
00000000
00000010
00000100
00000000
00001000
01000000
00000000
00010000
,
00100000
01000000
00100000
01000000
00100000
01000000
00100000
01000000
00100000
01000000
00000000
20000000
,
00020000
00000000
00000000
00000000
,
00000000
00000000
00000000
00030000
,
00200000
00000000
00000000
00000000
,
00000000
00000000
00000000
30000000
,
02000000
00000000
00000000
00000000
,
00000000
00000000
00000000
00300000
,
M000200M
00000000
00000000
00000000
00000000
00000000
00000000
00000000
00000000
00000000
03000000
00000000
,
00013000
00001000
00010000
00001000
00010000
00001000
00010000
00001000
00010000
00000010
00000000
00000000
,
00000110
00001001
00000011
00001100
,
00000100
00000000
00000000
00000100
00000000
00000010
00000000
00000000
00000010
00000001
00000000
00000000
,
00000110
00001010
00110000
01100000
,
00100000
00000000
00001000
00010000
00000000
00000010
00000000
00000000
00000100
00001000
00000000
00000000
,
00010000
00000000
00001000
00000000
00000000
01000000
00001000
00000000
00100000
00000000
00000000
00001000
,
00000000
00000000
01000000
00010000
00000000
10000000
00100000
00000000
10000000
00100000
00000000
10000000
,
00100000
00000000
01000000
00010000
00000000
00001000
00000000
00000000
00010000
01000000
00000000
00001000
,
00010000
00000000
00000100
00000010
00000000
00000000
00000001
00001000
00000100
00010000
00000000
00000000
,
00010010
00000000
00000000
00000110
00000000
00000000
00001001
00000000
00000000
00010100
00000000
00000010
,
00000000
00000000
00000010
00000001
00000000
00000000
00000100
00000000
00000001
00000000
00000000
00000001
,
00000010
00000000
00000001
00000100
00000000
00001000
00010000
00000000
01000000
10000000
00000000
00010000
,
00100000
00000000
00010000
00000000
00000000
10010000
00000000
00000000
10000000
00100000
00000000
00000000
,
10000000
00000000
00100000
01000000
00000000
00100000
00010000
00000000
00001000
00000100
00000000
00000010
,
00000000
00000000
00000100
00000001
00000000
00000100
00000010
00010000
00000010
00010000
00000000
00010100
,
00000000
00000000
00001000
01000000
00000000
00000000
00100000
00000000
00000000
00010000
00000000
00011000
,
00000000
00000000
00001000
00000100
00000000
00000000
00000001
00000000
00000000
00000010
00000000
00MMMM11
,
11000000
00000000
00000000
00000000
;

//---------------dance-single - ----------------
#NOTES:
     dance-single:
     :
     Medium:
     11:
     0.473458,0.570301,0.351506,0.329986,0.455524,462.000000,413.000000,49.000000,46.000000,4.000000,0.000000,0.473458,0.570301,0.351506,0.329986,0.455524,462.000000,413.000000,49.000000,46.000000,4.000000,0.000000:
0000
0000
0000
0000
,
0000
0000
0000
0000
,
0000
0000
0000
0000
,
0000
0000
0000
0000
,
1020
0100
0000
0100
,
0000
0100
0000
0130
,
0021
0100
0000
0100
,
0000
0100
0000
0130
,
1020
0100
0000
0130
,
0021
0100
0000
0130
,
1200
0310
0201
0310
,
1001
0020
0000
0030
,
1010
0001
1100
0001
,
1010
0000
0000
0000
0000
1001
0000
0000
0000
0100
0000
0000
,
0011
1000
0101
1000
,
0011
0000
0000
0000
0000
0110
0000
0000
0000
1000
0000
0000
,
0011
0100
1001
0100
,
1010
0000
0000
0000
0000
0110
0000
0000
0000
0100
0000
0000
,
0000
0000
0000
0020
0000
0000
0000
0000
2030
0000
0000
0000
,
3002
0000
0000
0000
0000
0023
0000
0000
0000
0130
0000
0000
,
1100
0010
0101
0010
,
1100
0000
0000
0000
0000
0101
0000
0000
0000
1000
0000
0000
,
0011
0100
1010
0100
,
0011
0000
0000
0000
0000
1010
0000
0000
0000
0100
0000
0000
,
0120
1000
0100
1000
,
0100
0000
0000
1000
0000
0000
0130
0000
0000
0100
0000
0001
,
0020
0100
0001
0100
,
0001
0000
0000
0100
0000
0000
0031
0000
1000
0010
0000
0100
,
0001
0000
0000
0001
0000
0000
1000
0000
0100
0000
0000
1000
,
0000
0000
1000
0001
0000
0000
0100
0000
0100
0010
0000
0000
,
0000
0000
0000
1000
0000
0000
1000
0000
0000
0001
0000
0100
,
0000
0000
0100
0001
0000
0000
0010
0000
0100
0000
0000
0000
,
0000
0000
1000
0100
0000
1000
0001
0000
0000
0001
0000
0100
,
0000
0000
0100
0001
0000
0010
0100
0000
0000
0010
0000
0002
,
0100
1000
1003
2100
,
0001
3002
0023
0000
,
0031
0100
1000
0100
,
0020
0000
0000
0000
0000
2000
0030
0000
0000
3001
0000
0000
,
0000
0000
1000
0100
0000
1000
0001
0000
0000
0100
0000
0000
,
0110
1000
0110
0000
,
1000
0100
0001
0100
,
0020
0000
0000
0000
0000
0032
0000
0000
0000
1003
0000
0000
,
0000
0000
0100
1000
0000
0001
0010
0000
0000
0100
0000
0000
,
1001
0010
1001
0000
,
0001
0010
1000
0001
,
0100
0000
0000
0100
0000
1000
0000
0000
1000
0001
0000
0000
,
20M2
0000
0000
0000
,
3003
0000
0000
0000
,
1020
0001
0100
0001
,
1030
0000
0000
1000
0000
0001
0000
0000
0001
1000
0000
0100
,
0010
0011
1000
1001
,
0010
0000
1000
0001
0000
0020
0000
0000
0000
0130
0000
0000
,
1000
0000
0100
1000
0000
0001
0100
0000
0001
0000
0000
0010
,
0000
0000
0010
0100
0000
0000
0010
0000
0001
0010
0000
0000
,
0001
0000
0100
0001
0000
0100
0000
0000
0010
1000
0000
0100
,
1000
0000
0100
0000
0000
0010
0200
0000
0000
0000
0000
0000
,
1000
0001
0010
0001
,
1300
0000
0000
0001
0000
0000
0100
0000
0010
0000
0000
0010
,
1000
0000
0010
1000
0000
0001
1000
0000
0010
1000
0000
0001
,
1000
0000
0010
0000
0000
0200
0000
0000
0000
0301
0000
0000
,
0001
0000
0010
0001
0000
1000
0010
0000
1000
0000
0000
0100
,
0000
0000
0100
0010
0000
0000
0001
0000
1000
0000
0000
1001
,
0000
0000
0000
1000
0000
0000
0010
0000
0000
0100
0000
0110
,
0000
0000
0000
0001
0000
0000
0010
0000
0000
0100
0000
0110
,
0000
0100
1000
0001
,
0010
0001
1000
1010
,
0200
0000
0000
0000
0000
0000
0302
0000
0000
0000
0000
1000
,
0000
0000
1000
0000
0000
0103
0010
0000
0000
0000
0000
1000
,
0200
0000
0000
0000
0000
0000
2300
0000
0000
0000
0000
0001
,
0000
0000
0001
0000
0000
3010
0100
0000
0000
0001
0000
0000
,
0200
0000
0000
0000
0000
0000
0302
0000
0000
0000
0000
1000
,
0000
0000
1000
0000
0000
0013
0001
0000
0000
0000
0000
1000
,
0200
0000
0000
0000
0000
0000
2300
0000
0000
0000
0000
0010
,
0000
0000
0010
0000
0000
3001
1000
0000
0000
0100
0000
0000
,
0010
0000
0000
0001
0000
0000
0100
0000
0000
0001
0000
0010
,
0001
0000
0010
0001
0000
0010
0001
0000
0000
0100
0000
0000
,
0010
0000
0000
1000
0000
0000
0100
0000
0000
1000
0000
0010
,
1000
0000
0010
1000
0000
0010
1000
0000
0000
0001
0000
0000
,
0011
0000
0000
0001
0000
0000
1000
0000
0000
0100
0000
1000
,
0100
0000
1000
0100
0000
1000
0100
0000
0000
0010
0000
0000
,
0001
0000
0000
0010
0000
0000
1000
0000
0000
0010
0000
0001
,
0100
0000
0001
0100
0000
0001
0100
0000
0000
0010
0000
0000
,
0202
0000
0000
0000
,
0000
0000
0000
0300
,
0020
0000
0000
0000
,
0000
0000
0000
0003
,
0200
0000
0000
0000
,
0000
0000
0000
0030
,
200M
0000
0000
0000
0000
0000
0000
0000
0000
0000
0300
0000
,
0100
0100
0100
3010
,
0012
0100
1000
0100
,
0013
0000
0000
0010
0000
0100
0000
0000
0100
0010
0000
0001
,
1000
0011
1000
0110
,
0001
0000
0010
0100
0000
0002
0000
0000
0000
0103
0000
0000
,
0010
0000
0001
0010
0000
0100
0001
0000
0100
0000
0000
1000
,
0000
0000
1000
0001
0000
0000
0010
0000
0001
0100
0000
0000
,
0010
0000
1000
0010
0000
1000
0000
0000
0001
0010
0000
0001
,
0010
0000
0001
0000
0000
0001
2000
0000
0000
0000
0000
0000
,
0010
0000
0000
0100
0000
0000
0001
0000
0000
3200
0000
0310
,
0000
0000
0010
0100
0000
0000
1000
0000
0001
0000
0000
0001
,
0010
0000
0001
0010
0000
0100
0010
0000
0001
0010
0000
0100
,
0010
0000
0001
0000
0000
2000
0000
0000
0000
3100
0000
0000
,
0100
0000
0001
0100
0000
0010
0001
0000
0010
0000
0000
1000
,
0000
0000
1000
0001
0000
0000
0100
0000
0010
0000
0000
0110
,
0000
0000
0000
0010
0000
0000
0001
0000
0000
1000
0000
2001
,
0000
0000
0000
3100
0000
0000
1000
0000
0000
0001
0000
1MM1
,
0100
0000
0000
0000
;

//---------------dance-single - ----------------
#NOTES:
     dance-single:
     :
     Easy:
     7:
     0.321787,0.418221,0.272597,0.200861,0.046628,314.000000,276.000000,38.000000,28.000000,4.000000,0.000000,0.321787,0.418221,0.272597,0.200861,0.046628,314.000000,276.000000,38.000000,28.000000,4.000000,0.000000:
// measure 0
0000
0000
0000
0000
,  // measure 1
0000
0000
0000
0000
,  // measure 2
0000
0000
0000
0000
,  // measure 3
0000
0000
0000
0000
,  // measure 4
1100
0000
0000
0000
,  // measure 5
0000
0000
0000
0000
,  // measure 6
0101
0000
0000
0000
,  // measure 7
0000
0000
0000
0000
,  // measure 8
1100
0000
0000
0000
,  // measure 9
0101
0000
0000
0000
,  // measure 10
1010
0000
0011
0000
,  // measure 11
0000
0200
0000
0300
,  // measure 12
1010
0000
1100
0000
,  // measure 13
1010
0000
0000
0000
0000
1100
0000
0000
0000
0001
0000
0000
,  // measure 14
0011
0000
0101
0000
,  // measure 15
0011
0000
0000
0000
0000
0101
0000
0000
0000
0000
0000
0000
,  // measure 16
0110
0000
1001
0000
,  // measure 17
0110
0000
0000
0000
0000
1001
0000
0000
0000
0100
0000
0000
,  // measure 18
0000
0000
0000
0010
0000
0000
0000
0000
1000
0000
0000
0000
,  // measure 19
0001
0000
0000
0000
0010
0000
0000
0000
0000
0100
0000
0000
,  // measure 20
0011
0000
1100
0000
,  // measure 21
0011
0000
0000
0000
0000
1100
0000
0000
0000
1000
0000
0000
,  // measure 22
1010
0000
0101
0000
,  // measure 23
1010
0000
0000
0000
0000
0101
0000
0000
0000
0000
0000
0000
,  // measure 24
0021
0100
0100
0100
,  // measure 25
0100
0100
0100
0230
,  // measure 26
1000
1000
1000
1000
,  // measure 27
1000
1000
1300
0000
,  // measure 28
0000
0001
0100
0100
,  // measure 29
0001
0001
1000
0010
,  // measure 30
0000
1000
0100
0100
,  // measure 31
1000
1000
0010
0100
,  // measure 32
0000
0100
0001
0001
,  // measure 33
1000
0100
1000
1000
,  // measure 34
0010
1000
1000
0010
,  // measure 35
0001
0001
0010
0000
,  // measure 36
1000
0100
1000
0100
,  // measure 37
0010
0000
0100
0000
,  // measure 38
1000
0001
0100
0001
,  // measure 39
0010
0100
0010
0000
,  // measure 40
0001
0100
0001
0100
,  // measure 41
0010
0000
0100
0000
,  // measure 42
0001
1000
0100
1000
,  // measure 43
0010
0001
1000
0000
,  // measure 44
0100
0001
0100
0001
,  // measure 45
0010
0000
0100
0000
,  // measure 46
110M
0000
0000
0000
,  // measure 47
0000
0000
0000
0000
,  // measure 48
0002
0000
0203
0000
,  // measure 49
0301
0001
1000
1000
,  // measure 50
0010
1000
0010
1000
,  // measure 51
0010
0100
0001
0000
,  // measure 52
1000
0100
1000
1000
,  // measure 53
0001
0100
0010
0010
,  // measure 54
2010
0000
0000
0100
,  // measure 55
0100
0100
3001
0000
,  // measure 56
0000
0010
0001
1000
,  // measure 57
0010
1000
0001
0100
,  // measure 58
0010
1000
0010
1000
,  // measure 59
0010
0100
0001
0000
,  // measure 60
0000
0010
0001
0001
,  // measure 61
0010
0000
0000
1000
0000
0000
0010
0000
0000
0000
0000
1001
,  // measure 62
0000
0000
0000
0000
0000
0000
0100
0000
0000
0000
0000
1001
,  // measure 63
0000
0000
0000
0000
0000
0000
0010
0000
0000
0000
0000
1001
,  // measure 64
0000
1000
0100
0100
,  // measure 65
0010
0001
0100
1001
,  // measure 66
0002
0000
0203
0000
,  // measure 67
0001
0001
0302
0000
,  // measure 68
2003
0000
3200
0000
,  // measure 69
1000
1000
2300
0000
,  // measure 70
3020
0000
0230
0000
,  // measure 71
0010
0010
0320
0000
,  // measure 72
1030
0100
0001
0200
,  // measure 73
0010
0010
0320
0000
,  // measure 74
0031
0100
0001
0200
,  // measure 75
1000
1000
0320
0000
,  // measure 76
1030
0100
1000
0200
,  // measure 77
0001
0001
0320
0000
,  // measure 78
0031
0010
0001
0020
,  // measure 79
1000
1000
0230
0000
,  // measure 80
1300
0010
1000
0020
,  // measure 81
0001
0001
0230
0000
,  // measure 82
0301
0000
0000
0000
,  // measure 83
0000
0000
0000
0000
,  // measure 84
0010
0000
0000
0000
,  // measure 85
0000
0000
0000
0000
,  // measure 86
0100
0000
0000
0000
,  // measure 87
0000
0000
0000
0000
,  // measure 88
100M
0000
0000
0000
,  // measure 89
0000
0000
0000
1001
,  // measure 90
2000
0000
3020
0000
,  // measure 91
1030
1000
0001
0001
,  // measure 92
0010
0001
0100
0001
,  // measure 93
0010
0100
1000
0000
,  // measure 94
0001
0010
0001
0001
,  // measure 95
1000
0010
0100
0100
,  // measure 96
0102
0000
0000
0010
,  // measure 97
0010
0010
1003
0000
,  // measure 98
0000
0100
1000
0001
,  // measure 99
0100
0001
1000
0010
,  // measure 100
0100
0001
0010
0001
,  // measure 101
0100
0010
1000
0000
,  // measure 102
0000
0100
1000
1000
,  // measure 103
0100
0000
0000
0001
0000
0000
0100
0000
0000
0000
0000
1001
,  // measure 104
0000
0000
0000
0000
0000
0000
0010
0000
0000
0000
0000
1001
,  // measure 105
0000
0000
0000
0000
0000
0000
0100
0000
0000
0000
0000
1MM1
,  // measure 106
0100
0000
0000
0000
;
