#TITLE:YOU ARE THE ONLY ONE;
#SUBTITLE:;
#ARTIST:Sergey Lazarev;
#TITLETRANSLIT:;
#SUBTITLETRANSLIT:;
#ARTISTTRANSLIT:;
#GENRE:;
#CREDIT:hooky;
#BANNER:YOU ARE THE ONLY ONE.png;
#BACKGROUND:YOU ARE THE ONLY ONE-bg.png;
#LYRICSPATH:;
#CDTITLE:;
#MUSIC:YOU ARE THE ONLY ONE.ogg;
#OFFSET:0.000000;
#SAMPLESTART:52.480999;
#SAMPLELENGTH:18.000000;
#SELECTABLE:YES;
#DISPLAYBPM:43:192;
#BPMS:0.000000=128.000000
,4.000000=192.000000
,112.000000=64.000000
,113.000000=128.000000
,209.000000=42.666668
,218.000000=128.000000
;
#STOPS:112.000000=0.937500,
239.000000=1.406000
;
#BGCHANGES:0.000=YOU ARE THE ONLY ONE.avi=1.000=0=0=0=StretchNoLoop====,
99999=-nosongbg-=1.000=0=0=0 // don't automatically add -songbackground-
;
#KEYSOUNDS:;
#ATTACKS:;

//---------------dance-single - ----------------
#NOTES:
     dance-single:
     :
     Hard:
     12:
     0.424055,0.594484,0.161325,0.153259,0.496076,368.000000,348.000000,20.000000,19.000000,0.000000,0.000000,0.424055,0.594484,0.161325,0.153259,0.496076,368.000000,348.000000,20.000000,19.000000,0.000000,0.000000:
// measure 0
0000
0000
0000
0000
,  // measure 1
0000
0000
0000
0000
,  // measure 2
0000
0000
0000
0000
,  // measure 3
0000
0000
0000
0000
,  // measure 4
0000
0000
0000
0000
,  // measure 5
0000
0000
0000
0000
,  // measure 6
0000
0000
0000
0000
,  // measure 7
0000
0000
0000
0000
,  // measure 8
0000
0000
0000
0000
,  // measure 9
0000
0000
0000
0000
,  // measure 10
0000
0000
0000
0000
0000
0000
0001
0010
,  // measure 11
0001
1000
0010
0100
0001
0000
0001
0000
,  // measure 12
0001
1000
1000
1000
,  // measure 13
0010
0000
0010
0000
0100
0000
0100
0001
,  // measure 14
0010
0001
1000
0001
1000
0000
1000
0000
,  // measure 15
1000
0001
0001
0010
,  // measure 16
0100
0000
0100
0000
0100
0000
0010
0001
,  // measure 17
0010
0001
1000
0010
0100
0000
0100
0000
,  // measure 18
0001
0010
0100
0010
,  // measure 19
0002
0000
0010
0000
0013
0000
0010
0100
,  // measure 20
1000
0001
0010
0100
1000
0001
0100
0000
,  // measure 21
0001
0010
0001
1000
,  // measure 22
0001
1000
1000
0001
,  // measure 23
0001
0100
0010
0010
,  // measure 24
0100
0002
1000
1003
,  // measure 25
2000
0100
3100
0020
,  // measure 26
0100
0130
0020
0001
,  // measure 27
0031
0200
0001
0301
,  // measure 28
1001
0000
0100
0010
1000
0010
0100
0000
0000
0000
0010
0000
1000
0000
0000
0000
0000
0000
1000
0000
0000
0000
0100
0000
,  // measure 29
1000
0000
0000
0001
0000
0001
0100
0000
0100
0010
0000
0010
,  // measure 30
0100
0000
0100
0001
0000
0000
0010
0000
0010
0100
0000
0000
,  // measure 31
0010
0000
0010
0001
0000
0001
1000
0000
0010
0100
0000
0010
,  // measure 32
0100
0010
0100
0001
0000
0001
0010
0000
0000
0010
0000
0010
,  // measure 33
0100
0000
0000
0100
0000
0100
1000
0000
0000
1000
0000
1000
,  // measure 34
0001
0020
0000
0001
,  // measure 35
0031
0002
0000
0100
,  // measure 36
0103
0010
0100
0010
0000
0010
1000
0000
1000
0100
0000
0100
,  // measure 37
1000
0000
1000
0001
0000
0001
0100
0000
0100
0001
0000
0001
,  // measure 38
0010
0000
0010
0100
0000
0100
1000
0000
1000
0010
0000
0010
,  // measure 39
0100
0000
0100
0001
0000
0001
0010
0000
0010
0100
0010
0001
,  // measure 40
0010
0000
0000
0001
0000
0100
0001
0000
0001
0010
0000
0010
,  // measure 41
0001
0000
0001
1000
0000
1000
0010
0000
0010
1000
0000
1000
,  // measure 42
0100
0000
0100
0010
0000
0010
0001
0000
0001
0100
0000
0100
,  // measure 43
0010
0000
0010
1000
0000
1000
0100
0000
0100
0010
0100
1000
,  // measure 44
0100
1000
0010
0100
0000
0100
0101
0000
0000
0001
0000
0001
,  // measure 45
0011
0000
0000
0100
0000
0100
1100
0000
0000
1000
0000
1000
,  // measure 46
1010
0000
0000
0010
0000
0010
0010
0000
0000
0100
0000
0100
,  // measure 47
0100
0000
0000
0001
0000
0001
0010
0000
0010
0100
1000
0010
,  // measure 48
0100
0010
0100
0001
0000
0001
0010
0000
0000
0010
0000
0010
,  // measure 49
1000
0000
0000
0010
0000
0001
0100
0000
0000
0100
0000
0001
,  // measure 50
1000
0000
0000
1000
0000
0001
0010
0000
0000
0001
0000
0100
,  // measure 51
0010
0000
0000
0010
0000
0010
0000
0010
0000
0020
0000
0000
,  // measure 52
0000
0000
0000
0230
0000
0000
0000
0302
0000
0000
0000
2003
,  // measure 53
0000
0000
0000
3002
0000
0000
0000
0023
0000
0000
0000
0230
,  // measure 54
0000
0000
0000
0000
0000
0000
0000
0000
0000
0000
0000
0000
0000
0000
0000
0000
0000
0000
0000
0000
0000
0000
0000
0000
0000
0000
0000
0000
0000
0000
0000
0000
0000
0000
0000
0000
0000
0000
0000
0000
0000
0000
0000
0000
0000
0000
0000
0000
2300
0000
0000
0000
0000
0000
0000
0000
0000
0000
0000
0000
0000
0000
0000
0000
0000
0000
0000
0000
0000
0000
0000
0000
0000
0000
0000
0000
0000
0000
0000
0000
3000
0000
0000
0000
0000
0000
0000
0000
0000
0000
0001
0000
0000
0000
0000
0000
0100
0000
0000
0000
0000
0000
0000
0000
0000
0000
0000
0000
0000
0000
0000
0000
0001
0000
0000
0000
0000
0000
0000
0000
0000
0000
0000
0000
0000
0000
0000
0000
0100
0000
0000
0000
0000
0000
0000
0000
0000
0000
0000
0000
0000
0000
0000
0000
0110
0000
0000
0000
0000
0000
0000
0000
0000
0000
0000
0000
0000
0000
0000
0000
0000
0000
0000
0000
0000
0000
0000
0000
0000
0000
0000
0000
0000
0000
0000
0000
0100
0000
0000
0000
0000
0000
0000
0000
0000
0000
0000
0000
0000
0000
0000
0000
,  // measure 55
0010
0000
0000
0110
0000
0010
1000
0000
0000
1100
0000
0100
,  // measure 56
1000
0000
0000
1010
0000
1000
0010
0000
0000
0110
0000
0100
,  // measure 57
0010
0000
0000
0101
0000
0100
0001
0000
0000
0011
0000
0001
,  // measure 58
0010
0000
0000
0110
0000
0010
0100
0000
0000
0100
0010
0001
,  // measure 59
0100
0001
0010
0001
0000
1000
0000
0001
0000
1001
0000
0000
,  // measure 60
0110
0000
0010
0100
0000
0000
0110
0000
0100
0010
0000
0000
,  // measure 61
1000
0000
1000
0100
0000
0100
0010
0000
0010
0001
1000
0001
,  // measure 62
0100
0000
0100
0010
0000
0010
1000
0000
1000
0100
0000
0100
,  // measure 63
1000
0000
1000
0001
0000
0001
0100
0010
1000
0010
0100
0001
,  // measure 64
1000
0000
1000
0100
0000
0010
0001
0000
0001
0100
0000
0010
,  // measure 65
0110
0000
1010
0000
0101
0000
0022
0000
0000
0030
0000
0000
,  // measure 66
2000
0000
0000
0000
0000
0000
3003
0000
0001
0010
0100
1000
,  // measure 67
0001
0000
0000
0000
;
