#TITLE:不沈艦CANDY;
#SUBTITLE:;
#ARTIST:Risk Junk;
#TITLETRANSLIT:YELLOW CANDY;
#SUBTITLETRANSLIT:;
#ARTISTTRANSLIT:;
#GENRE:;
#CREDIT:;
#BANNER:banner.png;
#BACKGROUND:background.png;
#LYRICSPATH:;
#CDTITLE:;
#MUSIC:YELLOW CANDY.ogg;
#OFFSET:0.000000;
#SAMPLESTART:3.829787;
#SAMPLELENGTH:15.319148;
#SELECTABLE:YES;
#BPMS:0.000000=188.000000
,172.000000=94.000000
,206.000000=188.000000
;
#STOPS:172.000000=1.277000
;
#BGCHANGES:;
#KEYSOUNDS:;
#ATTACKS:;

//---------------dance-single - ----------------
#NOTES:
     dance-single:
     :
     Hard:
     14:
     0.672582,0.938346,0.106259,0.253386,0.277907,576.000000,563.000000,13.000000,31.000000,0.000000,0.000000,0.672582,0.938346,0.106259,0.253386,0.277907,576.000000,563.000000,13.000000,31.000000,0.000000,0.000000:
0000
0000
0000
0000
,
0000
0000
0000
0000
,
0000
0000
0000
0000
,
1000
0001
0010
0001
1000
0000
0001
0100
,
0000
0100
0001
0010
1000
0010
0001
1000
,
0100
1000
0100
1000
0010
0000
1000
0010
,
0000
0100
0001
1000
0100
0001
0100
1000
,
0010
1000
1000
0001
0010
0010
0100
0010
,
0001
0000
0100
0010
0000
0100
0001
0010
,
0100
0000
1000
0100
1000
0000
0001
0100
0001
0000
1000
0010
1000
0000
0001
1000
,
0001
0010
0001
0100
0000
0010
1000
0100
,
0010
0001
0010
0001
1000
0000
0001
1000
,
0000
1000
0100
0001
0100
0010
1000
0001
,
0010
0100
0010
0100
1000
0000
0100
1000
,
0000
0001
0010
0100
0010
0001
1000
0010
,
1000
0100
0100
0010
0001
0001
0100
0001
,
0010
0000
0010
0001
0000
0001
0100
0010
,
1000
0000
0001
0010
0001
0000
0010
0100
0010
0000
0100
1000
0100
0000
1000
0010
,
2000
3200
0320
0032
,
1003
0000
0000
0000
,
0001
0000
0001
0000
1000
1000
0001
1000
,
0010
0000
0000
0000
0010
0000
0000
0100
0000
0100
0010
0000
0100
0000
0001
0000
,
1000
0000
0000
0000
1000
0000
0000
0001
0000
0001
1000
0000
0100
0000
1000
0000
,
0010
0000
0000
0000
0010
0000
0000
0100
0000
0100
0001
0000
0010
0000
0100
0000
,
0010
0000
0010
0000
0100
0010
0001
1000
,
0010
0000
0000
0000
0010
0000
0000
0100
0000
0100
0010
0000
1000
0000
0001
0000
,
1000
0000
1000
0000
0001
0010
0100
0010
,
0000
0110
0000
1001
0000
0001
0010
0100
,
1000
0000
1000
0000
0001
0010
1000
0010
,
0100
0000
0000
0000
0100
0000
0000
0010
0000
0010
0001
0000
0100
0000
0001
0000
,
1000
0000
0000
0000
1000
0000
0000
0010
0000
0010
0100
0000
0001
0000
1000
0000
,
0100
0000
0000
0000
0100
0000
0000
0010
0000
0100
1000
0000
0010
0000
0100
0000
,
0001
0000
1000
0000
0010
0001
0010
1000
,
0001
0000
0000
0000
1000
0000
0000
0100
0000
0100
0010
0000
0100
0000
1000
0000
,
0010
0000
0000
0000
0010
0000
0000
0100
0000
0100
0001
0000
1000
0000
0001
0000
,
0000
1001
0000
1010
0000
1000
0100
0010
,
0000
0011
0000
1100
0000
0001
0010
0100
,
0000
1001
0000
0101
0000
0001
0100
1000
,
0000
1100
0000
0101
0000
0001
0010
0100
,
1000
0000
0100
0000
0010
0000
0001
0100
0010
0000
1000
0000
0100
0000
0010
0001
,
0100
0000
0010
0000
1000
0000
0100
0010
0001
0000
0100
0000
0010
0000
1000
0001
,
0010
0000
0001
0100
0010
0000
0100
0001
1000
0000
0100
1000
0010
0000
0100
0001
,
1000
0000
0001
1000
0010
0000
0100
0001
0010
0000
0100
1000
0010
0000
1000
0100
,
0010
0000
0010
0001
2000
0000
3020
0000
,
0000
0000
0130
0000
1000
0000
0100
0000
0001
0000
0010
0001
2000
0000
0000
0000
,
3000
0000
0001
0000
0010
0000
0001
0000
0100
0000
0010
1000
0200
0000
0000
0000
,
0300
0010
0100
1000
0001
2000
0000
3001
,
0010
0000
0001
0000
0100
0000
0010
1000
0200
0000
0000
0000
0320
0000
0000
0000
,
0000
0000
0130
0000
0010
0000
0001
0000
0010
0000
1000
0010
0002
0000
0000
0000
,
0003
0000
0100
0000
1000
0000
0100
0000
0001
0000
0010
0100
2000
0000
0000
0000
,
3000
0100
1000
0010
0100
0020
0000
0130
,
0001
0000
1000
0000
0100
0000
0010
0001
0100
0000
0000
0000
0001
0000
0010
0000
,
0200
0000
0010
0000
0310
0000
0100
1000
,
0010
0100
0001
0010
0100
0010
0001
1000
,
0200
0000
1000
0000
1300
0000
0100
1000
,
0010
0100
0001
0010
0100
1000
0001
0100
,
0020
0000
0100
0000
0130
0000
0100
0010
,
1000
0010
0100
0001
0010
0100
2000
0000
,
3001
0000
0100
0001
0020
0000
0230
0000
,
2300
0000
3001
0100
0020
0000
0130
0001
,
2000
0000
0001
0000
3001
0000
0010
0001
,
0100
0010
1000
0100
0010
0100
1000
0001
,
0200
0000
0010
0000
0310
0000
0100
0010
,
1000
0001
0010
0001
2000
0000
3100
0010
,
0002
0000
1000
0000
1003
0000
0001
0100
,
0010
1000
0001
0010
0100
1000
0020
0000
,
0130
0000
0010
1000
0002
0000
0023
0000
,
0230
0000
0000
0000
0310
0000
0001
0000
1000
0000
0000
0000
0001
0000
0000
1000
,
0001
0000
1000
0000
0001
0000
1000
0000
0001
1000
0001
1000
0001
1000
0001
1000
,
0001
1000
0001
1000
0001
1000
0001
1000
0010
0000
0010
0000
0010
0000
0010
0000
,
0010
0010
0010
0010
0100
0010
0010
0200
,
0000
0310
1000
0001
0010
1000
0010
0001
,
1000
0000
0001
1000
0000
0100
0010
0100
,
1000
0010
0001
0010
0100
1000
0010
0100
,
0001
0000
0100
0001
0000
0001
1000
0010
,
0100
1000
0100
0001
0010
0100
0100
1000
,
0001
0001
0100
0001
0010
0000
0100
1000
,
0000
0000
0100
0000
1000
0000
0010
0000
0100
0000
0001
0100
0001
0000
0100
0010
,
0100
0000
0010
1000
0010
0000
1000
0001
1000
0000
0000
0000
0001
0000
0000
0000
,
0100
0000
0010
0000
1000
0001
1000
0001
1000
0000
0000
0000
0001
0000
0000
0000
,
0100
0000
0010
0000
1000
0001
1000
0001
1000
0010
1000
0010
0100
0001
0100
0001
,
0010
0001
0010
0100
1000
0100
1000
0000
0001
0000
0000
0000
1001
0000
1001
0000
,
0110
0000
0000
0000
;

//---------------dance-single - ----------------
#NOTES:
     dance-single:
     :
     Medium:
     12:
     0.526622,0.569710,0.204344,0.457729,0.024521,451.000000,426.000000,25.000000,56.000000,0.000000,0.000000,0.526622,0.569710,0.204344,0.457729,0.024521,451.000000,426.000000,25.000000,56.000000,0.000000,0.000000:
0000
0000
0000
0000
,
0000
0000
0000
0000
,
0000
0000
0000
0000
,
1000
0001
0010
0100
0010
0000
0010
0001
,
0000
0001
0010
0100
1000
0000
0010
0000
,
0100
0001
0010
0001
1000
0000
0001
1000
,
0000
1000
0001
0000
0010
0000
0100
0000
,
0010
0001
0100
0000
0010
1000
0001
0000
,
1000
0000
0100
0010
0000
0100
1000
0000
,
0101
0011
0101
0011
,
0010
0010
0001
1000
0000
0001
0010
0100
,
1000
0100
1000
0010
0100
0000
0001
1000
,
0000
1000
0100
0000
1000
0000
0001
0000
,
0100
0001
0010
0100
0010
0000
0001
0010
,
0000
0100
1000
0000
0001
0000
1000
0000
,
0010
1000
0001
0000
0010
0100
1000
0000
,
0100
0000
1000
0010
0000
0100
0001
0010
,
0110
1100
0110
1100
,
2000
3002
0203
0320
,
0030
0000
0000
0000
,
1000
0000
0100
0000
0010
0001
0010
0000
,
0001
0000
0100
0000
0010
0100
0010
0000
,
0100
0000
0001
0000
1000
0001
1000
0000
,
0001
0000
0010
0000
0100
1000
0100
0010
,
0001
0000
0010
0000
0001
0100
0001
0000
,
0100
0000
0010
0000
1000
0010
1000
0000
,
0010
0000
0100
0000
0001
1000
0001
1000
,
0000
1001
0000
0110
0000
0001
0100
1000
,
0100
0000
0001
0000
0010
0100
0010
0001
,
1000
0000
0001
0000
1000
0100
0010
0100
,
1000
0000
0001
0000
0100
0001
0010
0100
,
0010
0000
0100
0000
0010
0100
0010
0001
,
1000
0000
0001
0000
1000
0100
1000
0010
,
0100
0000
0001
0000
0010
0001
1000
0100
,
0010
0000
0100
0000
0010
0001
0100
0010
,
0000
1001
0000
0110
0000
1000
0001
0010
,
0000
1100
0000
0011
0000
0010
0100
1000
,
0000
1010
0000
0101
0000
0001
0010
0100
,
0000
0011
0000
1100
0000
1000
0001
0100
,
0010
1000
0200
0000
0310
0001
0200
0000
,
0310
1000
0200
0000
0310
0001
0200
0000
,
0310
1000
0010
1000
0001
0100
0001
0100
,
0001
0010
0001
0010
0100
1000
0100
1000
,
0001
0000
1000
0010
0100
0000
0002
0000
,
0000
0000
0013
0000
0001
0000
1000
0000
0100
0000
0010
0100
2000
0000
0000
0000
,
3000
0000
0100
0000
1000
0000
0010
0000
0100
0000
0001
1000
0020
0000
0000
0000
,
0030
0100
0001
0010
0100
0020
0000
0031
,
0100
0000
0001
0000
1000
0000
0100
0010
0002
0000
0000
0000
0020
0000
0000
0000
,
0033
0000
0010
0000
0100
0000
1000
0000
0100
0000
1000
0100
0020
0000
0000
0000
,
0030
0000
0100
0000
1000
0000
0010
0000
0100
0000
0001
0100
0020
0000
0000
0000
,
0030
0100
0001
1000
0001
0020
0000
0031
,
0100
0000
1000
0000
0100
0000
0010
1000
0200
0000
0000
0000
1300
0000
0000
0000
,
2000
3010
0100
0002
,
0023
0000
0230
0000
0320
0000
0031
0100
,
0020
1000
1030
0002
,
2003
0000
3200
0000
0320
0000
0130
1000
,
0020
0100
0130
0010
,
1000
0001
1000
1200
,
0000
0310
0002
0023
,
0230
0000
0310
0001
2000
0000
3010
0000
,
0200
0301
0010
0200
,
2300
0000
3002
0000
0203
0000
0301
0010
,
0200
0010
0310
0200
,
2300
0000
3020
0000
0230
0000
0301
0100
,
0020
1000
1030
0002
,
2003
3200
0310
0021
,
0000
0230
0320
0032
,
0203
0000
0310
0000
1000
0100
0001
0000
,
0100
1000
0000
0010
0100
0000
1000
0010
,
0000
1000
0001
0000
0001
1000
0001
1000
,
0001
1000
0001
1000
0001
0010
0100
2000
,
0000
3100
0010
0001
1000
0010
1000
0010
,
0100
0000
0010
1000
0000
0001
0010
0000
,
0100
0000
0010
0000
0100
1000
0010
0100
,
0001
0000
1000
0100
0000
1000
0010
0000
,
0100
0000
0001
0000
0010
0100
1000
0000
,
0100
1000
0010
0000
0100
0000
0001
0010
,
0000
0010
0001
0000
1100
0000
1010
0000
,
0101
0000
0011
0000
0001
0100
0010
2000
,
0000
0000
3000
0000
0001
0100
0010
2000
,
0000
0000
3000
0000
0001
0100
0010
1000
,
0001
0100
0010
1000
0001
0000
0010
0100
,
1001
0000
0000
0000
;

//---------------dance-single - ----------------
#NOTES:
     dance-single:
     :
     Easy:
     9:
     0.418028,0.536197,0.098085,0.286081,0.008174,358.000000,346.000000,12.000000,35.000000,0.000000,0.000000,0.418028,0.536197,0.098085,0.286081,0.008174,358.000000,346.000000,12.000000,35.000000,0.000000,0.000000:
0000
0000
0000
0000
,
0000
0000
0000
0000
,
0000
0000
0000
0000
,
1000
0100
1000
0010
,
0100
0001
0010
0100
,
0010
0001
1000
0010
,
0100
0001
0010
0100
,
0010
0010
0001
0001
,
1000
0001
0100
0010
,
1010
1010
1010
1010
,
0010
1000
0001
0010
,
0100
0010
0001
0100
,
0001
1000
0100
1000
,
0010
0100
0001
0010
,
0100
0010
0001
1000
,
0001
0001
1000
1000
,
0010
0100
0001
0010
,
1001
1001
1001
1001
,
0002
0023
0230
2300
,
3010
0000
0000
0000
,
1000
0010
2000
3100
,
1000
0010
0200
0301
,
0010
0100
2000
3100
,
1000
0010
0200
0301
,
0010
0100
2000
3100
,
1000
0010
0200
0310
,
1000
0001
0020
0031
,
0000
1001
0000
0110
0000
1000
0001
0010
,
0002
0103
0010
1000
,
0200
1300
0100
1000
,
0020
0130
0001
1000
,
0200
1300
0010
0100
,
0002
1003
0001
0010
,
0200
1300
0100
1000
,
0020
0130
0010
1000
,
0000
0001
0000
1000
0000
0001
1000
0001
,
0000
1000
0000
0001
0000
1000
0001
1000
,
0000
0001
0000
1000
0000
0001
1000
0001
,
0000
1000
0000
0001
0000
1000
0001
1000
,
0001
0100
0001
0000
0100
0010
0100
0000
,
0010
1000
0010
0000
1000
0100
1000
0000
,
1000
1000
1000
1000
,
1000
0001
1000
0001
1000
0001
1000
0001
,
1000
0000
0100
0010
0001
0000
2000
0000
,
0000
3001
0010
0100
0010
0001
0200
0000
,
0300
0010
1000
0100
0001
0100
2000
0000
,
3000
0100
1000
0010
0100
0002
0000
0013
,
0001
0000
1000
0000
0001
0000
0100
0001
0010
0000
0000
0000
0200
0000
0000
0000
,
0000
0310
0001
0010
1000
0010
0200
0000
,
0300
0010
0001
0100
1000
0100
0020
0000
,
0030
1000
0010
0100
0001
1000
0000
0001
,
0010
0000
0100
0000
1000
0000
0100
1000
0010
0000
0000
0000
1000
0000
0000
0000
,
0002
0000
0000
1003
,
0100
0000
0010
0000
0100
0000
1000
0010
,
0200
0000
0300
0010
,
1000
0000
0001
0000
0010
0000
0100
0010
,
0002
0000
0003
0010
,
0001
0100
0010
2000
,
0000
3001
0010
0100
,
0010
0000
0001
0010
0200
0000
0000
0000
,
2000
0000
3300
0001
,
0100
0000
0001
0000
1000
0000
0001
0010
,
0200
0010
0310
0100
,
1000
0000
0010
0000
0100
0000
0001
1000
,
0002
0010
0013
0001
,
0010
0001
1000
0200
,
0000
1300
0010
0110
,
0001
0000
1000
0001
0200
0000
0000
0000
,
0000
0000
0000
0000
,
0000
0000
0000
0000
0301
0100
0010
1000
,
0001
0100
0010
1000
0001
0010
0100
0010
,
0000
0100
0010
0001
1000
0000
0001
0000
,
0010
0001
0100
0001
,
0010
0100
1000
0100
,
1000
0010
0100
0010
,
1000
0001
0010
0010
,
0001
0001
1000
0001
,
0100
0001
0010
0010
,
0100
0000
0100
0000
1000
0100
0010
0001
,
0000
0000
0000
0000
1000
0100
0010
0001
,
0000
0000
0000
0000
1000
0100
0010
0001
,
1000
0100
0010
0001
1000
0000
0010
0010
,
0110
0000
0000
0000
;

//---------------dance-single - ----------------
#NOTES:
     dance-single:
     :
     Beginner:
     5:
     0.166978,0.268099,0.065390,0.065390,0.000000,143.000000,135.000000,8.000000,8.000000,0.000000,0.000000,0.166978,0.268099,0.065390,0.065390,0.000000,143.000000,135.000000,8.000000,8.000000,0.000000,0.000000:
// measure 0
0000
0000
0000
0000
,  // measure 1
0000
0000
0000
0000
,  // measure 2
0000
0000
0000
0000
,  // measure 3
1000
0000
0000
0000
,  // measure 4
0001
0000
1000
0000
,  // measure 5
0001
0000
0000
0000
,  // measure 6
1000
0000
0010
0000
,  // measure 7
0100
0000
0000
0000
,  // measure 8
0010
0000
0000
0000
,  // measure 9
1000
1000
1000
1000
,  // measure 10
0001
0000
0000
0000
,  // measure 11
0100
0000
0000
0000
,  // measure 12
0010
0000
1000
0000
,  // measure 13
0100
0000
0000
0000
,  // measure 14
0010
0000
0001
0000
,  // measure 15
1000
0000
0000
0000
,  // measure 16
0001
0000
0000
0000
,  // measure 17
0100
0100
0100
0100
,  // measure 18
0010
0000
1000
0000
,  // measure 19
1001
0000
0000
0000
,  // measure 20
0001
0000
0001
0000
,  // measure 21
0001
0000
1000
0000
,  // measure 22
1000
0000
0001
0000
,  // measure 23
1000
0000
0010
0000
,  // measure 24
0110
0000
0100
0000
,  // measure 25
0010
0000
1000
0000
,  // measure 26
0100
0000
1000
0000
,  // measure 27
0001
0000
0000
0000
,  // measure 28
1001
0000
0001
0000
,  // measure 29
1000
0000
0010
0000
,  // measure 30
1000
0000
0100
0000
,  // measure 31
1000
0000
0010
0000
,  // measure 32
0110
0000
0100
0000
,  // measure 33
0010
0000
1000
0000
,  // measure 34
0001
0000
0010
0000
,  // measure 35
0001
0000
0000
0000
,  // measure 36
0001
0000
0000
0000
,  // measure 37
0001
0000
0000
0000
,  // measure 38
0001
0000
0000
0000
,  // measure 39
0001
0000
0001
0000
,  // measure 40
0001
0000
0001
0000
,  // measure 41
0001
1000
0001
1000
,  // measure 42
0001
1000
0001
1000
,  // measure 43
0000
0000
0010
0000
,  // measure 44
0100
0000
0001
0000
,  // measure 45
1000
0000
0100
0000
,  // measure 46
0010
0000
0001
0000
,  // measure 47
1000
0001
0100
0000
,  // measure 48
0000
0010
1000
0000
,  // measure 49
0000
0100
0010
0000
,  // measure 50
0000
0001
0100
0000
,  // measure 51
0010
1000
0001
0000
,  // measure 52
0200
0000
0300
0000
,  // measure 53
0010
0000
1000
0000
,  // measure 54
0200
0000
0300
0000
,  // measure 55
0010
0000
0001
0000
,  // measure 56
2000
0000
3000
0000
,  // measure 57
0001
0000
1000
0000
,  // measure 58
0000
0000
0010
0000
,  // measure 59
1000
0000
0100
0000
,  // measure 60
0020
0000
0030
0000
,  // measure 61
0001
0000
1000
0000
,  // measure 62
0200
0000
0300
0000
,  // measure 63
1000
0000
0010
0000
,  // measure 64
0200
0000
0300
0000
,  // measure 65
0010
0000
1000
0000
,  // measure 66
0000
0000
0001
0000
,  // measure 67
1000
0000
0110
0000
,  // measure 68
0000
0000
0000
0000
,  // measure 69
0000
0000
2002
0000
,  // measure 70
0000
0000
0000
0000
,  // measure 71
3003
0000
1000
0000
,  // measure 72
0000
0000
0001
0000
,  // measure 73
0000
0000
0100
0000
,  // measure 74
0000
0000
0010
0000
,  // measure 75
0000
0000
1001
0000
,  // measure 76
1000
0000
0001
0000
,  // measure 77
0000
0000
0010
0000
,  // measure 78
0010
0000
0100
0000
,  // measure 79
0000
1000
0001
0000
,  // measure 80
0000
1000
0001
0000
,  // measure 81
1000
0000
0010
0100
,  // measure 82
1001
0000
0000
0000
;
