#TITLE:XYZ;
#SUBTITLE:;
#ARTIST:technoplanet;
#TITLETRANSLIT:;
#SUBTITLETRANSLIT:;
#ARTISTTRANSLIT:;
#GENRE:;
#CREDIT:;
#MUSIC:XYZ.ogg;
#BANNER:XYZ.png;
#BACKGROUND:XYZ-bg.png;
#CDTITLE:;
#SAMPLESTART:21.711;
#SAMPLELENGTH:15.000;
#SELECTABLE:YES;
#OFFSET:0.450;
#BPMS:0.000=154.000
,52.000=71.000
,79.000=148.000
,127.000=77.000
,130.000=154.000
;
#STOPS:;
#BGCHANGES:;
#FGCHANGES:;

//--------------- dance-single - Talkion ----------------
#NOTES:
     dance-single:
     Talkion:
     Beginner:
     7:
     0,0,0,0,0:
0000
0000
0000
0000
,
1001
0000
0000
1000
,
0000
0000
1001
0000
,
0000
0001
0000
0000
,
1001
0000
0000
1000
,
0000
0000
1001
0000
,
0000
0001
0000
0000
,
0110
0000
0000
1000
,
0000
0000
0110
0000
,
0000
0001
0000
0000
,
0110
0000
0000
1000
,
0000
0000
0110
0000
,
0000
0000
0001
0000
0000
1000
0000
0000
,
0100
0000
0000
0000
0000
0000
0000
0000
0000
0000
0000
0000
1000
0000
0000
0100
,
0000
0000
0020
0000
0000
0000
0000
0000
0031
0000
0000
0010
0000
0000
0100
0000
,
0000
0000
0000
0000
1000
0000
0000
0010
0000
0000
0200
0000
0000
0000
0000
0000
,
0301
0000
0000
0100
0000
0000
0010
0000
0000
0000
0000
0000
1000
0000
0000
0100
,
0000
0000
0001
0000
0000
0100
0000
0000
1000
0000
0000
0100
0000
0000
0001
0000
,
0000
0100
0000
0000
1000
0000
0001
0000
0010
0000
0001
0000
1000
0000
0001
0000
,
0010
0000
0000
0100
0000
0000
1000
0000
,
0000
0001
0000
0001
0100
0000
0000
0001
,
0000
0001
1000
0000
0000
0001
0000
0001
,
0100
0000
0000
0010
0000
0000
1000
0000
,
0000
0001
0000
0001
0010
0000
0000
0001
,
0000
0001
1000
0000
0000
0001
0000
0001
,
0010
0000
0000
0001
0000
0000
1001
0000
,
0000
1000
0000
0000
0100
0000
0000
0010
,
0000
0000
1001
0000
0000
0001
0000
0000
,
0100
0000
0000
0010
0000
0000
1001
0000
,
0000
1000
0000
0000
0100
0000
0000
0010
,
0000
0000
1001
0000
0000
0001
0000
0000
,
0100
0100
0100
0010
,
0000
1000
0000
0000
1001
0000
0000
0000
,
0001
1000
0000
0001
,
1001
0000
1000
0001
,
0000
1000
0200
0000
,
0300
0020
0000
0030
,
0001
0001
2000
0000
,
0000
3000
0001
0100
,
0010
2000
0000
3000
,
0001
0010
0100
2000
,
0000
3000
0001
0100
,
0010
0002
0000
0003
,
0020
0000
0030
1000
,
0010
0100
0002
0000
,
0000
0000
0000
0003
,
1000
0000
0000
0001
0000
0000
1000
0000
,
0000
0001
0000
0000
0100
0000
0000
0010
,
0000
0000
0100
0000
0000
0010
0000
0000
,
2000
0000
0000
3000
,
0000
0001
0000
0001
1000
0000
0100
1000
,
0000
0000
0001
0000
0000
0100
0000
0000
,
0010
0000
0000
1000
0000
0000
0001
0000
,
0000
1000
0000
0000
1001
0000
0000
1001
,
0000
0000
0001
0000
0000
0010
0000
0000
,
0100
0000
0000
2000
0000
0000
3001
0000
,
0000
0100
0000
0000
0010
0000
0000
0010
,
0000
0000
1000
0000
0000
1000
0000
0000
,
0001
0000
0000
0001
0000
0000
0010
0000
,
0000
0010
0000
0000
1000
0000
0000
0010
,
0000
0000
0001
0000
0000
0010
0000
0000
,
0110
0000
0000
0110
0000
0000
1001
0000
,
0000
1001
0000
0000
2000
0000
0000
0000
,
0000
0000
0000
3000
,
0002
0000
0000
0000
,
0000
0000
0003
0000
1000
0000
0001
1000
,
0000
0000
0010
0000
0100
0010
0000
0000
,
1000
0000
0000
0001
0000
0000
0010
0000
,
0010
0100
0000
0000
2000
0000
0000
0000
,
0000
0000
0000
3000
,
0002
0000
0000
0000
,
0000
0000
0003
0000
1000
0000
0001
1000
,
0000
0001
1000
0000
0001
1000
0000
0001
,
0100
0000
0000
0100
0000
0100
0010
0000
,
0000
1000
0000
0000
1001
0000
0000
0001
,
0000
0010
0001
0000
0000
1001
0000
0000
,
0110
0000
0000
1000
0000
0000
0100
0000
,
0000
0010
0000
0000
1001
0000
0000
0001
,
0000
0000
1001
0000
0000
1000
0000
0000
,
1001
0000
0000
0110
0000
0000
1001
0000
,
0000
0110
0000
0000
2000
0000
0000
0000
,
0000
0000
0000
3000
,
0002
0000
0000
0000
,
0000
0000
0003
0000
0110
0000
0000
0100
,
0000
0000
0110
0000
0000
0010
0000
0000
,
1001
0000
0000
1000
0000
0000
0001
1000
,
0001
1000
0001
1000
0000
0000
0000
0000
;

//--------------- dance-single - Talkion ----------------
#NOTES:
     dance-single:
     Talkion:
     Easy:
     12:
     0,0,0,0,0:
0000
0000
0000
0000
,
0001
0000
0000
0001
0000
0000
0000
0000
0100
0000
0000
0000
0010
0000
0000
0010
,
0000
0000
0000
0000
1000
0000
0000
0000
0001
0000
0000
0001
0000
0000
0000
0000
,
0010
0000
0000
0000
0100
0000
0000
0100
0000
0000
0000
0000
1000
0000
0000
0000
,
0001
0000
0000
0001
0000
0000
0000
0000
1000
0000
0000
0000
0010
0000
0000
0010
,
0000
0000
0000
0000
0100
0000
0000
0000
0001
0000
0000
0001
0000
0000
0000
0000
,
1000
0000
0000
0000
0100
0000
0000
0100
0000
0000
0000
0000
0010
0000
0000
0000
,
0001
0000
0000
0001
0000
0000
0100
0000
1000
0000
0000
0000
0100
0000
0000
0100
,
0000
0000
0001
0000
1000
0000
0000
0000
0001
0000
0000
0001
0000
0000
0010
0000
,
1000
0000
0000
0000
0010
0000
0000
0010
0000
0000
0001
0000
1000
0000
0000
0000
,
0010
0000
0000
0010
0000
0000
0001
0000
0010
0000
0000
0000
1000
0000
0000
1000
,
0000
0000
0010
0000
1000
0000
0000
0000
0001
0000
0000
0001
0000
0000
0010
0000
,
0100
1000
0001
0100
0001
1000
0100
1000
,
00M1
0000
0000
0000
0000
0000
0000
0000
0000
0000
0000
0000
2000
0000
0000
3020
,
0000
0230
0000
0000
2300
0000
0000
3200
,
0000
0320
0000
0000
2030
0000
0000
3002
0000
0000
0023
0000
0000
0230
0000
0000
,
2300
0000
0000
0001
0000
0000
3020
0000
0000
0100
0000
0000
1030
0000
0000
0010
,
0000
0000
0001
0000
0000
0010
0000
0000
1000
0000
0000
0010
0000
0000
0001
0000
,
0000
0010
0000
0000
1000
0000
0100
0000
0010
0000
0001
0000
0100
0000
0010
0000
,
2000
0000
0000
3001
0000
0000
100M
0100
,
0010
0001
0010
0100
2000
0000
0000
3001
,
1000
0010
0200
0000
0000
0310
0100
0001
,
2000
0000
0000
3001
0010
0100
1000
0001
,
0100
0010
1000
0001
0020
0000
0000
0230
,
0000
0000
2300
0000
0000
3002
0000
0000
,
0203
0000
0000
0000
0000
0000
0310
0000
0000
0000
0010
0000
1010
0000
0000
0001
,
0000
1000
0100
0010
1000
0010
0100
1000
,
0001
0100
0110
0000
0100
0010
1000
0001
,
0010
0100
0001
0100
0010
0001
1001
0000
,
0000
0000
1000
0000
0000
0000
0000
0000
0001
0000
0000
0001
0000
0000
0100
0000
,
0000
0010
0000
0000
1010
0000
0000
0001
0000
0000
1000
0000
0100
0000
0010
0000
,
0001
1000
0100
0001
0100
1000
00M1
0000
,
0000
0000
0100
0000
0000
0010
0010
0010
100M
0000
0000
1000
0000
0000
0001
0000
,
0010
0000
0000
0000
0001
0000
0000
0001
0000
0000
1000
0000
0010
0000
0000
0000
,
1000
0000
0000
1000
0000
0000
0100
0000
0010
0000
0000
0000
0001
0000
0000
0001
,
0000
0010
0100
0000
1000
0001
0100
0001
,
1000
0000
1000
0000
0001
0000
0000
0010
0000
0100
0000
0000
1000
0000
0001
0000
,
0100
0000
0010
0000
0001
0000
0000
0020
0000
0000
0000
0000
0000
0000
0000
0000
,
1030
0010
0100
0001
0020
0000
2030
0000
,
3002
0000
0203
0000
0000
1300
0001
1000
,
0020
0032
2003
3200
,
0301
1000
0001
0010
0200
0000
0302
0000
,
2003
0000
3020
0000
0000
0000
0000
0031
,
1000
0010
0001
0010
1000
0010
0100
0001
,
0000
1000
0000
0000
0200
0000
0310
0000
0001
0000
1000
0000
0000
0010
0000
0000
,
0100
0000
0000
0001
0000
0000
0010
0000
0000
0100
0000
0000
1000
0000
0000
0000
,
0001
1000
0001
1000
0001
1000
0010
0100
,
0001
0010
0100
1000
0010
0000
0100
0010
,
1000
0000
0001
0000
0010
0000
0000
0010
0000
0000
0010
0000
0001
0000
1000
0000
,
0020
0200
0000
0000
0000
0000
0330
0100
,
0100
0001
1000
0100
0020
0000
0031
0010
,
1000
0000
0010
0000
0001
0000
0000
1000
0000
0000
0002
0000
0000
0000
0000
0000
,
2003
0000
0000
3010
0100
1000
0100
0010
,
1000
0000
0001
0000
0000
0010
0000
0000
0100
0000
0000
0100
0000
0000
1000
0000
,
0000
1000
0000
0000
0001
0000
0000
1000
0000
0000
0010
0000
0000
0100
0000
0000
,
0002
0000
0000
1003
0100
0001
0100
1000
,
0001
0200
0000
0000
0310
0100
0100
0010
,
1000
1000
0010
0100
0100
0010
1000
1000
,
0001
0000
0000
1000
0000
0000
0100
0000
0000
0010
0000
0000
0001
0000
1000
0000
,
1000
0000
0010
0000
0100
0000
0001
0000
2000
0000
0000
3200
0000
0000
0302
0000
,
0000
0000
1003
0010
0001
2000
0000
0000
,
3010
0000
0000
0100
0000
0000
0110
0000
0000
1001
0000
0000
0001
0000
0010
0000
,
1000
0001
1000
0010
0012
0000
0000
0000
,
0000
1003
0010
0001
0010
1000
0100
0001
,
0200
0000
0000
1300
0001
0100
0100
0010
,
1000
1000
0001
0010
0200
0000
1300
0200
,
0000
0000
0310
0001
0100
0020
0000
1030
,
0002
0000
0000
1003
0100
1000
0001
0100
,
1000
0100
0001
0100
0020
0000
0000
2030
,
0000
0000
0000
0000
3002
0000
0000
0023
0000
0000
2030
0000
0000
3002
0000
0000
,
0203
0000
0000
1300
0001
0100
0020
0000
,
0000
2030
0000
0000
3001
1000
0100
0010
,
0001
0100
0010
1000
0100
0010
0001
0100
,
0020
0000
0000
0031
0010
1000
0002
0000
,
0000
0000
0000
0000
0013
0000
0000
0001
,
0001
1000
1010
0000
0000
0101
0000
0000
,
2001
0000
0000
0100
0000
0000
0001
0000
,
0000
0000
0010
0000
0000
0000
0000
0000
3001
0000
0000
1000
0000
0000
0010
0000
,
0001
0000
0010
0000
1000
0000
0000
0001
0000
0000
0010
0000
1000
0000
0010
0000
,
0001
0000
0000
1000
0000
0000
0010
0000
0000
0100
0000
0000
0001
0000
1000
0000
,
0100
0010
0001
0100
0120
0000
0000
1000
,
1000
1030
0002
0000
0000
0010
0000
0000
,
1003
0001
0100
1000
0100
0001
1000
0100
,
0001
0000
0100
0000
1000
0000
0001
0000
0100
0000
0000
0100
0000
0000
1000
0000
,
0001
0000
0010
0000
1000
0000
0000
1000
0000
0000
0001
0000
0010
0000
1000
0000
,
0001
0000
0000
0001
0000
0000
0100
0000
1000
0000
0001
0000
0100
0000
1000
0000
,
0001
0010
1000
0001
0000
0000
0000
0000
;

//--------------- dance-single - Talkion ----------------
#NOTES:
     dance-single:
     Talkion:
     Medium:
     15:
     0,0,0,0,0:
0000
0000
0000
0000
,
1000
0000
0000
1000
0000
0000
0001
0000
1000
0000
0100
0000
0010
0000
0000
0010
,
0000
0000
1000
0000
0010
0000
0001
0000
1000
0000
0000
1000
0000
0000
0001
0000
,
1000
0000
0010
0000
0100
0000
0000
0100
0000
0000
1000
0000
0100
0000
0001
0000
,
1000
0000
0000
1000
0000
0000
0100
0000
0010
0000
0001
0000
0100
0000
0000
0100
,
0000
0000
0010
0000
0100
0000
0001
0000
1000
0000
0000
1000
0000
0000
0100
0000
,
1000
0000
0010
0000
0100
0000
0000
0100
0000
0000
0010
0000
1000
0000
0001
0000
,
0011
0000
0000
0011
0000
0000
0010
0000
0001
0000
1000
0000
1010
0000
0000
1010
,
0000
0000
0010
0000
0100
0000
0001
0000
1001
0000
0000
1001
0000
0000
1000
0000
,
0100
0000
0010
0000
0110
0000
0000
0110
0000
0000
0001
0000
1000
0000
0010
0000
,
1010
0000
0000
0101
0000
0000
0001
0000
1000
0000
0100
0000
1100
0000
0000
0011
,
0000
0000
0001
0000
1000
0000
0010
0000
0110
0000
0000
1001
0000
0000
1000
0000
,
0100
0001
1000
0010
1000
0001
0100
1000
,
00M2
0000
0000
0000
0000
0000
0000
0000
0000
0103
0010
1000
0001
0010
0100
0001
,
0100
0010
0002
0000
0000
1003
0001
0100
0020
0000
0000
0130
0010
1000
0002
0000
,
0000
0013
0100
1000
0001
0100
0010
0001
0010
0100
0002
0000
0000
2003
0000
0000
,
3200
0000
0000
0000
0000
0000
0001
0000
0000
0000
0000
0000
0010
0000
0000
0000
0000
0000
1300
0000
0001
0000
0100
0000
0020
0000
0000
0001
0000
0000
1030
0000
,
0001
0000
0010
0000
0200
0000
0000
0001
0000
0000
1300
0000
0001
0000
0100
0000
0020
0000
0000
0001
0000
0000
1030
0000
0001
0000
0010
0000
0200
0000
0000
0001
,
0000
1300
0001
0100
0010
0000
1000
0000
0001
0000
0010
0000
0100
0000
1000
0000
,
0020
0000
0000
0000
0000
0000
0230
0000
0000
0301
0100
0010
2M00
0000
0001
0000
,
3100
0020
0100
0031
2000
0000
0000
3010
,
0100
0001
0020
0000
0000
0130
0010
0001
,
0200
0000
0000
1300
0100
0001
2000
0010
,
3001
0200
0010
0301
2000
0000
0000
3200
,
0000
0000
0302
0000
0000
0203
0000
0000
,
2300
0000
0000
0000
0000
0000
3001
0000
1000
0000
0010
0000
0200
0000
0000
1000
,
0000
0000
0301
0000
0100
0000
0010
0000
1000
0000
0000
0001
1000
0100
0010
0000
,
1000
0000
0010
0000
0001
0000
1000
0000
0010
0100
0001
0000
1000
0000
0100
0000
,
0010
0000
0010
0001
1000
0010
0100
0000
0010
0000
1000
0001
0020
0000
0000
1000
,
0000
0000
0031
0000
0010
0000
0100
0000
1000
0001
0000
0001
0100
0010
1000
0000
,
0000
0001
0000
0000
1000
0010
0000
0010
0001
0000
0001
0010
0000
0010
1000
0000
,
1000
0000
0001
0000
0010
0100
0010
0000
1000
0000
0010
0100
100M
0000
0000
0000
,
0000
0000
0001
0000
0000
0100
0100
0100
001M
0000
0000
0010
0000
0000
1000
0000
,
0100
0000
0001
0000
1000
0000
0000
1000
0000
0000
0010
0000
0001
0000
0100
0000
,
0010
0000
0000
0010
0000
0000
1000
0000
0100
0000
0001
0000
1000
0000
0000
1000
,
0000
0000
0010
0000
0001
0000
0100
0000
0010
0000
1000
0010
0100
0001
1000
0000
,
0100
0000
0100
0000
1000
0001
0100
0010
0000
1000
0000
0010
0100
0001
1000
0100
,
0010
0000
1000
0000
0010
0002
0000
1000
0000
0000
0000
0000
0103
0000
0000
0010
,
0000
0000
1000
0000
0001
1000
0100
0010
0002
0000
0000
0000
0203
0000
0000
0000
,
2300
0000
3002
0000
0000
1003
0100
0001
,
2000
3200
0302
2003
,
3010
0000
0001
1000
0001
0100
0010
1000
0002
0000
0000
0000
0023
0000
0000
0000
,
2030
0000
3002
0000
0000
0000
1003
0010
,
0001
0000
1000
0000
0010
0000
0001
0000
0010
0000
1000
0000
0001
0010
0001
0000
,
1000
0010
0000
0001
0010
0100
0001
0000
1000
0000
0100
0010
0000
0010
0001
0000
,
0001
0100
0000
0100
0010
0000
0010
1000
0000
1000
0001
0000
0020
0000
0000
0000
,
0230
0000
0000
0000
0000
0000
0301
0000
0100
0000
1000
0000
0001
0100
0000
0100
,
0010
0000
1000
0010
0100
0001
1000
0010
0100
0000
0010
1000
0000
1000
0001
0000
,
0010
0000
0100
0000
2000
0000
0000
0010
0000
0000
3001
0000
1000
0000
0100
0000
,
0001
0100
0020
0000
0000
0000
0000
0000
0000
0000
0000
0000
0031
0000
1000
0000
,
1000
0000
0010
0000
0100
0000
0001
0000
2000
0000
0000
3100
1000
0000
0001
0000
,
0100
0000
1000
0000
0200
0000
0000
0302
0000
0000
2003
0000
0000
0000
0000
0000
,
3200
0000
0000
0000
0000
0000
0310
0100
0000
0010
0100
1000
0001
0000
0100
0000
,
0010
0000
1000
0000
0000
0001
0000
0000
0011
0000
0000
0011
0000
0000
1100
0000
,
0000
1100
0000
0000
1000
0000
0000
0001
1000
0010
0100
0000
0000
0010
0000
0000
,
2000
0000
0000
0000
0000
0000
3001
1000
0100
0001
0100
0010
0001
0000
1000
0000
,
0010
0100
0002
0000
0000
1003
0001
0000
0010
0000
0100
0010
0001
0000
0100
0000
,
0010
0100
0001
0000
0010
0000
0100
0010
0001
0000
0100
0000
0010
1000
0100
0010
,
0001
0000
0000
0101
0000
0000
0110
0000
0000
1010
0000
0000
1000
0000
0001
1000
,
0100
1000
0001
0000
0000
1000
0001
0100
0010
0000
0000
1010
0000
0000
0021
0000
,
0000
0000
1030
0010
0001
0201
0000
0000
,
0310
0000
0000
0110
0000
0000
1001
0000
0000
0110
0000
0000
1000
0100
0010
0001
,
1000
0010
0100
0000
1000
0000
0100
0010
2000
0000
0000
0000
0000
0000
3001
0000
,
1000
0000
0100
0010
0001
0000
0010
0001
1000
0000
0001
1000
0010
0000
1000
0010
,
0200
0000
0000
1300
0100
0001
0001
1000
,
0100
0010
0001
0100
0020
0000
0031
0020
,
0000
0000
0000
0000
1030
0000
0001
0000
0010
0000
0200
0000
0000
0000
1300
0001
,
0200
0000
0000
0000
0000
0000
0310
0000
0100
0000
0010
0000
1000
0000
0001
0010
,
0001
0000
1000
0010
0100
0001
1000
0010
0200
0000
0000
0000
0000
0000
0302
0000
,
0000
0000
0000
0000
0023
0000
0000
2030
0000
0000
3002
0000
0000
0203
0000
0000
,
2300
0000
0000
0000
0000
0000
3001
0000
1000
0000
0010
0100
0002
0000
0000
0000
,
0000
0000
2003
0000
0000
0000
0000
0000
3100
0000
0010
0100
1000
0000
0010
0000
,
0100
0010
1000
0000
0100
0000
0010
0100
1000
0000
0010
0000
0100
0001
0010
0100
,
1000
0000
0000
1000
0000
0000
0001
0000
0100
0000
0010
0000
1000
0000
1000
0000
,
0001
0010
0100
0000
1000
0000
1000
0000
0201
0000
0000
0000
0000
0000
0010
0000
,
0310
0000
0001
0010
0100
0000
0010
0000
1000
0000
1001
0000
0000
0000
0000
0000
,
1200
0000
0000
0000
0000
0000
0001
0000
0000
0000
1300
0000
0001
0000
0100
0010
,
0100
0000
0001
0000
1000
0000
0100
0000
0020
0000
0000
1000
0000
0000
0031
0000
,
1000
0000
0010
0000
0200
0000
0000
1000
0000
0000
0301
0000
1000
0000
0100
0000
,
0020
0000
0000
1000
0000
0000
0001
0000
0000
1000
0000
0000
0031
0000
1000
0000
,
1010
0000
0001
0000
0010
0000
0011
0000
1000
0000
0000
0001
0000
0001
1000
0000
,
0010
0100
0001
1000
0100
0001
1000
0010
,
0001
0000
1000
0000
0001
0000
0100
0000
0010
0000
1000
0000
0001
0010
0100
0000
,
0001
0000
0100
0010
0001
1000
0010
0100
0001
0000
0000
0101
0000
0000
1000
0100
,
0010
0001
1000
0000
0001
0000
0000
0011
0000
0000
1000
0010
0100
0001
1000
0000
,
0001
0000
0000
0101
0000
0000
1000
0100
0010
0001
1000
0000
0010
0100
0010
0100
,
0010
0100
0010
0100
0010
0100
0010
0100
0000
0000
0000
0000
0000
0000
0000
0000
;

//--------------- dance-single - Talkion ----------------
#NOTES:
     dance-single:
     Talkion:
     Hard:
     17:
     0,0,0,0,0:
0000
0000
0000
0000
,
1010
0000
0000
1010
0000
0000
0010
0000
0100
0000
0001
0000
1001
0000
0000
1001
,
0000
0000
1000
0000
0100
0000
0010
0000
0011
0000
0000
0011
0000
0000
0001
0000
,
1000
0000
0010
0000
0110
0000
0000
0110
0000
0000
0100
0000
0001
0000
1000
0000
,
1100
0000
0000
1100
0000
0000
0100
0000
0010
0000
0001
0000
1001
0000
0000
1001
,
0000
0000
1000
0000
0010
0000
0100
0000
0101
0000
0000
0101
0000
0000
0001
0000
,
1000
0000
0100
0000
0110
0000
0000
0110
0000
0000
0010
0000
0001
1000
0001
0100
,
0020
0000
0000
1030
0000
0001
0010
0000
0001
0000
1000
0000
1010
0000
0000
0101
,
0000
0000
0001
0000
0010
0000
0100
0000
1100
0000
0000
0011
0000
0000
0001
0000
,
0100
0000
0010
0000
1010
0000
0000
0101
0000
0000
0001
0000
1000
0000
0100
0000
,
0110
0000
0000
1001
0000
0000
0001
0000
1000
0000
0010
0000
0110
0000
0000
1001
,
0000
0000
0001
0000
0010
0000
0100
0000
1100
0000
0000
0011
0000
0000
0001
0000
,
0100
0000
0010
0000
1000
0001
1000
0100
1000
0001
1000
0010
0100
0001
0010
0100
,
200M
0000
0000
0000
0000
0000
0000
0000
0000
3001
1000
0010
0001
0010
1000
0001
,
0010
0000
0100
0000
0002
0000
0000
0000
0103
0000
1000
0000
0001
0000
0100
0000
0020
0000
0000
0000
0000
0000
0031
0000
0010
0000
1000
0001
2000
0000
0000
0000
,
0000
0000
3100
0000
0010
0100
1000
0000
0001
0000
0100
0000
1000
0000
0100
0000
0001
0000
1000
0000
0200
0000
0000
0000
0000
0000
0320
0000
0000
0000
0000
0000
,
0032
0000
0000
0000
0000
0000
1000
0000
0000
0000
0103
0010
2000
0000
0000
0000
0000
0000
3001
0000
1000
0000
0100
0000
1100
0000
0000
M100
0000
0000
0001
0000
,
1000
0000
0100
0000
1100
0000
0000
M100
0000
0000
0001
0000
1000
0000
0010
0000
1010
0000
0000
M010
0000
0000
0001
0000
1000
0000
0010
0000
1010
0000
0000
M010
,
0000
0001
1000
0100
0020
0000
2030
0000
3002
0000
0203
0000
2300
0000
3020
0000
,
0230
0000
0000
0000
0000
0000
0302
0000
0000
0103
0010
1000
1M01
0000
0001
0010
,
0100
0000
2000
0000
0010
0000
3001
0000
1000
0000
0010
0100
0001
0000
0020
0000
,
0100
0000
0031
0000
1000
0000
0001
0100
0010
0000
2000
0000
0100
0000
3001
0000
,
0010
0000
0100
1000
0001
0000
0100
0010
1000
0001
0010
0100
1000
0000
0001
0100
,
0010
0000
2000
0000
0100
0000
3001
0000
1000
0000
0100
0010
0001
0000
0020
0000
,
0100
0000
0031
0000
1000
0000
0001
0100
0010
0000
0001
0000
0010
0000
1000
0100
,
0010
0000
0001
0000
1000
0000
0001
0100
0010
1000
0001
1000
0100
0000
0000
M101
,
0000
0000
0001
1000
0001
0010
0100
1000
0001
0100
0010
0001
0010
1000
0001
0000
,
1000
0100
0010
0001
1000
0000
0001
0000
0100
0010
0001
0000
0010
0100
0001
0000
,
0100
0001
1000
0001
0010
0100
1000
0010
0100
0001
1000
0100
0001
0000
0000
0100
,
0000
0000
0000
0100
0000
0000
0010
0000
0000
0001
0000
0000
1000
0000
0000
0001
0000
0000
0100
0000
0000
0010
0000
0000
1000
0000
0000
0010
0000
0000
0100
0000
0000
0001
0000
0000
1000
0000
0100
0000
0010
0000
0001
0000
0000
0000
0000
0000
,
0000
0010
0000
0000
1000
0010
0100
1000
0010
0100
1000
0100
0001
1000
0100
0010
,
0001
0000
1000
0000
0010
0010
0100
0001
0010
0100
1000
0010
020M
0000
0000
0000
,
0000
0000
1000
0000
0000
0001
0001
0301
10M1
0000
0000
1001
0000
0000
1000
0000
,
0100
0000
0010
0000
0011
0000
0000
0011
0000
0000
0001
0000
0100
0000
0010
0000
,
1010
0000
0000
1010
0000
0000
1000
0000
0001
0000
0010
0000
0110
0000
0000
0110
,
0000
0000
0100
0000
1000
0000
0001
0000
1000
0010
0001
0010
0100
0001
1000
0100
,
0010
0000
0010
0000
0001
1000
0010
0100
0000
1000
0000
0100
0010
1000
0001
0010
,
0100
1000
0001
0000
0100
0010
0000
2000
0000
0000
3001
0000
1000
0100
0000
0010
,
0000
0010
0001
1000
0010
0100
0001
1000
0200
0000
0010
0000
2300
0000
0010
0000
,
3200
0010
0302
0000
0103
1000
0001
1000
,
0020
0000
0100
0000
2030
0000
0100
0000
3020
0000
0100
0000
0031
0000
0000
0001
,
0010
0100
0001
1000
0100
0010
0100
1000
0002
0000
0100
0000
0023
0000
0100
0000
,
0032
0000
0100
0000
0023
0000
0000
0000
1030
0000
0010
0000
0001
1000
0001
0100
,
0010
1000
0001
1000
0100
1000
0001
0100
0010
1000
0001
0010
0100
0001
0100
1000
,
0001
0000
0000
1000
0000
0000
0010
0000
0000
0100
0000
0000
0001
0000
1000
0000
0100
0000
0010
0000
0000
0001
0000
0000
1000
0000
0000
0000
0000
0000
0001
0000
0000
0100
0000
0000
0000
0000
0000
0100
0000
0000
1000
0000
0000
0000
0000
0000
,
0001
0010
0000
0010
1000
0000
0001
0100
0000
0100
1000
0000
0100
0001
0010
0000
,
0001
0000
1000
0000
0001
0000
1000
0000
0000
0100
0000
0000
0010
0000
0000
0001
0000
0000
0010
0000
0000
0100
0000
0000
1000
0000
0000
0010
0000
0000
0100
0000
0000
0001
0000
0000
1000
0000
0000
0100
0000
0000
0000
0000
0000
0100
0000
0000
,
0010
0000
1000
0010
0001
1000
0010
0100
0002
0000
0103
0001
1000
0100
0010
1000
,
0010
0001
1000
0010
0200
0000
0000
1000
0000
0000
0301
0000
1000
0000
0100
0000
,
0001
0100
2000
0000
0000
0000
0000
0000
0000
0000
0000
0000
3010
0000
1010
0000
,
1000
0001
0010
0100
1000
0001
0010
0001
0200
0000
0000
1300
0100
0000
0001
0000
,
1000
0000
0100
0000
0020
0000
0000
1000
0000
0000
0032
0000
0000
0000
0000
0000
,
0203
0000
0000
0000
0000
0000
0310
0100
0001
1000
0100
0010
0001
0000
1000
0010
,
0100
0000
0002
0000
0000
1003
0000
0000
1100
0000
0000
0101
0000
0000
0011
0000
,
0000
1010
0000
0000
1000
0001
0000
0100
0010
1000
0002
0000
0000
0013
0100
1000
,
0002
0000
0000
0000
0000
0000
0000
0000
0000
0000
0000
0000
0103
0000
0000
0000
0000
0000
0010
0000
0000
1000
0000
0000
0001
0000
0010
0000
0100
0000
1000
0000
0000
0001
0000
0000
1000
0000
0000
0010
0000
0000
0100
0000
0000
0001
0000
0000
,
0100
0010
2000
0000
0000
3001
1000
0100
0010
0000
0100
1000
0001
1000
0010
1000
,
0001
1000
0010
0100
0001
1000
0100
0010
0000
0010
1000
0000
0010
0001
1000
0010
,
0100
1000
0100
0010
1000
0010
0100
1000
0100
0010
1000
0001
0010
0000
0100
0100
,
1000
0001
1000
0010
0100
0001
1000
0100
0010
0000
0000
0110
0000
0000
1002
0000
,
0000
0000
0000
0000
0103
0000
0010
0000
1000
0000
1001
0000
0001
0010
0100
1000
,
0001
0000
0000
0101
0000
0000
1010
0000
0000
1001
0000
0000
0001
0010
0100
1000
,
0001
0100
0010
0001
0010
1000
0001
0010
0200
0000
0000
0000
0000
0000
1300
0000
,
0001
0000
0100
0010
1000
0000
0100
0010
1000
0000
0010
0001
1000
0000
0010
0100
,
0002
0000
0000
0000
0000
0000
1003
0000
0001
0000
0010
0000
1000
0000
0010
0100
,
1000
0000
0001
1000
0010
0100
0001
0000
2000
0000
0000
0000
3100
0000
0002
0000
,
0000
0000
0000
0000
1003
0000
0010
0000
0001
0000
0200
0000
0000
0000
0310
0100
,
0002
0000
0000
0000
0000
0000
1003
0000
0001
0000
0010
0000
0100
1000
0001
1000
,
0010
0100
0001
0100
0010
1000
0001
0010
0200
0000
0000
0000
0000
0000
2300
0000
,
0000
0000
0000
0000
3020
0000
0000
0032
0000
0000
2003
0000
0000
3200
0000
0000
,
0302
0000
0000
0000
0000
0000
1003
0000
0001
0000
0010
0100
2000
0000
0000
3100
,
1000
0000
0001
0000
0100
0000
0010
0000
1000
0001
0010
0100
0001
0100
1000
0001
,
1000
0010
0100
1000
0100
0001
1000
0100
0010
0001
0010
0100
1000
0001
0100
0010
,
2000
0000
0000
0100
0000
0000
3001
0000
1000
0000
0010
0000
0100
0000
0100
0000
,
0001
0100
0010
0000
1000
0000
1000
0000
0021
0000
0000
0000
0000
0000
0130
0010
,
0001
1000
0010
0100
0002
0000
0000
0000
0000
0000
0023
0000
0000
0000
0000
0000
,
0230
0000
0000
0000
0000
0000
2300
0000
0000
0000
0000
0000
3010
0000
0000
0010
,
0000
0000
0100
0000
0010
0000
1000
0000
1100
0000
0000
M101
0000
0000
0001
0000
,
0010
0000
0100
0000
1100
0000
0000
M101
0000
0000
0001
0000
0010
0000
0100
0000
,
1100
0000
0000
M101
0000
0000
0011
0000
0000
101M
0000
0000
1001
0000
0100
0000
,
0010
0000
1001
0000
0100
0000
0010
0000
1001
0000
0000
0001
0000
0001
1000
0100
,
1000
0001
0100
0010
1000
0001
0010
0001
1000
0010
0100
0001
1000
0100
0010
0001
,
1000
0010
0100
0010
0001
0010
0100
0010
1000
0001
1000
0100
0010
0100
0001
0100
,
0010
0100
1000
0001
0100
0010
1000
0001
0010
0000
0000
101M
0000
0000
1000
0100
,
0001
0100
0010
0001
0100
0000
0000
110M
0000
0000
1000
0010
0001
0010
0100
0001
,
0010
0000
0000
101M
0000
0000
1000
0100
0001
0100
0010
1000
0001
0100
1000
0001
,
0100
1000
0001
0010
1000
0001
0010
1000
0000
0000
0000
0000
0000
0000
0000
0000
;

//--------------- dance-double - Talkion ----------------
#NOTES:
     dance-double:
     Talkion:
     Hard:
     17:
     0,0,0,0,0:
00000000
00000000
00000000
00000000
,
10100000
00000000
00000000
10100000
00000000
00000000
00100000
00000000
01000000
00000000
00001000
00000000
00010000
00000000
00000000
00010000
,
00000000
00000000
00000100
00000000
00000010
00000000
00000001
00000000
00000101
00000000
00000000
00000101
00000000
00000000
00000100
00000000
,
00000010
00000000
00010000
00000000
00001000
00000000
00000000
00001000
00000000
00000000
00100000
00000000
01000000
00000000
10000000
00000000
,
10100000
00000000
00000000
10100000
00000000
00000000
00100000
00000000
01000000
00000000
00001000
00000000
00010000
00000000
00000000
00010000
,
00000000
00000000
00000100
00000000
00000010
00000000
00001000
00000000
00011000
00000000
00000000
00011000
00000000
00000000
00010000
00000000
,
01000000
00000000
00100000
00000000
00001000
00000000
00000000
00001000
00000000
00000000
00010000
00000000
00000010
00001000
00000010
00000100
,
00000002
00000000
00000000
00001003
00000000
00000100
00010000
00000000
00001000
00000000
01000000
00000000
00100000
00000000
00000000
00100000
,
00000000
00000000
10000000
00000000
00010000
00000000
00100000
00000000
00101000
00000000
00000000
00101000
00000000
00000000
00001000
00000000
,
00010000
00000000
00000100
00000000
00000010
00000000
00000000
00000010
00000000
00000000
00000001
00000000
00001000
00000000
00000100
00000000
,
00010100
00000000
00000000
00010100
00000000
00000000
00010000
00000000
00001000
00000000
01000000
00000000
00100000
00000000
00000000
00100000
,
00000000
00000000
10000000
00000000
00010000
00000000
00100000
00000000
00101000
00000000
00000000
00010100
00000000
00000000
00000100
00000000
,
00000010
00000000
00000001
00000000
00001000
00000010
00001000
00000001
00001000
00000100
00010000
00001000
00100000
00010000
10000000
00100000
,
0200M000
00000000
00000000
00000000
00000000
00000000
00000000
00000000
00000000
03001000
00010000
00000100
00000010
00000100
00010000
00001000
,
01000000
00000000
00100000
00000000
20000000
00000000
00000000
00000000
30010000
00000000
00100000
00000000
00001000
00000000
00010000
00000000
00000020
00000000
00000000
00000000
00000000
00000000
00000130
00000000
00000010
00000000
00001000
00000001
00002000
00000000
00000000
00000000
,
00000000
00003100
00000010
00001000
00010000
00000100
00001000
00000001
00000100
00001000
00020000
00000000
00000000
01000000
00000000
00000000
,
00032000
00000000
00000000
00000000
00000000
00000000
01003000
00000000
00000000
00000000
00100000
10000000
00010000
00000000
00000000
00000000
00000000
00000000
10000000
00000000
01000000
00000000
00010000
00000000
00011000
00000000
00000000
0001M000
00000000
00000000
01000000
00000000
,
00001000
00000000
00010000
00000000
00011000
00000000
00000000
0001M000
00000000
00000000
00100000
00000000
00001000
00000000
00010000
00000000
00011000
00000000
00000000
000M1000
00000000
00000000
00000100
00000000
00010000
00000000
00001000
00000000
00011000
00000000
00000000
000M1000
,
00000000
00000010
00010000
00001000
00011000
00000000
00010000
00000000
01000000
00000000
10000000
00000000
00100000
00000000
00010000
00000000
,
00002000
00000000
00000000
00000000
00000000
00000000
00003020
00000000
00000000
00000031
00001000
00000010
000M0210
00000000
00000001
00001000
,
00000000
00000000
00010300
00000000
00001000
00000000
01000000
00000000
00200000
00000000
10000000
00010000
00000000
00000000
00301000
00000000
,
00010000
00000000
00000100
00000000
00000020
00000000
00000001
00001000
00000000
00000000
00000130
00000000
00000010
00000000
00010000
00000000
,
00002000
00000000
00010000
00000100
00000000
00000000
00003010
00000000
00010000
00001000
01000000
00000000
00200000
00000000
10000000
00010000
,
00000000
00000000
00301000
00000000
00010000
00000000
00000010
00000000
00000200
00000000
00000001
00001000
00000000
00000000
00010300
00000000
,
00001000
00000000
00100000
00000000
02000000
00000000
10000000
00010000
00000000
00000000
03100000
00000000
01000000
00000000
00001000
00010000
,
00000100
00000000
00000010
00000000
00000001
00000000
00001000
00000000
00000001
00000100
00000010
00010000
00001000
00000000
00000000
000M1100
,
00000000
00000000
00000100
00000000
00010000
00000000
00001000
00000000
01000000
00100000
01000000
00001000
00010000
00000100
00001000
00000000
,
00000001
00001000
00000100
00000000
00010100
00000000
00010000
00000000
00001000
01000000
00010000
00000000
10000000
00000000
01000000
00000000
,
00010000
00001000
00100000
00010000
01000000
00001000
00010000
00000010
00001000
00000100
00000010
00000001
00000100
00000000
00000000
00001000
,
00000000
00001000
00010000
00000000
00000100
00000000
00000010
00000100
00001000
00000010
00000100
00010000
00001000
00000010
00000100
00000000
,
00000000
00001000
00000000
00000000
00010000
00001000
00000000
00001000
00100000
00000000
00100000
00010000
10000000
00100000
01000000
00001000
,
00010000
00000000
00000100
00000000
00000010
00000010
00000001
00001000
00000001
00000100
00000010
00001000
M0010000
00000000
00000000
00000000
,
00000000
00000000
10000000
00000000
00000000
01000000
01000000
01000000
1100000M
00000000
00000000
11000000
00000000
00000000
01000000
00000000
,
00010000
00000000
00001000
00000000
00001010
00000000
00000000
00001010
00000000
00000000
00000010
00000000
00000001
00000000
00000100
00000000
,
00001100
00000000
00000000
00001100
00000000
00000000
00001000
00000000
00010000
00000000
00100000
00000000
10100000
00000000
00000000
10100000
,
00000000
00000000
10000000
00000000
00010000
00000000
00100000
00000000
00001000
00010000
00000100
00001000
00000001
00000100
00000001
00000100
,
00001000
00000000
00001000
00000000
00010000
00100000
00010000
00100000
00000000
10000000
00000000
00010000
00100000
01000000
10000000
00010000
,
01000000
00001000
00010000
00000000
00000100
00000010
00000000
00002000
00000000
00000000
00003010
00000000
00000001
00001000
00000000
00001000
,
00000000
00000100
00010000
00001000
01000000
00100000
10000000
01000000
00200000
00000000
00000000
00000000
00302000
00000000
00000000
00000000
,
00003002
00000000
00002003
00000000
00000000
00103000
01000000
10000000
,
00200000
00302000
00003002
00002003
,
00003100
00010000
00001000
01000000
00010000
10000000
00010000
00100000
02000000
00000000
00000000
00000000
03002000
00000000
00000000
00000000
,
00003002
00000000
00000000
00000000
00002003
00000000
00000000
00000000
00000000
00000000
00000000
00000000
00003010
00010000
00001000
00100000
,
01000000
00100000
10000000
00100000
00010000
00100000
01000000
10000000
00010000
01000000
00001000
00010000
00000100
00000000
00000010
00000001
,
00000000
00000000
00000000
00000001
00000000
00000000
00001000
00000000
00000000
00000000
00000000
00000000
00000100
00000000
00010000
00000000
00000100
00000000
00010000
00000000
00000000
00000000
00000000
00000000
00001000
00000000
00000000
00000000
00000000
00000000
01000000
00000000
00000000
10000000
00000000
00000000
00000000
00000000
00000000
01000000
00000000
00000000
00001000
00000000
00000000
00000000
00000000
00000000
,
00100000
10000000
00000000
00100000
00001000
00000000
00010000
00000100
00000000
00000010
00000001
00000000
00001000
00000001
00000100
00000000
,
00000010
00000000
00000100
00000000
00000010
00000000
00000100
00000000
00000000
00000000
00000000
00000000
00000010
00000000
00000000
00010000
00000000
00000000
00001000
00000000
00000000
00010000
00000000
00000000
00000010
00000000
00000000
00001000
00000000
00000000
00000010
00000000
00000000
00010000
00000000
00000000
00001000
00000000
00000000
00100000
00000000
00000000
00000000
00000000
00000000
00100000
00000000
00000000
,
01000000
00000000
10000000
00010000
01000000
00100000
01000000
00001000
00010000
00000000
00000010
00000100
00000001
00001000
00000001
00000010
,
00000100
00000010
00001000
00010000
02000000
00000000
00000000
00100000
00000000
00000000
13000000
00000000
00010000
00000000
01000000
00000000
,
00001000
00010000
02000000
00000000
00000000
00000000
00000000
00000000
00000000
00000000
00000000
00000000
03010000
00000000
00001000
00000000
,
00000010
00000001
00001000
00000001
00000100
00000010
00010000
00001000
02000000
00000000
00000000
03100000
01000000
00000000
00001000
00000000
,
00010000
00000000
00000100
00000000
00000020
00000000
00000000
00000001
00000000
00000000
00002030
00000000
00000000
00000000
00000000
00000000
,
00023000
00000000
00000000
00000000
00000000
00000000
00030100
00010000
00001000
01000000
00010000
10000000
01000000
00000000
00100000
00000000
,
00001000
00000000
00020000
00000000
00000000
00100000
00000000
00000000
00031000
00000000
00000000
00000001
00000000
00000000
00001000
00000000
,
00000000
00010000
00000000
00000000
10000000
00000000
00000000
00010000
00001000
00010000
00002000
00000000
00000000
00003010
00000100
00001000
,
00000002
00000000
00000000
00000000
00000000
00000000
00000000
00000000
00000000
00000000
00000000
00000000
00000000
00000000
00000000
00000000
00000000
00000000
00000103
00000000
00000000
00000010
00000000
00000000
00001000
00000000
00000001
00000000
00001000
00000000
00000001
00000000
00000000
00000010
00000000
00000000
00000100
00000000
00000000
00010000
00000000
00000000
00001000
00000000
00000000
00000000
00000000
00000000
,
00100000
00010000
20000000
00000000
00000000
30100000
10000000
00010000
00100000
00000000
00001000
00010000
00000100
00001000
00000010
00010000
,
00000100
00001000
00000010
00010000
00001000
00100000
00010000
10000000
00000000
10000000
00100000
00000000
01000000
00001000
00010000
00000100
,
00000010
00000000
00000000
00000011
00000000
00000000
00010100
00000000
00000000
00011000
00000000
00000000
00001000
00000000
01000000
01000000
,
00010000
10000000
01000000
00100000
00010000
01000000
00001000
00010000
00000200
00000000
00000000
00000001
00000000
00000000
00002300
00000000
,
00000000
00000000
01003000
10000000
00010000
02000000
00000000
00000000
,
03001000
00000000
00000000
00010100
00000000
00000000
00000110
00000000
00000000
00001001
00000000
00000000
00000001
00000100
00000010
00001000
,
00010000
01000000
00100000
00000000
10000000
00010000
00100000
00001000
00020000
00000000
00000000
00000000
00000000
00000000
00030100
00000000
,
00000010
00000000
00001000
00000010
00000100
00000000
00001000
00000010
00000100
00000000
00001000
00010000
00100000
00000000
00010000
00100000
,
20000000
00000000
00000000
30010000
10000000
01000000
00010000
00001000
,
00010000
00100000
00010000
00001000
00000020
00000000
00000130
00020000
,
00000000
00000000
00000000
00000000
00031000
00000000
01000000
00000000
00100000
00000000
20000000
00000000
00000000
00000000
30010000
00100000
,
00002000
00000000
00000000
00000000
00000000
00000000
00013000
00000000
00000010
00000000
00010000
00000000
00001000
00000010
00000001
00001000
,
00000001
00000100
00000010
00001000
00000100
00000010
00000100
00010000
00002000
00000000
00000000
00000000
00000000
00000000
02003000
00000000
,
00000000
00000000
00000000
00000000
13000000
00000000
00000000
00010000
00000000
00000000
00001000
00000000
00000000
00000010
00000000
00000000
,
00000002
00000000
00000000
00000000
00000000
00000000
00001003
00000000
00000001
00000000
00000100
00000010
00020000
00000000
00000000
00000000
,
00000000
00000000
00032000
00000000
00000000
00000000
00000000
00000000
00103000
00001000
00100000
00010000
10000000
00100000
00010000
00100000
,
10000000
00100000
01000000
00001000
00010000
00000100
00001000
00000001
00000010
00001000
00000010
00000001
00000010
00000100
00010000
00001000
,
00200000
00000000
00000000
00000000
00000000
00000000
01300000
00000000
00100000
00000000
00001000
00000000
00010000
00000100
00001000
00000000
,
00000100
00001000
00000001
00000000
00000100
00000000
00000100
00000000
00020010
00000000
00000000
00000000
00000000
00000000
00031000
00010000
,
00001000
01000000
00010000
10000000
02000000
00000000
00000000
00000000
00000000
00000000
03020000
00000000
00000000
00000000
00000000
00000000
,
00030200
00000000
00000000
00000000
00000000
00000000
00000320
00000000
00000000
00000000
00000000
00000000
00000031
00000000
00000000
00000001
,
00000000
00000000
00001000
00000000
00000100
00000000
00010000
00000000
00011000
00000000
00000000
0101M000
00000000
00000000
01000000
00000000
,
00100000
00000000
00010000
00000000
00011000
00000000
00000000
000M1010
00000000
00000000
00000010
00000000
00000100
00000000
00001000
00000000
,
00011000
00000000
00000000
0011M000
00000000
00000000
101M0000
00000000
00000000
10010000
00000000
00000000
11000000
00000000
01000000
00000000
,
00010000
00000000
00011000
00000000
00001000
00000000
00000010
00000000
00000011
00000000
00000000
00000001
00000000
00000001
00001000
00000100
,
00010000
00000000
00001000
01000000
00010000
10000000
00010000
00100000
00010000
10000000
00010000
01000000
00001000
00010000
00000100
00000010
,
00000001
00001000
00000001
00000100
00000010
00010000
00001000
01000000
00100000
10000000
00010000
00100000
00001000
01000000
00010000
00100000
,
00001000
00010000
00000100
00000010
00000001
00000100
00000010
00010000
00001000
00000000
00000000
000M1100
00000000
00000000
00000100
00000010
,
00001000
00010000
00000100
00000000
00010000
00000000
00000000
00110M00
00000000
00000000
00100000
01000000
00010000
00001000
00100000
00000000
,
00001000
00000000
00000000
00M01100
00000000
00000000
00000100
00000010
00001000
00000010
00000001
00001000
00000001
00000100
00001000
00010000
,
00100000
10000000
00100000
00010000
00001000
00000100
00000001
00001000
00000000
00000000
00000000
00000000
00000000
00000000
00000000
00000000
;
