#TITLE:XIII;
#SUBTITLE:;
#ARTIST:Jane Doe;
#TITLETRANSLIT:;
#SUBTITLETRANSLIT:;
#ARTISTTRANSLIT:;
#GENRE:;
#CREDIT:;
#MUSIC:XIII.ogg;
#BANNER:XIII.png;
#BACKGROUND:;
#CDTITLE:;
#SAMPLESTART:59.216;
#SAMPLELENGTH:15.000;
#SELECTABLE:YES;
#OFFSET:0.784;
#BPMS:0.000=164.000;
#STOPS:;
#BGCHANGES:;
#FGCHANGES:;

//--------------- dance-single - PenTA_ ----------------
#NOTES:
     dance-single:
     PenTA_:
     Challenge:
     16:
     0.847649,0.885993,0.365902,0.39557,1.631725,600,563,37,40,0,0,0.847649,0.885993,0.365902,0.39557,1.631725,600,563,37,40,0,0:
0000
0000
0000
0000
,
0000
0000
0000
0000
,
0000
0000
0000
0000
,
0010
1000
0001
0200
0000
0000
0310
1000
0001
0020
0000
0000
,
0130
1000
0001
0100
0000
0100
0010
1000
0010
1000
0001
0100
,
0001
0010
0100
2000
0000
0000
3001
0100
0010
2000
0000
0000
,
3010
0100
0001
0010
0000
0010
0100
1000
0001
1000
0100
1000
,
0001
0100
0010
1010
0000
0000
1000
0100
0010
0011
0000
0000
,
0001
0100
0010
1010
0000
1000
0100
0001
0100
1000
0010
0100
,
0001
0010
0100
1100
0000
0000
1000
0010
0100
0101
0000
0000
,
0001
0010
0100
1100
0000
0100
1000
0001
0010
0100
1000
0001
,
1000
0100
0020
0000
0000
0000
0130
0001
1000
0010
0001
1000
,
0010
0100
0002
0000
0000
0000
0103
1000
0001
0010
1000
0100
,
0010
0001
2000
0000
0000
0000
3100
0010
1000
0010
0100
0010
,
1000
0001
0100
1000
0001
0100
1000
0001
0010
1000
0100
0010
,
0001
0000
0001
0110
0000
0100
1000
0000
1000
0110
0000
0010
,
0001
0000
0001
0110
0000
0100
1000
0000
1000
0110
0000
0010
,
0001
0100
0001
0100
0010
1000
0001
0100
0001
0100
0010
1000
,
0001
0010
0001
0010
0100
1000
0100
0010
0001
0100
1000
0100
,
0010
0000
0010
1001
0000
1000
0100
0000
0100
1001
0000
0001
,
0010
0000
0010
1001
0000
1000
0010
0000
0010
1001
0000
0001
,
0100
0010
0100
0010
1000
0001
0100
0010
0100
0010
1000
0001
,
0100
0010
1000
0001
0010
0100
1000
0010
0001
0010
1000
0010
,
0200
0000
0000
0301
0010
1000
0002
0000
0000
0103
1000
0010
,
0200
0000
0000
0310
1000
0001
0010
0100
0010
0100
0010
0100
,
2000
0000
0000
3100
0010
1000
0002
0000
0000
1003
0010
0001
,
0200
0000
0000
0310
1000
0010
1000
0000
0000
1001
0000
0000
,
0001
0010
1000
1010
0000
1000
0001
0100
1000
1100
0000
0100
,
1000
0010
0001
0011
0000
0001
1000
0100
0001
0010
0100
1000
,
0001
0010
0001
0101
0000
0001
1000
0010
1000
1100
0000
0001
,
0010
0100
0001
1000
0010
0001
1000
0010
0001
1000
0100
0001
,
0020
0000
1000
0100
,
0032
0000
0203
0000
,
0320
0000
0001
0100
,
2030
0000
3002
0000
,
1003
0100
0010
0000
0110
0000
1001
0000
1010
0000
1100
0000
,
0110
0000
1001
0000
0110
0000
1001
0000
0101
0000
1010
0000
,
1000
0000
0100
0010
0100
0000
0001
0000
0100
0010
0100
0000
,
1000
0000
0100
0010
0100
0000
0001
0000
0100
0010
0100
1000
,
0001
0010
1000
0010
0001
0010
0100
1000
0001
0100
0010
0100
,
1000
0100
0001
1000
0010
0001
0010
0100
0010
1000
0100
0010
,
0001
0100
0100
2000
0000
0000
3100
0100
0001
0010
0100
1000
,
0001
0011
0101
1001
,
2000
0000
0000
3100
0100
0010
2000
0000
0000
3100
0100
0010
,
1000
0001
0100
0010
1000
0001
0010
0100
1000
0010
0100
0010
,
2000
0000
0000
3200
0000
0010
0320
0000
0000
0001
0000
0000
,
0130
1000
0100
0010
0000
0000
0110
0000
0000
1001
0000
0000
,
1000
0010
0100
0001
0010
0100
0010
0001
1000
0010
1000
0001
,
0100
0010
1000
0010
0001
0010
1000
0100
0010
0001
1000
0100
,
0020
0000
0000
0031
0100
0100
0020
0000
0000
0031
0100
0100
,
2000
0000
0000
3010
0001
0010
0100
1000
0100
0001
0010
0100
,
2000
0000
0000
3100
0100
0001
0020
0000
0000
0130
1000
0001
,
1000
0010
0100
1000
0001
0010
1000
0100
0010
1000
0001
0100
,
2000
0000
0000
3010
0100
0010
0002
0000
0000
1003
0100
0001
,
0010
0100
1000
0001
0010
0100
1000
0100
0010
0001
1000
0100
,
0001
1000
0010
0001
0100
0010
0001
1000
0100
0001
0010
1000
,
0001
0100
1000
0010
0100
1000
0001
0010
1000
0100
0010
0001
,
2000
0000
0000
0002
,
0000
0000
0000
0000
,
0000
0000
0000
0000
,
3003
0000
0000
0000
,
0001
0000
0100
0000
0010
0000
0100
0000
0001
0000
0100
0000
0020
0000
0000
0000
0000
0000
0000
0000
0000
0030
0000
0000
,
2002
0000
0000
3000
0000
0000
1003
0100
0010
0100
1000
0100
,
0020
0000
0000
0030
2002
0000
0003
0000
,
3010
0100
0001
1000
0010
0100
0001
0010
0100
1000
0100
0010
,
0001
1000
0100
0001
0010
0001
0100
0010
0001
1000
0010
0001
,
1000
0100
0010
0100
0001
0010
0100
0001
0100
1000
0100
0010
,
1000
0010
0001
1000
0010
1000
0100
0001
0010
0001
0100
0001
,
0010
0001
0100
1000
0010
0100
0010
0001
1000
0100
0001
0010
;
