#VERSION:0.83;
#TITLE:Wishful Thinking;
#SUBTITLE:;
#ARTIST:SHINee;
#TITLETRANSLIT:;
#SUBTITLETRANSLIT:;
#ARTISTTRANSLIT:;
#GENRE:J-POP;
#ORIGIN:;
#CREDIT:;
#BANNER:Wishful Thinking.png;
#BACKGROUND:Wishful Thinking-bg.png;
#PREVIEWVID:;
#JACKET:Wishful Thinking-jacket.png;
#CDIMAGE:;
#DISCIMAGE:;
#LYRICSPATH:;
#CDTITLE:CDTitle.png;
#MUSIC:Wishful Thinking.ogg;
#OFFSET:-0.270088;
#SAMPLESTART:40.446999;
#SAMPLELENGTH:21.580000;
#SELECTABLE:YES;
#BPMS:0.000=93.000;
#STOPS:;
#DELAYS:;
#WARPS:;
#TIMESIGNATURES:0.000=4=4;
#TICKCOUNTS:0.000=4;
#COMBOS:0.000=1;
#SPEEDS:0.000=1.000=0.000=0;
#SCROLLS:0.000=1.000;
#FAKES:;
#LABELS:0.000=Song Start;
#LASTSECONDHINT:126.409904;
#BGCHANGES:15.000=Wishful Thinking.avi=1.000=0=0=1=====,
194.813=Wishful Thinking-bg.png=1.000=0=0=1=====,
99999=-nosongbg-=1.000=0=0=0 // don't automatically add -songbackground-
;
#KEYSOUNDS:;
#ATTACKS:
;

//---------------dance-single - ----------------
#NOTEDATA:;
#CHARTNAME:;
#STEPSTYPE:dance-single;
#DESCRIPTION:;
#CHARTSTYLE:;
#DIFFICULTY:Hard;
#METER:9;
#RADARVALUES:0.403431,0.439688,0.398961,0.172101,0.316822,361.000000,310.000000,51.000000,22.000000,0.000000,0.000000,0.000000,0.000000,0.000000,0.403431,0.439688,0.398961,0.172101,0.316822,361.000000,310.000000,51.000000,22.000000,0.000000,0.000000,0.000000,0.000000,0.000000;
#CREDIT:DDRDAIKENKAI;
#NOTES:
// measure 0
0000
0000
0000
0000
,  // measure 1
0000
0000
0000
0000
,  // measure 2
0000
0000
0000
0000
,  // measure 3
0000
0000
0000
1001
,  // measure 4
0001
0010
0001
0100
0010
1000
0001
0000
,  // measure 5
1000
0100
1000
0010
0100
0001
0100
0000
,  // measure 6
1000
0100
0001
1000
0010
0100
0001
0000
,  // measure 7
0010
1000
0010
0001
0100
0010
0010
1000
,  // measure 8
1001
1000
0001
1000
0100
1000
1100
0000
,  // measure 9
1000
0001
1000
0001
0100
0001
2001
0000
,  // measure 10
3001
0010
0100
0010
0001
1000
1000
0000
,  // measure 11
0100
0001
0100
0010
0100
1000
1100
1000
,  // measure 12
0010
0000
0100
0000
0000
0010
0000
0000
1000
0000
0000
0001
0000
0000
1000
0000
0000
0010
0000
0000
0100
0000
0000
0001
,  // measure 13
0000
0000
0001
0000
0000
0001
0000
0000
0000
1000
0000
0000
0000
0000
0000
0100
0000
0000
0110
0000
0000
0010
0000
0000
,  // measure 14
0001
0000
1000
0000
0000
0100
0000
0000
0010
0000
0000
0001
0000
0000
0100
0000
0000
0010
0000
0000
1000
0000
0001
0000
,  // measure 15
1000
0000
0100
0000
1000
0000
0100
0000
1000
0000
0100
0000
1000
0000
0000
1000
0000
0002
0000
0000
0103
0000
0000
0001
,  // measure 16
0000
0000
1000
0000
0000
0000
1100
0000
0000
0000
0000
1000
0000
0000
0001
0000
0000
0000
0101
0000
0000
0000
0000
0000
,  // measure 17
0001
0000
0000
1000
0000
0000
1010
0000
0000
1000
0000
0000
0001
0000
0000
0011
0000
0000
0001
0000
0000
0100
0000
0010
,  // measure 18
0000
0000
0100
0000
0000
0000
0110
0000
0000
0000
0000
1000
0000
0000
0001
0000
0000
0000
1001
0000
0000
0000
0000
0000
,  // measure 19
0001
1000
1100
1000
0001
0101
0001
1000
,  // measure 20
0001
0000
0000
1000
0000
0000
0100
0000
1000
0000
0000
0100
0000
0000
0000
0010
0000
0000
0001
0000
0100
0000
0000
0001
,  // measure 21
0000
0000
0000
0010
0000
0000
0100
0000
0010
0000
0000
0100
0000
0000
0000
1000
0000
0000
0001
0000
0100
0000
0000
0010
,  // measure 22
0000
0000
0010
0000
0000
0000
1100
0000
0000
0000
0000
0001
0000
0000
0001
0000
0000
0000
0110
0000
0000
0000
0000
0000
,  // measure 23
1001
0000
0000
1001
0000
0000
1001
0000
0000
0001
0000
1000
0001
0000
1000
0002
0000
0000
0203
0000
0000
0320
0000
0000
,  // measure 24
2030
3001
0002
0103
,  // measure 25
0010
1000
0010
0100
0001
2000
3100
0000
,  // measure 26
2000
3100
0020
0130
,  // measure 27
1000
0010
0100
0010
1000
0001
1000
1000
,  // measure 28
0002
0013
0200
0310
,  // measure 29
0001
1000
0100
0001
0100
1000
0001
0000
,  // measure 30
2000
0000
3010
0200
0000
0301
2000
0000
,  // measure 31
3100
0100
0100
0100
0010
0110
0011
0000
,  // measure 32
1001
1000
0010
0100
0001
0101
1001
0000
,  // measure 33
1000
0001
0100
0010
1000
1010
1001
0000
,  // measure 34
0001
0010
0100
1000
0010
0110
0101
0100
,  // measure 35
0110
0000
0000
0000
0000
0000
0020
0000
0000
0000
0000
0000
1030
0000
0100
1000
0000
0100
0000
0000
0010
0000
0000
0001
,  // measure 36
0000
0000
1000
0000
0000
0000
1001
0000
0000
0000
0000
0001
0000
0000
0100
0000
0000
0000
0110
0000
0000
0000
0000
0000
,  // measure 37
1000
0000
0000
0100
0000
0000
0110
0000
0000
0001
0000
0000
0100
0000
0000
0110
0000
0000
1000
0000
0000
0001
0000
0010
,  // measure 38
0000
0000
0100
0000
0000
0000
0110
0000
0000
0000
0000
1000
0000
0000
0010
0000
0000
0000
0110
0000
0000
0000
0000
0000
,  // measure 39
0100
0001
1001
0100
1000
1001
0001
1000
,  // measure 40
1010
0000
0000
0020
0000
0000
0000
0000
0001
0000
0000
0032
0000
0000
0000
0000
0000
0000
0000
0000
0010
0000
0000
0023
,  // measure 41
0000
0000
0000
0000
0000
0000
0000
0000
1000
0000
0000
2030
0000
0000
0000
0000
0000
0000
3100
0000
0000
0000
0000
0010
,  // measure 42
0000
0000
0010
0000
0000
0000
0101
0000
0000
0000
0000
1000
0000
0000
1000
0000
0000
0000
0110
0000
0000
0000
0000
0000
,  // measure 43
1001
0000
0000
1001
0000
0000
1001
0000
0000
1000
0000
0001
1000
0000
0001
1000
0000
0000
0001
0000
0101
0000
0000
0000
,  // measure 44
0011
0000
0000
0010
0000
0000
0000
0000
0100
0000
0000
0000
1000
0000
0000
0000
0000
0001
0000
0000
0000
1000
0000
0000
,  // measure 45
0010
0000
0000
0100
0000
0000
0010
0000
0000
0100
0000
0000
0001
0000
0100
0000
0000
0001
0000
0000
1000
0000
0000
0100
,  // measure 46
0000
0000
0100
0000
0000
0000
0110
0000
0000
0000
0000
0100
0000
0000
1000
0000
0000
0000
1001
0000
0000
0000
0000
0000
,  // measure 47
0110
0000
0000
0110
0000
0000
0110
0000
0000
0100
0000
0001
0000
0000
0000
0000
0000
0000
1001
0000
0100
0000
0000
0000
,  // measure 48
2000
0000
0000
0000
0000
0000
0000
0000
0000
0000
0000
0000
0000
0000
0000
0000
0000
0000
0000
0000
0000
0000
0000
0000
0000
0000
0000
0000
0000
0000
0000
0000
0000
0000
0000
0000
0000
0000
0000
0000
0000
0000
0000
0000
0000
0000
0000
0000
0000
0000
0000
0000
0000
0000
0000
0000
0000
0000
0000
0000
0000
0000
0000
0000
0000
0000
0000
0000
0000
0000
0000
0000
0000
0000
0000
0000
0000
0000
0000
0000
0000
0000
0000
0000
0000
0000
0000
0000
0000
0000
0000
0000
0000
0000
0000
0000
0000
0000
0000
0000
0000
0000
0000
0000
0000
0000
0000
0000
0000
0000
0000
0000
0000
0000
0000
0000
0000
0000
0000
0000
0000
0000
0000
0000
0000
0000
0000
0000
0000
0000
0000
0000
0000
0000
0002
0000
0000
0000
0000
0000
0000
0000
0000
0000
0000
0000
0000
0000
0000
0000
0000
0000
0000
0000
0000
0000
0000
0000
0000
0000
0000
0000
0000
0000
0000
0000
0000
0000
3003
0000
0000
0000
0000
0000
0000
0000
0000
0000
0000
0000
0000
0000
0000
0000
0000
0000
0000
0000
0000
0000
0000
0000
;

//---------------dance-single - ----------------
#NOTEDATA:;
#CHARTNAME:;
#STEPSTYPE:dance-single;
#DESCRIPTION:;
#CHARTSTYLE:;
#DIFFICULTY:Medium;
#METER:7;
#RADARVALUES:0.255916,0.300394,0.140810,0.226860,0.003911,229.000000,211.000000,18.000000,29.000000,0.000000,0.000000,0.000000,0.000000,0.000000,0.255916,0.300394,0.140810,0.226860,0.003911,229.000000,211.000000,18.000000,29.000000,0.000000,0.000000,0.000000,0.000000,0.000000;
#CREDIT:DDRDAIKENKAI;
#NOTES:
// measure 0
0000
0000
0000
0000
,  // measure 1
0000
0000
0000
0000
,  // measure 2
0000
0000
0000
0000
,  // measure 3
0000
0000
0000
1001
,  // measure 4
1000
0000
0001
0000
0100
0010
1000
0000
,  // measure 5
0001
0000
1000
0000
0010
0100
0001
0000
,  // measure 6
1000
0000
0001
0000
0010
0001
0100
0000
,  // measure 7
0001
0000
1000
0000
0010
1000
0100
0000
,  // measure 8
1000
1000
0001
0100
,  // measure 9
0010
0010
0100
0001
,  // measure 10
1000
0000
0100
0000
0001
0100
1000
0000
,  // measure 11
0001
0000
0100
0000
1000
0100
0001
0000
,  // measure 12
1000
0000
0010
0100
0000
0100
0010
0000
,  // measure 13
1000
0000
0001
0010
0000
0010
0001
0000
,  // measure 14
0100
0000
0010
1000
0000
1000
0001
0001
,  // measure 15
2000
0000
0000
0000
0000
0000
0010
0000
0000
0000
0000
0000
3010
0000
0000
0000
0000
0120
0000
0000
0000
0000
0000
0000
,  // measure 16
0130
1001
0010
1001
,  // measure 17
1000
0100
1000
0100
0010
0001
0010
0000
,  // measure 18
0001
0110
1000
0110
,  // measure 19
0001
0010
0001
0010
0100
1000
0001
0000
,  // measure 20
2000
0010
0002
3003
,  // measure 21
0020
0001
0200
0330
,  // measure 22
1000
0010
0100
0000
0001
0010
0100
0000
,  // measure 23
1000
1000
2000
0001
0001
0002
3003
0000
,  // measure 24
0200
0000
0020
0330
,  // measure 25
1000
0100
0001
0100
2000
0000
3000
0000
,  // measure 26
0002
0000
2000
3003
,  // measure 27
0001
0010
1000
0010
0001
0000
1001
0000
,  // measure 28
2000
0010
0020
3030
,  // measure 29
0100
0001
0100
1000
0200
0000
0301
0000
,  // measure 30
0010
0010
0100
0100
,  // measure 31
1000
0001
1000
0001
1000
0001
1001
0000
,  // measure 32
0110
0000
0100
0000
0010
1000
1100
0000
,  // measure 33
1000
0000
0010
0000
0100
0001
0011
0000
,  // measure 34
0001
0000
0100
0000
0010
1000
1001
0000
,  // measure 35
0110
0020
2030
3002
,  // measure 36
0013
1001
0100
1001
,  // measure 37
0001
0010
0001
0010
0100
1000
0100
0000
,  // measure 38
1000
0110
0001
0110
,  // measure 39
1000
0100
1000
0100
0010
0001
1000
0000
,  // measure 40
0002
0100
2000
3003
,  // measure 41
0200
1000
0020
0330
,  // measure 42
0001
0100
0010
0000
1000
0100
0010
0000
,  // measure 43
0001
0001
0002
1000
1000
2000
3003
0000
,  // measure 44
2000
0010
0100
3100
,  // measure 45
0010
0010
0001
0001
,  // measure 46
0200
0001
0010
0310
,  // measure 47
1000
0001
1000
0001
1000
0000
2002
0000
,  // measure 48
3003
0000
0000
0000
;

//---------------dance-single - ----------------
#NOTEDATA:;
#CHARTNAME:;
#STEPSTYPE:dance-single;
#DESCRIPTION:;
#CHARTSTYLE:;
#DIFFICULTY:Challenge;
#METER:14;
#RADARVALUES:0.584472,0.649974,0.297265,0.445898,0.985669,523.000000,485.000000,38.000000,57.000000,2.000000,0.000000,0.000000,0.000000,0.000000,0.584472,0.649974,0.297265,0.445898,0.985669,523.000000,485.000000,38.000000,57.000000,2.000000,0.000000,0.000000,0.000000,0.000000;
#CREDIT:DDRDAIKENKAI;
#NOTES:
// measure 0
0000
0000
0000
0000
,  // measure 1
0000
0000
0000
0000
,  // measure 2
0000
0000
0000
0000
,  // measure 3
0000
0000
0000
1001
,  // measure 4
1000
0100
1000
0100
0010
0100
0010
0001
1000
0000
1000
0001
0000
0000
0000
0000
,  // measure 5
0001
0000
0000
0000
0000
0000
0000
0000
0000
0000
0000
0000
0100
0000
0000
0000
0000
0000
0000
0000
0000
0000
0000
0000
0001
0000
0000
0000
0000
0000
0000
0000
0000
0000
0000
0000
0100
0000
0000
0000
0000
0000
0000
0000
0000
0000
0000
0000
0010
0000
0000
0000
0000
0000
0000
0000
0000
0000
0000
0000
0000
0000
0100
0000
0000
0000
0000
0000
0000
0000
0000
0000
0000
0000
0000
0000
0000
0000
0000
0000
0000
0000
0000
0000
0000
0000
0100
0000
0000
0000
0000
0000
0000
0000
0000
0000
0010
0000
0000
0000
0000
0000
0000
0000
0000
0000
0000
0000
0000
0000
0000
0000
0000
0000
0000
0000
0000
0000
0000
0000
1000
0000
0000
0000
0000
0000
0000
0000
0000
0000
0000
0000
0000
0000
0200
0000
0000
0000
0000
0000
0000
0000
0000
0000
0000
0000
0000
0000
0000
0000
0000
0000
0000
0000
0000
0300
0000
0000
0000
0000
0000
0000
0000
0000
0000
0000
0000
0000
0000
0000
0000
0000
0000
0000
0000
0000
0000
0000
0000
0000
0000
0000
0000
0000
0000
0000
0000
0000
0000
0000
0000
0000
,  // measure 6
1000
0000
0000
0000
0000
0000
0000
0000
0000
0000
0000
0000
0000
0100
0000
0000
0000
0000
0000
0000
0000
0000
0000
0000
1000
0000
0000
0000
0000
0000
0000
0000
0000
0000
0000
0000
0000
0001
0000
0000
0000
0000
0000
0000
0000
0000
0000
0000
1000
0000
0000
0000
0000
0000
0000
0000
0000
0000
0000
0000
0000
0010
0000
0000
0000
0000
0000
0000
0000
0000
0000
0000
1000
0000
0000
0000
0000
0000
0000
0000
0000
0000
0000
0000
0000
0100
0000
0000
0000
0000
0000
0000
0000
0000
0000
0000
0010
0000
0000
0000
0000
0000
0000
0000
0000
0000
0000
0000
0000
0001
0000
0000
0000
0000
0000
0000
0000
0000
0000
0000
0010
0000
0000
0000
0000
0000
0000
0000
0000
0000
0000
0000
0000
0002
0000
0000
0000
0000
0000
0000
0000
0000
0000
0000
0000
0000
0000
0000
0000
0000
0000
0000
0000
0000
0000
0000
0003
0000
0000
0000
0000
0000
0000
0000
0000
0000
0000
0000
0000
0000
0000
0000
0000
0000
0000
0000
0000
0000
0000
0000
0000
0000
0000
0000
0000
0000
0000
0000
0000
0000
0000
0000
,  // measure 7
0001
0000
0100
0001
1000
0001
0010
0000
0100
1000
0001
1000
0010
0000
1000
0000
0000
0100
0000
0000
0000
1100
0000
0000
,  // measure 8
0110
0000
0010
0001
0010
0100
0010
0000
0010
0001
0010
0100
0010
0000
0001
0100
0000
0000
0210
0000
0000
0310
0000
0000
,  // measure 9
1000
0000
1000
0100
0010
0100
1000
0000
1000
0100
0010
0100
1000
0000
0001
1000
0000
0000
1002
0000
0000
0000
0000
0000
,  // measure 10
1003
0000
0000
0000
0000
0000
0000
0000
0000
0000
0000
0000
0010
0000
0000
0000
0000
0000
0000
0000
0000
0000
0000
0000
1000
0000
0000
0000
0000
0000
0000
0000
0000
0000
0000
0000
0001
0000
0000
0000
0000
0000
0000
0000
0000
0000
0000
0000
1000
0000
0000
0000
0000
0000
0000
0000
0000
0000
0000
0000
0000
0100
0000
0000
0000
0000
0000
0000
0000
0000
0000
0000
0001
0000
0000
0000
0000
0000
0000
0000
0000
0000
0000
0000
0000
0100
0000
0000
0000
0000
0000
0000
0000
0000
0000
0000
1000
0000
0000
0000
0000
0000
0000
0000
0000
0000
0000
0000
0000
0000
0000
0000
0000
0000
0000
0000
0000
0000
0000
0000
0001
0000
0000
0000
0000
0000
0000
0000
0000
0000
0000
0000
0000
0000
0000
0000
0001
0000
0000
0000
0000
0000
0000
0000
0000
0000
0000
0000
0000
0000
0000
0000
0000
0000
0000
0000
0000
0000
0000
0000
0000
0000
0000
0000
0000
0000
0000
0000
0000
0000
0000
0000
0000
0000
0000
0000
0000
0000
0000
0000
0001
0000
0000
0000
0000
0000
0000
0000
0000
0000
0000
0000
,  // measure 11
0010
0000
0000
0000
0000
0000
0000
0000
0000
0000
0000
0000
0001
0000
0000
0000
0000
0000
0000
0000
0000
0000
0000
0000
0010
0000
0000
0000
0000
0000
0000
0000
0000
0000
0000
0000
0001
0000
0000
0000
0000
0000
0000
0000
0000
0000
0000
0000
1000
0000
0000
0000
0000
0000
0000
0000
0000
0000
0000
0000
0010
0000
0000
0000
0000
0000
0000
0000
0000
0000
0000
0000
0001
0000
0000
0000
0000
0000
0000
0000
0000
0000
0000
0000
0010
0000
0000
0000
0000
0000
0000
0000
0000
0000
0000
0000
1000
0000
0000
0000
0000
0000
0000
0000
0000
0000
0000
0000
0000
0000
0001
0000
0000
0000
0000
0000
0000
0000
0000
0000
0000
0000
0000
0000
0000
0000
0000
0000
0000
0000
0000
0000
0000
1000
0000
0000
0000
0000
0000
0000
0000
0000
0000
0000
0000
0000
0000
0000
0000
0000
0000
0000
0000
0000
0000
0000
0000
0000
0000
0000
0000
0000
0000
0000
0000
0000
0000
0000
0010
0000
0000
0000
0000
0000
0000
0000
0000
0000
0000
0000
0000
0000
0000
0000
0000
0000
0000
0000
0000
0000
0000
0000
,  // measure 12
0110
0000
0100
0000
0000
0001
0000
0000
0010
0000
0000
1000
0000
0000
0100
0000
0000
1000
0000
0000
0010
0000
0000
0001
,  // measure 13
0000
0000
0000
0000
0000
0000
0000
0000
0000
0000
0000
0000
0000
0000
0000
0000
0100
0000
0000
0000
0000
0000
0000
0000
0000
0000
0000
0000
0000
0000
0000
0000
0000
0000
0000
0000
0000
0000
0000
0000
1000
0000
0000
0000
0000
0000
0000
0000
0000
0000
0000
0000
0000
0000
0000
0000
0000
0000
0000
0000
0000
0000
0000
0000
0100
0000
0000
0000
0000
0000
0000
0000
0000
0000
0000
0000
0000
0000
0000
0000
0001
0000
0000
0000
0000
0000
0000
0000
0000
0000
0000
0000
0000
0000
0000
0000
0100
0000
0000
0000
0000
0000
0000
0000
0000
0000
0000
0000
0000
0000
0000
0000
0000
0000
0001
0000
0000
0000
0000
0000
0000
0000
0000
0000
0000
0000
0000
0000
0000
0000
0000
0000
0000
0000
0100
0000
0000
0000
0000
0000
0000
0000
0000
0000
0000
0000
0000
0000
0000
0000
0000
0000
0000
0000
0000
0000
0000
0000
0000
0000
0000
0000
0000
0000
0000
0000
0000
0000
0010
0000
0000
0000
0000
0000
0000
0000
0000
0000
0000
0000
0000
0000
0000
0000
0000
0000
0000
0000
0000
0000
0000
0000
,  // measure 14
1000
0000
0100
0000
0000
0001
0000
0000
0010
0000
0000
0001
0000
0000
0100
0000
0000
1000
0000
0000
0010
0000
0200
0000
,  // measure 15
0001
0000
0001
0000
0001
0000
0010
0000
0010
0000
0010
0000
0301
0000
0010
0100
0000
0210
0000
0000
0310
0000
0000
0001
,  // measure 16
0000
0000
1000
0000
0000
0000
1100
0000
0000
0000
0000
1000
0000
0000
0001
0000
0000
0000
0101
0000
0000
0000
0000
0000
,  // measure 17
0001
0010
0001
1000
0100
1000
0001
0000
0000
1000
0010
1000
0001
0100
0001
1000
0000
0000
0010
0000
0100
0010
0000
1000
,  // measure 18
0000
0000
0010
0000
0000
0000
1010
0000
0000
0000
0000
1000
0000
0000
0001
0000
0000
0000
0101
0000
0000
0000
0000
0000
,  // measure 19
1000
0100
1000
0001
0010
0001
1000
0000
0000
0001
0100
0001
1000
0010
1000
0001
0000
0000
1000
0010
0100
0001
0100
0010
,  // measure 20
2000
0000
0000
3002
0000
0000
0103
0000
0010
1000
0000
0020
0000
0000
0000
0130
0000
0000
0001
0000
0010
0001
0000
0020
,  // measure 21
0000
0000
0000
0130
0000
0000
1000
0000
0001
1000
0000
0200
0000
0000
0000
0310
0000
0000
0001
0000
1000
0100
0000
0010
,  // measure 22
0000
0000
0000
0000
0000
0000
0000
0000
0000
0000
0000
0000
0000
0000
0000
0000
0010
0000
0000
0000
0000
0000
0000
0000
0000
0000
0000
0000
0000
0000
0000
0000
0000
0000
0000
0000
0000
0000
0000
0000
0000
0000
0000
0000
0000
0000
0000
0000
1100
0000
0000
0000
0000
0000
0000
0000
0000
0000
0000
0000
0000
0000
0000
0000
0000
0000
0000
0000
0000
0000
0000
0000
0000
0000
0000
0000
0000
0000
0000
0000
0000
0000
0000
0000
0000
0000
0001
0000
0000
0000
0000
0000
0000
0000
0000
0000
0000
0000
0000
0000
0000
0000
0000
0000
0000
0000
0000
0000
0000
0000
0001
0000
0000
0000
0000
0000
0000
0000
0000
0000
0000
0000
0000
0000
0000
0000
0000
0000
0000
0000
0000
0000
0000
0000
0000
0000
0000
0000
0000
0000
0000
0000
0000
0000
0120
0000
0000
0000
0000
0000
0000
0000
0000
0000
0000
0000
0000
0000
0000
0000
0000
0000
0000
0000
0000
0000
0000
0000
0000
0000
0000
0000
0000
0000
0000
0000
0000
0000
0000
0000
0000
0000
0000
0000
0000
0000
0000
0000
0000
0000
0000
0000
,  // measure 23
1030
0001
1000
0100
0010
0100
1000
0000
0000
0001
1000
0001
0010
0100
0010
0002
0000
0000
2003
0000
0000
3020
0000
0000
,  // measure 24
0230
0000
0000
0000
0000
0000
0000
0000
0000
0000
0000
0000
0000
0000
0000
0000
0000
0000
0000
0000
0000
0000
0000
0000
0302
0000
0000
0000
0000
0000
0000
0000
0000
0000
0000
0000
0000
0000
0000
0000
0000
0000
0000
0000
0000
0000
0000
0000
0000
0000
0000
0000
0000
0000
0000
0000
0000
0000
0000
0000
0000
0000
0000
0000
2003
0000
0000
0000
0000
0000
0000
0000
0000
0000
0000
0000
0000
0000
0000
0000
0000
0000
0000
0000
0000
0000
0000
0000
0000
0000
0000
0000
0000
0000
0000
0000
3200
0000
0000
0000
0000
0000
0000
0000
0000
0000
0000
0000
0000
0000
0000
0000
0000
0000
0000
0000
0000
0000
0000
0000
0000
0000
0000
0000
0000
0000
0000
0000
0000
0000
0000
0000
0000
0000
0000
0000
0302
0000
0000
0000
0000
0000
0000
0000
0000
0000
0000
0000
0000
0000
0000
0000
0000
0000
0000
0000
0000
0000
0000
0000
0000
0000
0000
0000
0000
0000
0000
0000
0000
0000
0000
0000
0000
0000
0000
0000
0000
0000
0000
0000
0000
0100
0000
0000
0003
0000
0000
0000
0000
0000
0000
0000
,  // measure 25
1000
0000
0000
0000
0000
0000
0000
0000
0000
0000
0000
0000
0000
0100
0000
0000
0000
0000
0000
0000
0000
0000
0000
0000
1000
0000
0000
0000
0000
0000
0000
0000
0000
0000
0000
0000
0000
0100
0000
0000
0000
0000
0000
0000
0000
0000
0000
0000
0010
0000
0000
0000
0000
0000
0000
0000
0000
0000
0000
0000
0000
0100
0000
0000
0000
0000
0000
0000
0000
0000
0000
0000
1000
0000
0000
0000
0000
0000
0000
0000
0000
0000
0000
0000
0000
0100
0000
0000
0000
0000
0000
0000
0000
0000
0000
0000
1000
0000
0000
0000
0000
0000
0000
0000
0000
0000
0000
0000
0000
0000
0000
0000
0000
0000
0000
0000
0000
0000
0000
0000
0002
0000
0000
0000
0000
0000
0000
0000
0000
0000
0000
0000
0000
0000
0000
0000
0000
0000
0000
0000
0000
0000
0000
0000
0103
0000
0000
0000
0000
0000
0000
0000
0000
0000
0000
0000
0000
0000
0000
0000
0000
0000
0000
0000
0000
0000
0000
0000
0000
0000
0000
0000
0000
0000
0000
0000
0000
0000
0000
0000
0000
0000
0000
0000
0000
0000
0000
0000
0000
0000
0000
0000
,  // measure 26
0100
0000
0000
0000
0000
0000
0000
0000
0000
0000
0000
0000
0000
0000
0000
0000
0000
0000
0000
0000
0000
0000
0000
0000
0002
0000
0000
0000
0000
0000
0000
0000
0000
0000
0000
0000
0000
0000
0000
0000
0000
0000
0000
0000
0000
0000
0000
0000
0000
0000
0000
0000
0000
0000
0000
0000
0000
0000
0000
0000
0003
0000
0020
0000
0000
0000
0000
0000
0000
0000
0000
0000
0000
0000
0000
0000
0000
0000
0000
0000
0000
0000
0000
0000
0000
0000
0000
0000
0000
0000
0000
0000
0000
0000
0000
0000
0230
0000
0000
0000
0000
0000
0000
0000
0000
0000
0000
0000
0000
0000
0000
0000
0000
0000
0000
0000
0000
0000
0000
0000
0000
0000
0000
0000
0000
0000
0000
0000
0000
0000
0000
0000
0000
0000
0000
0000
0320
0000
0000
0000
0000
0000
0000
0000
0000
0000
0000
0000
0000
0000
0000
0000
0000
0000
0000
0000
0000
0000
0000
0000
0000
0000
0000
0000
0000
0000
0000
0000
0000
0000
0000
0000
0000
0000
0000
0000
0000
0000
0000
0000
0001
0000
0000
0000
0030
0000
0000
0000
0000
0000
0000
0000
,  // measure 27
0100
0000
0000
0000
0000
0000
0000
0000
0000
0000
0000
0000
0010
0000
0000
0000
0000
0000
0000
0000
0000
0000
0000
0000
0100
0000
0000
0000
0000
0000
0000
0000
0000
0000
0000
0000
0010
0000
0000
0000
0000
0000
0000
0000
0000
0000
0000
0000
0100
0000
0000
0000
0000
0000
0000
0000
0000
0000
0000
0000
0001
0000
0000
0000
0000
0000
0000
0000
0000
0000
0000
0000
0010
0000
0000
0000
0000
0000
0000
0000
0000
0000
0000
0000
0000
0001
0000
0000
0000
0000
0000
0000
0000
0000
0000
0000
0010
0000
0000
0000
0000
0000
0000
0000
0000
0000
0000
0000
0000
0000
0000
0000
0000
0000
0000
0000
0000
0000
0000
0000
0100
0000
0000
0000
0000
0000
0000
0000
0000
0000
0000
0000
0000
0000
0000
0000
0000
0000
0000
0000
0000
0000
0000
0000
2000
0000
0000
0000
0000
0000
0000
0000
0000
0000
0000
0000
0000
0000
0000
0000
0000
0000
0000
0000
0000
0000
0000
0000
3010
0000
0000
0000
0000
0000
0000
0000
0000
0000
0000
0000
0000
0000
0000
0000
0000
0000
0000
0000
0000
0000
0000
0000
,  // measure 28
0110
0000
0000
0000
0000
0000
0000
0000
0000
0000
0000
0000
0000
0000
0000
0000
0000
0000
0000
0000
0000
0000
0000
0000
2000
0000
0000
0000
0000
0000
0000
0000
0000
0000
0000
0000
0000
0000
0000
0000
0000
0000
0000
0000
0000
0000
0000
0000
0000
0000
0000
0000
0000
0000
0000
0000
3000
0000
0000
0000
0000
0020
0000
0000
0000
0000
0000
0000
0000
0000
0000
0000
0000
0000
0000
0000
0000
0000
0000
0000
0000
0000
0000
0000
0000
0000
0000
0000
0000
0000
0000
0000
0000
0000
0000
0000
0230
0000
0000
0000
0000
0000
0000
0000
0000
0000
0000
0000
0000
0000
0000
0000
0000
0000
0000
0000
0000
0000
0000
0000
0000
0000
0000
0000
0000
0000
0000
0000
0000
0000
0000
0000
0000
0000
0000
0000
0302
0000
0000
0000
0000
0000
0000
0000
0000
0000
0000
0000
0000
0000
0000
0000
0000
0000
0000
0000
0000
0000
0000
0000
0000
0000
0000
0000
0000
0000
0000
0000
0000
0000
0000
0000
0000
0000
0000
0000
0000
0000
0000
0000
0000
1003
0000
0000
0000
0000
0000
0000
0000
0000
0000
0000
,  // measure 29
0010
0000
0000
0000
0000
0000
0000
0000
0000
0000
0000
0000
0000
1000
0000
0000
0000
0000
0000
0000
0000
0000
0000
0000
0100
0000
0000
0000
0000
0000
0000
0000
0000
0000
0000
0000
0000
1000
0000
0000
0000
0000
0000
0000
0000
0000
0000
0000
0010
0000
0000
0000
0000
0000
0000
0000
0000
0000
0000
0000
0100
0000
0000
0000
0000
0000
0000
0000
0000
0000
0000
0000
0010
0000
0000
0000
0000
0000
0000
0000
0000
0000
0000
0000
1000
0000
0000
0000
0000
0000
0000
0000
0000
0000
0000
0000
0002
0000
0000
0000
0000
0000
0000
0000
0000
0000
0000
0000
0000
0000
0000
0000
0000
0000
0000
0000
0000
0000
0000
0000
0000
0000
0000
0000
0000
0000
0000
0000
0000
0000
0000
0000
0000
0013
0000
0000
0000
0000
0000
0000
0000
0000
0000
0000
0000
0000
0000
0000
0000
0000
0000
0000
0000
0000
0000
0000
0000
0000
0000
0000
0000
0000
0000
0000
0000
0000
0000
0000
0000
0000
0000
0000
0000
0000
0000
0000
0000
0000
0000
0000
0000
0000
0000
0000
0000
0000
0000
0000
0000
0000
0000
0000
,  // measure 30
0210
0000
0000
0000
0000
0000
0000
0000
0000
0000
0000
0000
0000
0000
0000
0000
0000
0000
0000
0000
0000
0000
0000
0000
0000
0000
0000
0000
0000
0000
0000
0000
0000
0000
0000
0000
0000
1300
0000
0000
0000
0000
0000
0000
0000
0000
0000
0000
0000
0000
0000
0000
0000
0000
0000
0000
0000
0000
0000
0000
0000
0000
0000
0000
0000
0000
0000
0000
0000
0000
0000
0000
0210
0000
0000
0000
0000
0000
0000
0000
0000
0000
0000
0000
0000
0000
0000
0000
0000
0000
0000
0000
0000
0000
0000
0000
0000
0000
0000
0000
0000
0000
0000
0000
0000
0000
0000
0000
0000
0301
0000
0000
0000
0000
0000
0000
0000
0000
0000
0000
0000
0000
0000
0000
0000
0000
0000
0000
0000
0000
0000
0000
0000
0000
0000
0000
0000
0000
0000
0000
0000
0000
0000
0000
1001
0000
0000
0000
0000
0000
0000
0000
0000
0000
0000
0000
0000
0000
0000
0000
0000
0000
0000
0000
0000
0000
0000
0000
0000
0000
0000
0000
0000
0000
0000
0000
0000
0000
0000
0000
0000
0000
0000
0000
0000
0000
0000
0000
0000
0000
0000
0000
,  // measure 31
1100
0000
0000
0000
0000
0000
0000
0000
0000
0000
0000
0000
0000
0000
0000
0000
0000
0000
0000
0000
0000
0000
0000
0000
1100
0000
0000
0000
0000
0000
0000
0000
0000
0000
0000
0000
0000
0000
0000
0000
0000
0000
0000
0000
0000
0000
0000
0000
0110
0000
0000
0000
0000
0000
0000
0000
0000
0000
0000
0000
0000
0000
0000
0000
0000
0000
0000
0000
0000
0000
0000
0000
0110
0000
0000
0000
0000
0000
0000
0000
0000
0000
0000
0000
0000
0000
0000
0000
0000
0000
0000
0000
0000
0000
0000
0000
0011
0000
0000
0000
0000
0000
0000
0000
0000
0000
0000
0000
0000
0000
0000
0000
0000
0000
0000
0000
0000
0000
0000
0000
0011
0000
0000
0000
0000
0000
0000
0000
0000
0000
0000
0000
0000
0000
0000
0000
0000
0000
0000
0000
0000
0000
0000
0000
2002
3003
0000
0000
0000
0000
0000
0000
0000
0000
0000
0000
0000
0000
0000
0000
0000
0000
0000
0000
0000
0000
0000
0000
0000
0000
0000
0000
0000
0000
0000
0000
0000
0000
0000
0000
1000
0000
0000
0000
0000
0000
0000
0000
0000
0000
0000
0000
,  // measure 32
0001
0000
0000
0000
0000
0000
0000
0000
0000
0000
0000
0000
0010
0000
0000
0000
0000
0000
0000
0000
0000
0000
0000
0000
0100
0000
0000
0000
0000
0000
0000
0000
0000
0000
0000
0000
0000
1000
0000
0000
0000
0000
0000
0000
0000
0000
0000
0000
0000
0000
0000
0000
0000
0000
0000
0000
0000
0000
0000
0000
0000
1000
0000
0000
0000
0000
0000
0000
0000
0000
0000
0000
0100
0000
0000
0000
0000
0000
0000
0000
0000
0000
0000
0000
0000
0010
0000
0000
0000
0000
0000
0000
0000
0000
0000
0000
0001
0000
0000
0000
0000
0000
0000
0000
0000
0000
0000
0000
0000
0000
0000
0000
0000
0000
0000
0000
0000
0000
0000
0000
0101
0000
0000
0000
0000
0000
0000
0000
0000
0000
0000
0000
0000
0000
0000
0000
0000
0000
0000
0000
0000
0000
0000
0000
0001
0000
0000
0000
0000
0000
0000
0000
0000
0000
0000
0000
0000
1000
0000
0000
0000
0000
0000
0000
0000
0000
0000
0000
0000
0000
0000
0000
0000
0000
0000
0000
0000
0000
0000
0000
1000
0000
0000
0000
0000
0000
0000
0000
0000
0000
0000
0000
,  // measure 33
0010
0100
0010
1000
0000
1000
0001
0100
0001
0000
0101
0000
1000
0100
0000
0100
,  // measure 34
0010
0001
0010
0100
0000
0100
1000
0100
0010
0000
0110
0000
0010
0001
1000
0000
,  // measure 35
1001
0000
0000
0000
0000
0000
0002
0000
0000
0000
0000
0000
0013
0000
0100
0010
0000
0100
0000
0000
0010
0000
0000
0001
,  // measure 36
0000
0000
0100
0000
0000
0000
0102
0000
0000
0000
0000
1003
0000
0000
0010
0000
0000
0000
2010
0000
0000
0000
0000
0000
,  // measure 37
3001
0100
0010
0100
1000
0100
0001
0000
0000
1000
0010
0100
0010
0001
0010
1000
0000
0000
0001
0000
0100
0010
0000
1000
,  // measure 38
0000
0000
0100
0000
0000
0000
2100
0000
0000
0000
0000
3001
0000
0000
0010
0000
0000
0000
0021
0000
0000
0000
0000
0000
,  // measure 39
0130
1000
0100
0010
0100
1000
0001
0000
0000
0010
0001
0010
0100
0010
0001
1000
0000
0000
0001
1000
0010
0100
0010
1000
,  // measure 40
0002
0000
0000
2003
0000
0000
3010
0000
0100
0010
0000
0200
0000
0000
0000
0301
0000
0000
1000
0000
0100
1000
0000
0002
,  // measure 41
0000
0000
0000
0013
0000
0000
0100
0000
0010
0001
0000
0200
0000
0000
0000
0310
0000
0000
0100
0000
0010
1000
0000
0010
,  // measure 42
0000
0000
0000
0000
0000
0000
0000
0000
0000
0000
0000
0000
0000
0000
0000
0000
0010
0000
0000
0000
0000
0000
0000
0000
0000
0000
0000
0000
0000
0000
0000
0000
0000
0000
0000
0000
0000
0000
0000
0000
0000
0000
0000
0000
0000
0000
0000
0000
0101
0000
0000
0000
0000
0000
0000
0000
0000
0000
0000
0000
0000
0000
0000
0000
0000
0000
0000
0000
0000
0000
0000
0000
0000
0000
0000
0000
0000
0000
0000
0000
0000
0000
0000
0000
0000
0000
1000
0000
0000
0000
0000
0000
0000
0000
0000
0000
0000
0000
0000
0000
0000
0000
0000
0000
0000
0000
0000
0000
0000
0000
1000
0000
0000
0000
0000
0000
0000
0000
0000
0000
0000
0000
0000
0000
0000
0000
0000
0000
0000
0000
0000
0000
0000
0000
0000
0000
0000
0000
0000
0000
0000
0000
0000
0000
0110
0000
0000
0000
0000
0000
0000
0000
0000
0000
0000
0000
0000
0000
0000
0000
0000
0000
0000
0000
0000
0000
0000
0000
0000
0000
0000
0000
0000
0000
0000
0000
0000
0000
0000
0000
0000
0000
0000
0000
0000
0000
0000
0000
0000
0000
0000
0000
,  // measure 43
0001
0010
0100
1000
0100
0010
0001
0000
0000
1000
0100
0010
0001
0010
0100
1000
0100
1000
0100
1000
0100
0010
0000
0000
,  // measure 44
0120
0000
0000
0000
0000
0000
0000
0000
0000
0000
0000
0000
0000
0000
0000
0000
0000
0000
0000
0000
0000
0000
0000
0000
0032
0000
0000
0000
0000
0000
0000
0000
0003
0000
0000
0000
0000
0000
0000
0000
0000
0000
0000
0000
0000
0000
0000
0000
0100
0000
0000
0000
0000
0000
0000
0000
0000
0000
0000
0000
0000
0000
0000
0000
0020
0000
0000
0000
0000
0000
0000
0000
0030
0000
0000
0000
0000
0000
0000
0000
0000
0000
0000
0000
0000
0000
0000
0000
0100
0000
0000
0000
0000
0000
0000
0000
0002
0000
0000
0000
0000
0000
0000
0000
0003
0000
0000
0000
0000
0000
0000
0000
0000
0000
0000
0000
0000
0000
0000
0000
1000
0000
0000
0000
0000
0000
0000
0000
0000
0000
0000
0000
0000
0000
0000
0000
0002
0000
0000
0000
0000
0000
0000
0000
0103
0000
0000
0000
0000
0000
0000
0000
0000
0000
0000
0000
0000
0000
0000
0000
0000
0000
0000
0000
0000
0000
0000
0000
0M0M
0000
0000
0000
0000
0000
0000
0000
0000
0000
0000
0000
0000
1000
0000
0000
0000
0000
0000
0000
0000
0000
0000
0000
,  // measure 45
0100
0000
0000
0000
0000
0000
0000
0000
0000
0000
0000
0000
0000
1000
0000
0000
0000
0000
0000
0000
0000
0000
0000
0000
0010
0000
0000
0000
0000
0000
0000
0000
0000
0000
0000
0000
0000
1000
0000
0000
0000
0000
0000
0000
0000
0000
0000
0000
0001
0000
0000
0000
0000
0000
0000
0000
0000
0000
0000
0000
0000
1000
0000
0000
0000
0000
0000
0000
0000
0000
0000
0000
0100
0000
0000
0000
0000
0000
0000
0000
0000
0000
0000
0000
0000
0001
0000
0000
0000
0000
0000
0000
0000
0000
0000
0000
0100
0000
0000
0000
0000
0000
0000
0000
0000
0000
0000
0000
0000
0000
0000
2000
0000
0000
0000
0000
0000
0000
0000
0000
0000
0000
0000
0000
0000
0000
0000
0000
0000
0000
0000
0000
0000
0000
0000
0002
3000
0000
0000
0000
0000
0000
0000
0000
0000
0000
0000
0000
0000
0000
0000
0000
0000
0000
0000
0000
0000
0000
0000
0020
0003
0000
0000
0000
0000
0000
0000
0000
0000
0000
0000
0000
0000
0000
0000
0000
0000
0000
0000
0000
0000
0000
0000
0100
0000
0000
0000
0000
0000
0000
0000
0000
,  // measure 46
0000
0000
0000
0000
0000
0000
0000
0000
0000
0000
0000
0000
0000
0000
0130
0000
0000
0000
0000
0000
0000
0000
0000
0000
0000
0000
0000
0000
0000
0000
0000
0000
0000
0000
0000
0000
0000
0000
0000
0000
0000
0000
0000
0000
0000
0000
0000
0000
0210
0000
0000
0000
0000
0000
0000
0000
0000
0000
0000
0000
0000
0000
0000
0000
0000
0000
0000
0000
0000
0000
0000
0000
0000
0000
0000
0000
0000
0000
0000
0000
0000
0000
0000
0000
0000
1300
0000
0000
0000
0000
0000
0000
0000
0000
0000
0000
0000
0000
0000
0000
0000
0000
0000
0000
0000
0000
0000
0000
0000
0000
0001
0000
0000
0000
0000
0000
0000
0000
0000
0000
0000
0000
0000
0000
0000
0000
0000
0000
0000
0000
0000
0000
0000
0000
0000
0000
0000
0000
0000
0000
0000
0000
0000
0000
2001
0000
0000
0000
0000
0000
0000
0000
0000
0000
0000
0000
0000
0000
0000
0000
0000
0000
0000
0000
0000
0000
0000
0000
0000
0000
0000
0000
0000
0000
0000
0000
0000
0000
0000
0000
0000
0000
0000
0000
0000
0000
0000
0000
0000
0000
0000
0000
,  // measure 47
3001
0000
0000
0000
0000
0000
0000
0000
0000
0000
0000
0000
0000
0100
0000
0000
0000
0000
0000
0000
0000
0000
0000
0000
1000
0000
0000
0000
0000
0000
0000
0000
0000
0000
0000
0000
0000
0100
0000
0000
0000
0000
0000
0000
0000
0000
0000
0000
0001
0000
0000
0000
0000
0000
0000
0000
0000
0000
0000
0000
0000
0010
0000
0000
0000
0000
0000
0000
0000
0000
0000
0000
0100
0000
0000
0000
0000
0000
0000
0000
0000
0000
0000
0000
0000
1000
0000
0000
0000
0000
0000
0000
0000
0000
0000
0000
0001
0000
0000
0000
0000
0000
0000
0000
0000
0000
0000
0000
0000
0100
0000
0000
0000
0000
0000
0000
0000
0000
0000
0000
1000
0000
0000
0000
0000
0000
0000
0000
0000
0000
0000
0000
0000
0100
0000
0000
0000
0000
0000
0000
0000
0000
0000
0000
0001
0000
0000
0000
0000
0000
0000
0000
0000
0000
0000
0000
0000
0010
0000
0000
0000
0000
0000
0000
0000
0000
0000
0000
0100
0000
0000
0000
0000
0000
0000
0000
0000
0000
0000
0000
0000
1000
0000
0000
0000
0000
0000
0000
0000
0000
0000
0000
,  // measure 48
0001
0000
0000
0000
0000
0000
0000
0000
0000
0000
0000
0000
0000
0010
0000
0000
0000
0000
0000
0000
0000
0000
0000
0000
1000
0000
0000
0000
0000
0000
0000
0000
0000
0000
0000
0000
0000
0010
0000
0000
0000
0000
0000
0000
0000
0000
0000
0000
0001
0000
0000
0000
0000
0000
0000
0000
0000
0000
0000
0000
0000
0010
0000
0000
0000
0000
0000
0000
0000
0000
0000
0000
1000
0000
0000
0000
0000
0000
0000
0000
0000
0000
0000
0000
0000
0010
0000
0000
0000
0000
0000
0000
0000
0000
0000
0000
0100
0000
0000
0000
0000
0000
0000
0000
0000
0000
0000
0000
0000
0000
0000
0000
0000
0000
0000
0000
0000
0000
0000
0000
0000
0000
0000
0000
0000
0000
0000
0000
0000
0000
0000
0000
0000
2002
0000
0000
0000
0000
0000
0000
0000
0000
0000
0000
0000
0000
0000
0000
0000
0000
0000
0000
0000
0000
0000
0000
0000
0000
0000
0000
0000
0000
0000
0000
0000
0000
0000
0000
3003
0000
0000
0000
0000
0000
0000
0000
0000
0000
0000
0000
0000
0000
0000
0000
0000
0000
0000
0000
0000
0000
0000
0000
;

//---------------dance-single - ----------------
#NOTEDATA:;
#CHARTNAME:;
#STEPSTYPE:dance-single;
#DESCRIPTION:;
#CHARTSTYLE:;
#DIFFICULTY:Easy;
#METER:5;
#RADARVALUES:0.182159,0.224122,0.132987,0.101696,0.000000,163.000000,146.000000,17.000000,13.000000,0.000000,0.000000,0.000000,0.000000,0.000000,0.182159,0.224122,0.132987,0.101696,0.000000,163.000000,146.000000,17.000000,13.000000,0.000000,0.000000,0.000000,0.000000,0.000000;
#CREDIT:DDRDAIKENKAI;
#NOTES:
// measure 0
0000
0000
0000
0000
,  // measure 1
0000
0000
0000
0000
,  // measure 2
0000
0000
0000
0000
,  // measure 3
0000
0000
0000
1001
,  // measure 4
1000
1000
0001
0000
,  // measure 5
0100
0100
0010
0000
,  // measure 6
0100
0100
0001
0000
,  // measure 7
0010
0010
0100
0100
,  // measure 8
1000
0001
1000
1000
,  // measure 9
0001
1000
0001
0001
,  // measure 10
0100
0100
0100
0000
,  // measure 11
0010
0010
0010
0000
,  // measure 12
0110
0000
1000
0000
,  // measure 13
0001
0001
0001
0000
,  // measure 14
1000
0000
0010
0000
,  // measure 15
0100
0100
0110
0000
,  // measure 16
1001
0000
0110
0000
,  // measure 17
1000
0001
1000
0001
,  // measure 18
1001
0000
0110
0000
,  // measure 19
0001
1000
0001
1000
,  // measure 20
1100
0000
0011
0000
,  // measure 21
0101
0000
1010
0000
,  // measure 22
0110
0000
1001
0000
,  // measure 23
0001
0001
0001
0001
0000
0000
0000
0000
,  // measure 24
0200
0000
0010
0000
,  // measure 25
0310
0010
0010
0000
,  // measure 26
2000
0000
0001
0000
,  // measure 27
3001
0001
1000
0001
,  // measure 28
2000
0000
0100
0000
,  // measure 29
3010
0010
0010
0000
,  // measure 30
0200
0000
0302
0000
,  // measure 31
1003
1000
1000
1000
1000
0000
1001
0000
,  // measure 32
0010
0010
0100
0100
,  // measure 33
0001
0001
1000
1000
,  // measure 34
0100
0100
0010
0010
,  // measure 35
0110
0000
0000
1001
,  // measure 36
0002
0103
2000
3010
,  // measure 37
0100
0100
0010
0010
,  // measure 38
0200
0301
0020
1030
,  // measure 39
0001
0001
1000
1000
,  // measure 40
0002
0100
2000
3003
,  // measure 41
0020
1000
0200
0330
,  // measure 42
0001
0001
1000
1000
,  // measure 43
0100
0010
0100
0010
0100
0010
0000
0000
,  // measure 44
0001
1000
0001
1000
,  // measure 45
0100
0100
0010
0010
,  // measure 46
0100
1000
0001
0100
,  // measure 47
0010
0010
0010
1001
;

//---------------dance-single - ----------------
#NOTEDATA:;
#CHARTNAME:;
#STEPSTYPE:dance-single;
#DESCRIPTION:;
#CHARTSTYLE:;
#DIFFICULTY:Beginner;
#METER:2;
#RADARVALUES:0.120694,0.168092,0.109519,0.086050,0.000000,108.000000,94.000000,14.000000,11.000000,0.000000,0.000000,0.000000,0.000000,0.000000,0.120694,0.168092,0.109519,0.086050,0.000000,108.000000,94.000000,14.000000,11.000000,0.000000,0.000000,0.000000,0.000000,0.000000;
#CREDIT:DDRDAIKENKAI;
#NOTES:
// measure 0
0000
0000
0000
0000
,  // measure 1
0000
0000
0000
0000
,  // measure 2
0000
0000
0000
0000
,  // measure 3
0000
0000
0000
0000
,  // measure 4
1000
0000
1000
0000
,  // measure 5
0001
0000
0001
0000
,  // measure 6
0100
0000
0100
0000
,  // measure 7
0010
0000
0010
0000
,  // measure 8
1000
1000
1000
0000
,  // measure 9
0001
0001
0001
0000
,  // measure 10
0100
0100
0100
0000
,  // measure 11
0010
0010
0010
0000
,  // measure 12
0100
0100
0000
0001
,  // measure 13
0000
1000
0000
0100
,  // measure 14
0000
0010
0000
0001
,  // measure 15
0001
0000
1001
0000
,  // measure 16
1001
0000
0110
0000
,  // measure 17
0010
0010
0010
0000
,  // measure 18
0110
0000
1001
0000
,  // measure 19
0001
0001
0001
0000
,  // measure 20
2000
0000
3000
0000
,  // measure 21
0002
0000
0003
0000
,  // measure 22
0100
0000
0100
0000
,  // measure 23
0010
0010
0010
0000
,  // measure 24
0200
0000
0300
0000
,  // measure 25
0002
0000
0003
0000
,  // measure 26
2000
0000
3000
0000
,  // measure 27
0020
0000
0030
0000
,  // measure 28
2000
0000
3000
0000
,  // measure 29
0200
0000
0300
0000
,  // measure 30
0020
0000
0030
0000
,  // measure 31
0001
0001
0001
0001
,  // measure 32
0001
0000
1000
0000
,  // measure 33
0010
0010
0010
0000
,  // measure 34
0100
0100
0100
0000
,  // measure 35
0110
0000
0000
1001
,  // measure 36
1001
0000
0110
0000
,  // measure 37
0100
0100
0100
0000
,  // measure 38
0110
0000
1001
0000
,  // measure 39
0001
0001
0001
0000
,  // measure 40
2000
0000
3000
0000
,  // measure 41
0020
0000
0030
0000
,  // measure 42
0100
0000
0100
0000
,  // measure 43
0001
0001
0001
0001
,  // measure 44
0001
0000
1000
0000
,  // measure 45
0001
0000
1000
0000
,  // measure 46
0010
0000
0100
0000
,  // measure 47
0110
0110
0000
1001
;
