#TITLE:Where Are You Going?;
#SUBTITLE:;
#ARTIST:EB (aka EarBreaker);
#TITLETRANSLIT:;
#SUBTITLETRANSLIT:;
#ARTISTTRANSLIT:;
#GENRE:;
#CREDIT:;
#BANNER:Where Are You Going.png;
#BACKGROUND:Where Are You Going-bg.png;
#LYRICSPATH:;
#CDTITLE:;
#MUSIC:Where Are You Going.ogg;
#OFFSET:-0.881000;
#SAMPLESTART:78.432014;
#SAMPLELENGTH:13.061226;
#SELECTABLE:YES;
#BPMS:0.000000=147.000000
;
#STOPS:
;
#BGCHANGES:;
#KEYSOUNDS:;
#ATTACKS:;

//---------------dance-single - ----------------
#NOTES:
     dance-single:
     :
     Hard:
     13:
     0.542463,0.654513,0.204535,0.257892,0.160071,427.000000,404.000000,23.000000,29.000000,8.000000,0.000000,0.542463,0.654513,0.204535,0.257892,0.160071,427.000000,404.000000,23.000000,29.000000,8.000000,0.000000:
// measure 0
0000
0000
0000
0000
,  // measure 1
0000
0000
0000
0000
,  // measure 2
0000
0000
0000
0000
,  // measure 3
0000
0000
0000
0000
,  // measure 4
0000
0000
0000
0000
,  // measure 5
0000
0000
0000
0000
,  // measure 6
0000
0000
0000
0000
,  // measure 7
0000
0000
0000
0000
,  // measure 8
1000
0100
1000
0100
2000
0000
3100
0010
,  // measure 9
0100
0010
0100
1000
0100
0010
0100
1000
,  // measure 10
0100
0010
0001
0010
0002
0000
1003
0010
,  // measure 11
1MM0
0000
0MM1
0000
1100
0000
0011
0010
,  // measure 12
0010
0001
0010
0100
2000
0000
3100
0010
,  // measure 13
0100
1000
0001
0100
0010
1000
0001
0100
,  // measure 14
0001
1000
0100
0010
0002
0000
1003
0010
,  // measure 15
0100
0000
0001
0000
0100
0000
0001
0000
0100
0010
0100
0000
0001
0000
1000
0100
,  // measure 16
1000
0100
0010
0001
0020
0000
0031
1000
,  // measure 17
0100
0010
0100
1000
0001
0100
0010
0100
,  // measure 18
0010
1000
0001
0100
0020
0000
1030
0100
,  // measure 19
M01M
0000
M10M
0000
0011
0000
1100
0100
,  // measure 20
0100
0010
0001
0010
0200
0000
1300
0001
,  // measure 21
0100
0010
0100
0001
1000
0100
1000
0100
,  // measure 22
0010
0001
0100
0010
2000
0000
3001
0100
,  // measure 23
0010
1000
0001
0010
0011
0000
1100
0000
,  // measure 24
2000
0000
0000
0000
3001
0100
0001
0000
1000
0100
1000
0100
1000
0000
0010
0000
,  // measure 25
0100
0001
1000
0001
0100
0000
0010
1000
0010
0000
0100
0010
0000
0010
0100
0000
,  // measure 26
0002
0000
0000
0000
0103
0010
0100
0000
0010
1000
0010
1000
0010
0000
0100
0000
,  // measure 27
0001
1000
0001
1000
0001
0000
0100
0010
0200
0000
0000
0000
0302
0000
0000
0000
,  // measure 28
0203
0000
0000
0000
0310
1000
0010
0000
0100
0001
0100
0001
0100
0000
0010
0000
,  // measure 29
1000
0100
0010
0100
1000
0000
0001
0010
0001
0000
1000
0001
0000
0001
1000
0000
,  // measure 30
0200
0000
0000
0000
1300
0001
1000
0000
1000
0100
1000
0100
1000
0000
0001
0000
,  // measure 31
0010
0100
0010
0100
0010
0000
0001
1000
0002
0000
0000
0000
2003
0000
0000
0000
,  // measure 32
3000
0000
0002
0100
0103
0000
2000
0100
,  // measure 33
3100
0000
0010
0001
0010
0100
1000
0010
,  // measure 34
0200
0000
0300
0001
0001
0001
0000
1000
,  // measure 35
1000
1000
0000
0011
0000
0110
0000
1010
,  // measure 36
0100
0000
0002
0010
0013
0000
2000
0010
,  // measure 37
3010
0000
0200
0010
0000
0010
0300
0002
,  // measure 38
1000
1003
0000
2000
0100
3100
0000
0020
,  // measure 39
0001
0031
0000
0001
0100
0000
1100
0000
,  // measure 40
0012
0000
0103
0010
1000
0010
0100
0000
,  // measure 41
0001
0100
0010
0100
0001
1000
0100
0010
,  // measure 42
0001
0100
0001
0100
0000
0010
1000
0100
,  // measure 43
1000
0010
0100
0001
0010
0100
1000
0000
,  // measure 44
1000
0010
1000
0010
0000
0100
0001
0010
,  // measure 45
0100
1000
0001
0010
0001
0010
1000
0010
,  // measure 46
0001
1000
0001
1000
0000
0100
0010
0100
,  // measure 47
0010
1000
0001
0100
0010
1000
0001
0010
,  // measure 48
0100
0000
1000
0010
1000
0000
0010
0100
,  // measure 49
0001
0000
1000
0000
0001
0000
1000
0000
0001
0000
0100
0010
0000
0010
0100
0000
,  // measure 50
0001
0010
0001
0100
0001
0000
0010
0100
,  // measure 51
1000
0001
1000
0001
0020
0000
0230
0000
,  // measure 52
1300
0001
1000
0001
1000
0000
0010
0100
,  // measure 53
0001
0000
0100
0000
0010
0000
1000
0000
0001
0000
1000
0010
0000
0010
1000
0000
,  // measure 54
0001
1000
0001
1000
0001
0000
0010
0100
,  // measure 55
1000
0010
0100
0001
0011
0000
1010
0000
,  // measure 56
0101
0100
0101
0100
,  // measure 57
0011
0001
0011
0001
,  // measure 58
1010
1000
1010
1000
,  // measure 59
0110
0010
0110
0010
,  // measure 60
0100
0010
0100
0010
0100
0001
0100
0001
,  // measure 61
0010
0001
0010
0001
0010
0100
0010
0100
,  // measure 62
1000
0100
1000
0100
1000
0001
1000
0001
,  // measure 63
1000
0100
1000
0000
0001
0010
0001
0000
0110
0000
0000
0000
2001
0000
0000
0000
,  // measure 64
3010
0000
0000
0000
;

//---------------dance-single - ----------------
#NOTES:
     dance-single:
     :
     Medium:
     9:
     0.410341,0.455314,0.106714,0.417964,0.013339,323.000000,311.000000,12.000000,47.000000,0.000000,0.000000,0.410341,0.455314,0.106714,0.417964,0.013339,323.000000,311.000000,12.000000,47.000000,0.000000,0.000000:
0000
0000
0000
0000
,
0000
0000
0000
0000
,
0000
0000
0000
0000
,
0000
0000
0000
0000
,
0000
0000
0000
0000
,
0000
0000
0000
0000
,
0000
0000
0000
0000
,
0000
0000
0000
0000
,
1000
0001
0100
0010
2000
0000
3000
0001
,
0100
0010
0100
0010
,
0100
0001
1000
0010
0200
0000
0300
0010
,
1000
0001
0110
1001
,
0001
1000
0010
0100
0002
0000
0003
0100
,
0010
1000
0100
0010
,
0100
0010
1000
0001
0200
0000
0300
0010
,
1000
0100
0010
0001
0010
0000
0100
0100
,
0100
1000
0010
0100
0020
0000
0030
1000
,
0100
0010
0001
0010
,
0100
0010
0001
0010
0200
0000
0300
0010
,
0100
0001
0011
1100
,
0100
0010
0001
0010
0200
0000
0300
0010
,
0001
1000
0100
0010
,
0001
0010
0100
1000
0200
0000
0300
0010
,
0001
0001
0110
0110
,
1001
0000
1000
0100
1000
0100
1000
0010
,
0100
0000
0010
1000
0010
0000
0100
0000
,
0101
0000
0100
0001
0100
0001
0100
0001
,
0100
0000
0010
1000
0001
0000
1000
0000
,
1001
0000
0001
0010
0001
0010
0001
0100
,
0010
0000
0100
0001
0100
0000
0010
0000
,
1010
0000
0010
1000
0010
1000
0010
1000
,
0010
0000
0100
0001
0100
0000
0010
0000
,
1000
0100
0020
0000
0032
0000
2003
0000
,
3020
0230
0302
2003
,
3100
0010
0100
1000
0000
0001
0100
0001
,
0000
1000
0010
2000
0000
3200
0000
0310
,
0001
1000
0020
0000
0230
0000
0301
2000
,
0000
0100
0000
0010
0000
0001
0000
3020
,
0000
0000
0130
0002
0000
0000
0000
0000
,
1003
0000
1000
0000
0001
1000
0010
0100
,
0001
1000
0100
0010
0000
0100
1000
0001
,
0100
0010
1000
0001
2000
0000
3100
0010
,
0100
0000
1000
0010
0000
0100
0001
0100
,
0010
0000
0000
0000
0100
0000
0010
0000
0000
1000
0000
0000
0001
0000
0000
0000
,
1000
0001
0010
0100
0000
0010
0001
1000
,
0010
0100
0001
1000
0002
0000
0013
0100
,
0010
0000
0001
0100
0000
0010
1000
0010
,
0100
0000
0010
0000
1000
0001
0100
0010
,
2000
0000
3001
0100
0000
0010
1000
0010
,
0100
0000
0000
0000
0001
0000
1000
0000
0100
0000
0000
0100
0000
0000
0100
0000
,
0010
0000
0100
1000
0000
0001
0100
0010
,
2000
0000
3010
0100
0002
0000
2003
0000
,
3100
0000
0010
0100
0000
1000
0001
0100
,
0010
0000
0000
0000
1000
0000
0100
0000
0010
0000
0000
0001
0000
0000
0010
0000
,
0100
0000
1000
0001
0000
1000
0100
0010
,
0200
0300
0011
1100
,
2000
3002
0203
0320
,
2030
3200
0320
0032
,
0203
0320
2030
3200
,
0320
0230
2300
3200
,
0310
0001
1000
0100
0020
0000
0130
1000
,
0100
0000
0010
0001
1000
0001
0100
0010
,
1000
0100
0010
0001
0020
0000
0130
1000
,
0100
0010
0001
0010
0100
1000
0100
0010
,
0001
0000
0000
0000
;
