#TITLE:WOMAN;
#SUBTITLE:;
#ARTIST:BoA;
#TITLETRANSLIT:;
#SUBTITLETRANSLIT:;
#ARTISTTRANSLIT:;
#GENRE:K-Pop;
#CREDIT:;
#BANNER:Woman.png;
#BACKGROUND:Woman-bg.png;
#LYRICSPATH:;
#CDTITLE:;
#MUSIC:Woman.ogg;
#OFFSET:-0.000000;
#SAMPLESTART:48.370213;
#SAMPLELENGTH:18.503918;
#LASTBEATHINT:191.000000;
#SELECTABLE:YES;
#BPMS:0.000000=107.000000
,155.500000=53.500000
,157.500000=107.000000
;
#STOPS:88.000000=0.280000,
103.500000=0.280000,
155.000000=0.280000,
168.500000=0.280000
;
#BGCHANGES:4.500=Woman.avi=1.000=0=0=1=====,
191.000=Woman-bg.png=1.000=0=0=1=====,
99999=-nosongbg-=1.000=0=0=0 // don't automatically add -songbackground-
;
#KEYSOUNDS:;
#ATTACKS:;

//---------------dance-single - ----------------
#NOTES:
     dance-single:
     :
     Hard:
     11:
     0.449413,0.426751,0.232367,0.554106,0.317270,352.000000,326.000000,26.000000,62.000000,12.000000,0.000000,0.449413,0.426751,0.232367,0.554106,0.317270,352.000000,326.000000,26.000000,62.000000,12.000000,0.000000:
// measure 0
0000
0000
0000
0000
,  // measure 1
0000
0000
0000
0000
,  // measure 2
0100
0000
0000
0000
1001
0000
0100
0000
0100
0000
0000
0000
1001
0000
0001
1000
,  // measure 3
0100
1000
0200
0000
0310
0000
0010
0000
0100
0000
0000
0000
2001
0000
0000
0000
,  // measure 4
3001
0000
0100
0000
0000
0100
0000
0000
0100
0000
0000
0000
0110
0000
0010
1000
,  // measure 5
0100
1000
0200
0000
1000
0000
1300
0000
0100
0000
0000
0000
1002
0000
0000
0000
,  // measure 6
1003
0000
0000
0000
1002
0000
0000
1003
0000
0001
0000
0100
0010
0000
1000
0000
,  // measure 7
0100
0000
0000
0000
0210
0000
0000
1300
0000
0001
0000
0100
0010
0000
1000
0000
,  // measure 8
0001
0000
0000
0000
1002
0000
0000
1003
0000
0010
0000
0100
0001
0000
1000
0000
,  // measure 9
0001
0000
0000
0000
1002
0000
0000
1003
0000
0010
0000
1000
0100
0000
0010
0000
,  // measure 10
0001
0000
0000
0000
1200
0000
0000
0310
0000
0001
0000
0100
2000
0000
0000
0000
,  // measure 11
3100
0000
0000
0000
0210
0000
0000
0310
0000
1000
0000
0100
0002
0000
0000
0000
,  // measure 12
0103
0000
0000
0000
0012
0000
0000
0013
0000
0001
0000
1000
0010
0000
1000
0000
,  // measure 13
0001
0000
1001
0100
0200
0300
1002
0000
,  // measure 14
1003
0000
0100
0000
0001
0000
0100
0000
1000
0000
0100
0010
0000
0100
0010
0000
,  // measure 15
0001
0000
0200
0000
0000
0000
0320
0000
0000
1000
0000
0000
1030
0000
0001
0000
0000
0000
1002
0000
0000
0000
0000
0000
,  // measure 16
1003
0000
0010
0000
0001
0000
0010
0000
1000
0000
0010
0100
0000
0010
0100
0000
,  // measure 17
0001
0000
0020
0000
0000
0000
0230
0000
0000
1000
0000
0000
1300
0000
0001
0000
0000
0000
1002
0000
0000
0000
0000
0000
,  // measure 18
1003
0000
0100
0000
0001
0000
0010
0000
1000
0000
0001
1000
0000
0001
1000
0000
,  // measure 19
0010
0000
0000
0200
0000
0000
0000
0000
0000
0000
0000
0000
0320
0000
0000
0000
0000
0000
1000
0000
0000
0000
0000
0000
1030
0000
0000
0000
0001
0000
0000
0000
0000
0000
0000
0000
2001
0000
0000
0000
0000
0000
3001
0000
0000
0000
0000
0000
,  // measure 20
0010
0000
0010
0000
1000
0000
1000
0000
0100
0000
0100
0001
0000
1000
0000
0000
,  // measure 21
0002
0000
0000
0000
0010
0000
0000
0000
0003
0100
0000
0010
0000
1000
0001
1000
,  // measure 22
0MMM
0120
0000
1030
0200
0001
0302
0203
,  // measure 23
2300
3001
0100
0010
0010
1001
0000
1000
,  // measure 24
0010
0000
0001
0000
0010
0000
1000
0000
0001
2000
0000
0000
3001
0010
0001
0000
,  // measure 25
0010
0000
1000
0000
0010
0001
0000
0000
1000
0000
1000
0000
0001
0000
MMM0
0000
,  // measure 26
0120
0000
1030
0020
0001
0032
0023
2030
,  // measure 27
3100
1000
1000
0001
0120
0000
1030
0100
,  // measure 28
1000
0000
0010
0000
0100
0000
0001
2000
0000
3000
0001
0010
0001
0000
0100
0000
,  // measure 29
0010
0000
1000
0001
0000
0000
0010
0000
0010
0000
0001
0000
1000
0000
0000
0000
,  // measure 30
0010
0000
0001
0000
0200
0000
1300
0010
,  // measure 31
1000
0000
0000
0000
0000
0000
0000
0000
0001
0000
0000
0000
0000
0000
0000
0000
1000
0000
0000
0000
0000
0000
0010
0000
0000
0000
0000
0000
0000
0100
0000
0000
0000
0000
0000
0000
0000
0000
0000
0000
0010
0000
0000
0000
0000
0000
0000
0000
0020
0000
0000
0000
0000
0000
0000
0000
0000
0000
0000
0000
0000
0000
0000
0000
,  // measure 32
1030
0001
0002
0000
1003
0000
0100
0010
,  // measure 33
0100
0000
0000
0000
0000
0000
0000
0000
1000
0000
0000
0000
0000
0000
0000
0000
0100
0000
0000
0000
0000
0000
0010
0000
0000
0000
0000
0000
0000
0100
0000
0000
0000
0000
0000
0000
0000
0000
0000
0000
1000
0000
0000
0000
0000
0000
0000
0000
2000
0000
0000
0000
0000
0000
0000
0000
0000
0000
0000
0000
0000
0000
0000
0000
,  // measure 34
3001
1000
2000
0000
3020
0000
0031
0010
,  // measure 35
1000
0000
0000
0000
0010
0000
0000
0000
0001
0000
0000
0010
0000
0000
0100
0000
0000
0000
0000
0000
0001
0000
0000
0000
0002
0000
0000
0000
0000
0000
0000
0000
,  // measure 36
2003
0100
3200
0000
0310
0001
0100
0100
,  // measure 37
1000
0000
0000
0000
0000
0000
1000
0000
0000
0000
0000
0000
0100
0000
0000
0000
0001
0000
0000
0000
0000
0010
0000
0000
0000
0000
0000
0000
0000
0000
0100
0000
0000
0000
0000
0000
2000
0000
0000
0000
0000
0000
0000
0000
0000
0000
0000
0000
,  // measure 38
0100
0000
0000
0000
3000
0100
0000
0010
0000
0001
1000
0001
MMM0
0000
0002
0000
,  // measure 39
0010
0003
0020
0000
0000
0030
0200
0000
1000
0000
1300
0000
1001
0000
0000
0000
1000
0000
0000
0000
0010
0000
0000
0000
0100
0000
0000
0000
0102
0000
0000
0000
,  // measure 40
0000
0003
1000
0000
1000
0000
0010
0000
0010
0000
0100
0000
0100
0002
0000
0000
,  // measure 41
0013
0001
0010
0000
0010
0000
0100
0000
0100
1000
0000
0000
0010
0000
0010
0000
,  // measure 42
1000
0MMM
1002
0000
1003
0200
0001
0302
,  // measure 43
0203
2300
3001
0100
0010
0010
2002
3003
,  // measure 44
1000
0000
1000
0000
0001
0000
0001
0000
0100
0000
0100
0020
0000
0000
1030
0001
,  // measure 45
1000
0000
1000
0000
0010
0000
0010
0100
0000
0000
0001
0000
1000
0000
1000
0000
,  // measure 46
0001
0010
1000
0200
,  // measure 47
0301
0001
0001
1001
;

//---------------dance-single - ----------------
#NOTES:
     dance-single:
     :
     Medium:
     8:
     0.338336,0.341401,0.187681,0.348550,0.031280,265.000000,244.000000,21.000000,39.000000,0.000000,0.000000,0.338336,0.341401,0.187681,0.348550,0.031280,265.000000,244.000000,21.000000,39.000000,0.000000,0.000000:
// measure 0
0000
0000
0000
0000
,  // measure 1
0000
0000
0000
0000
,  // measure 2
1000
0000
0000
1000
0001
0000
0000
0001
,  // measure 3
1000
0020
0130
1001
,  // measure 4
0000
0000
1000
0000
0000
1000
0000
0000
1000
0000
0000
0000
0100
0000
0000
0000
,  // measure 5
0010
0002
1003
1002
,  // measure 6
1003
0000
2010
0000
3010
1000
0001
0000
,  // measure 7
0100
0000
0210
0000
0310
0100
0001
0000
,  // measure 8
1000
0000
2001
0000
3010
1000
0100
0000
,  // measure 9
0010
0000
0021
0000
0031
1000
0200
0000
,  // measure 10
1300
0000
1020
0000
0130
0001
0020
0000
,  // measure 11
0130
0000
2100
0000
3001
1000
0020
0000
,  // measure 12
0130
0000
0102
0000
0103
0010
1000
0000
,  // measure 13
0100
0000
0010
0001
0001
0000
1001
0000
,  // measure 14
0001
0000
0000
0000
0001
0000
0000
0000
1000
0000
0000
0010
0000
0000
0100
0000
,  // measure 15
0002
1000
1003
1001
,  // measure 16
1000
0000
0000
0000
1000
0000
0000
0000
0001
0000
0000
0100
0000
0000
0010
0000
,  // measure 17
2000
0001
3001
1001
,  // measure 18
0001
0000
0000
0000
0010
0000
0000
0000
0100
0000
0000
1000
0000
0000
0001
0000
,  // measure 19
0200
0000
0010
0000
0310
0000
0110
0100
,  // measure 20
0100
0000
0000
0000
0001
0000
0000
0000
1000
0000
0000
0010
0000
0000
0100
0000
,  // measure 21
0002
2000
3003
0000
,  // measure 22
0100
1002
0000
1000
2003
0000
3010
0100
,  // measure 23
0010
0000
1000
0001
1000
1001
0000
1000
,  // measure 24
0100
1000
0000
0001
0010
0001
0000
1000
,  // measure 25
0001
0100
0010
1000
0001
0001
1000
1000
,  // measure 26
2001
0000
3001
0002
0000
0103
0010
0100
,  // measure 27
0000
0001
1000
0001
1001
0000
0010
0100
,  // measure 28
0010
0000
1000
0001
1000
0000
0001
1000
,  // measure 29
0010
0100
0001
1000
1000
0001
1000
0000
,  // measure 30
0010
0000
0001
0000
0200
0000
1300
0100
,  // measure 31
1000
0000
0100
0010
0100
0010
0020
0000
,  // measure 32
0000
0001
0002
0000
0033
0000
0001
0010
,  // measure 33
0001
0000
0100
0010
0100
0010
0020
0000
,  // measure 34
0000
1000
2030
0000
3002
0000
0013
0100
,  // measure 35
1000
0000
0100
0010
0001
0001
2000
0000
,  // measure 36
0000
0100
3200
0000
0300
0010
0001
0010
,  // measure 37
0001
0010
0100
1000
0100
1000
0002
0000
,  // measure 38
2000
0000
3003
0000
0000
0000
1000
0002
,  // measure 39
0103
0200
0000
0020
0330
0000
0110
0000
0010
0000
0100
0000
0100
0000
0010
0000
,  // measure 40
0000
1000
0001
0100
0000
0010
1000
0100
,  // measure 41
0000
0010
0001
0100
0010
1000
0001
0001
,  // measure 42
1000
0001
1002
0000
1003
2000
0000
3001
,  // measure 43
0001
1000
0000
0010
0010
0100
0120
0000
,  // measure 44
0130
0001
0100
0000
0010
1000
0010
0000
,  // measure 45
1000
0100
0010
0001
0100
0010
0010
0100
,  // measure 46
0001
0010
1000
0200
,  // measure 47
0301
0001
0001
1001
;

//---------------dance-single - ----------------
#NOTES:
     dance-single:
     :
     Easy:
     5:
     0.208109,0.234713,0.098309,0.268116,0.000000,163.000000,152.000000,11.000000,30.000000,0.000000,0.000000,0.208109,0.234713,0.098309,0.268116,0.000000,163.000000,152.000000,11.000000,30.000000,0.000000,0.000000:
// measure 0
0000
0000
0000
0000
,  // measure 1
0000
1010
0000
0000
,  // measure 2
1000
0000
0001
0000
,  // measure 3
0100
0020
1030
0000
,  // measure 4
0001
0001
0001
0000
,  // measure 5
1000
0200
0310
0110
,  // measure 6
1000
0001
1000
1000
,  // measure 7
0000
0001
1000
0001
,  // measure 8
0000
0100
0010
0100
,  // measure 9
0000
0010
0100
0010
,  // measure 10
0000
1000
0100
0020
,  // measure 11
0030
0001
0100
0020
,  // measure 12
0030
1000
0001
0100
,  // measure 13
0000
0001
0000
1001
,  // measure 14
1000
1000
1000
0100
,  // measure 15
0020
0030
0002
0003
,  // measure 16
0100
0100
0100
0010
,  // measure 17
2000
3000
0002
0003
,  // measure 18
0010
0010
0010
0100
,  // measure 19
2000
3000
0002
0003
,  // measure 20
0100
0010
1000
0001
,  // measure 21
2002
0000
3003
0000
,  // measure 22
0000
1002
0000
1003
0000
0001
0000
0100
,  // measure 23
0000
0001
0000
1000
0000
1001
0000
0001
,  // measure 24
0000
0001
0000
1000
0000
0100
0000
1000
,  // measure 25
0000
1000
0000
0001
0000
0001
0000
0000
,  // measure 26
1002
1003
0010
0100
,  // measure 27
0001
1000
1001
0001
,  // measure 28
0010
0001
0100
0010
,  // measure 29
1000
0100
1000
0010
,  // measure 30
0010
0010
0010
1000
,  // measure 31
0001
0100
0010
0200
,  // measure 32
0300
0002
0003
1000
,  // measure 33
0010
1000
0100
0020
,  // measure 34
0030
0002
0003
0100
,  // measure 35
0010
0100
0001
2000
,  // measure 36
3000
0002
0003
0010
,  // measure 37
0100
0010
0001
2000
,  // measure 38
0000
0000
3000
0000
0000
0000
0000
0002
,  // measure 39
0000
0000
0000
2003
0000
3001
0000
1002
,  // measure 40
0000
1003
0000
0010
0000
0100
0000
0100
,  // measure 41
0000
0010
0000
0010
0000
1000
0000
0001
,  // measure 42
0000
1002
2003
3020
,  // measure 43
0230
0302
1003
1000
,  // measure 44
0001
0010
0100
1000
,  // measure 45
0010
0100
0001
1000
,  // measure 46
0010
0001
0100
2000
,  // measure 47
3001
0001
0001
1001
;

//---------------dance-single - ----------------
#NOTES:
     dance-single:
     :
     Challenge:
     11:
     0.445583,0.469426,0.348550,0.277053,0.254710,349.000000,310.000000,39.000000,31.000000,24.000000,0.000000,0.445583,0.469426,0.348550,0.277053,0.254710,349.000000,310.000000,39.000000,31.000000,24.000000,0.000000:
// measure 0
0000
0000
0000
0000
,  // measure 1
0000
0000
0000
0000
,  // measure 2
0100
0000
0000
0000
1001
0000
0100
0000
0100
0000
0000
0000
2001
0000
3100
1000
,  // measure 3
0100
1000
0200
0000
0010
0000
0310
0000
0100
0000
0000
0000
MMMM
0000
0000
0000
,  // measure 4
0000
0000
1000
0000
0001
1000
0000
0000
1000
0000
0000
0000
1001
0000
0001
1000
,  // measure 5
0100
1000
0200
0000
0010
0000
0310
0000
0100
0000
0000
0000
MMMM
0000
0000
0000
,  // measure 6
1000
0000
0100
0000
0000
1000
0000
0000
1100
0000
0000
0000
0101
0000
0001
0100
,  // measure 7
0001
0100
0010
1000
0100
0000
0110
0000
,  // measure 8
0001
0000
1000
0000
0000
0010
0000
0000
0100
0000
0000
0000
0110
0000
0100
1000
,  // measure 9
0100
0001
0010
0100
1000
0000
1002
0000
,  // measure 10
0103
0000
0001
0000
1000
0001
0000
0000
1001
0000
0000
0000
0201
0000
0301
1000
,  // measure 11
0001
0010
0100
0100
0010
0000
1200
0000
,  // measure 12
1300
0000
0010
0000
1000
0001
0000
0000
0011
0000
0000
0000
1001
0000
0001
1000
,  // measure 13
0001
0100
0010
0010
1000
0000
2100
0000
,  // measure 14
3001
0000
0010
0000
0000
0100
0000
0000
1000
0000
0000
0000
1010
0000
0010
0000
,  // measure 15
1000
0000
0001
0000
2000
0000
0010
0000
3010
1000
0000
1000
0200
0000
1000
0000
,  // measure 16
1300
0000
0100
0000
0000
0010
0000
0000
0001
0000
0000
0000
0101
0000
0001
0000
,  // measure 17
0010
0000
0100
0000
2000
0000
0001
0000
3001
0000
0000
0001
0100
0000
0001
0000
,  // measure 18
0010
0000
0100
0000
0000
0010
0000
0000
0001
0000
0000
0000
0001
0000
0100
0000
,  // measure 19
0010
0000
0001
0000
2000
0000
0100
0000
3100
0000
0000
0100
0001
0000
0001
0000
,  // measure 20
1000
0000
0001
0000
0000
0010
0000
0000
0100
0000
0000
0000
0010
0000
0001
1000
,  // measure 21
0200
0000
0000
0000
0020
0000
0330
0000
0000
0001
0000
1000
0000
0001
1000
0001
,  // measure 22
MMMM
0201
0000
1000
0000
0001
0000
1000
,  // measure 23
0000
0301
1000
1000
0100
1100
0000
0010
,  // measure 24
0011
0000
0000
0011
0000
0000
0011
0000
0000
0000
1000
0000
0001
0100
0001
0100
,  // measure 25
0010
0000
1000
0000
0010
0000
0100
0001
0100
0000
0001
1000
0001
0000
MMMM
0000
,  // measure 26
1200
0001
1000
0001
,  // measure 27
1300
0010
0010
0100
0110
0000
0100
0001
,  // measure 28
1000
0001
0000
0000
1001
0000
0000
0000
1100
0000
0100
1000
0100
1000
0100
0000
,  // measure 29
2000
0001
3001
0100
0010
0010
0001
0000
,  // measure 30
0100
1000
0020
0130
,  // measure 31
0100
0000
0000
0000
0100
0000
0000
0000
0000
0000
0001
0010
0100
1000
0100
0000
,  // measure 32
2000
0001
3002
0000
1003
0000
0010
0000
,  // measure 33
0010
0000
0000
0000
0010
0000
0000
0000
0000
0000
1000
0010
0100
0001
0100
0000
,  // measure 34
0002
1000
1003
0000
1002
0000
1003
0000
,  // measure 35
1100
0000
0000
0000
1001
0000
0000
0000
0001
0000
0010
0001
0100
0001
1000
0000
,  // measure 36
0020
1000
1030
0000
1100
0001
0010
0000
,  // measure 37
0011
0000
0000
0000
1001
0000
0000
0000
0001
0000
1000
0010
1000
0100
0020
0000
,  // measure 38
0001
0000
0031
0000
0000
0100
0000
0010
0000
0100
0010
1000
MMMM
0000
2000
0000
,  // measure 39
0001
3002
0000
1000
1000
1003
0001
0000
0100
0000
0010
0000
1000
0000
1001
0000
,  // measure 40
0000
0000
1000
0000
1010
0000
0000
1010
0000
0000
1010
0000
0000
0000
0101
0000
,  // measure 41
0001
0010
0001
0010
0001
0000
0200
0000
0010
0000
0310
1000
0001
0000
0001
0100
,  // measure 42
0010
MMMM
0200
0000
0001
0000
1000
0000
,  // measure 43
0001
0000
1300
0100
0001
0010
0220
0330
,  // measure 44
1000
0000
0010
0000
1000
0001
0000
0000
1001
0000
0000
0000
0101
0000
0001
0010
,  // measure 45
0100
0010
0100
0000
0010
0000
0010
0000
0001
0000
0100
0000
0010
0000
0010
0000
,  // measure 46
1000
0001
1000
0002
,  // measure 47
1000
1000
2000
3003
;

//---------------dance-single - ----------------
#NOTES:
     dance-single:
     :
     Beginner:
     2:
     0.154486,0.192038,0.089372,0.008937,0.000000,121.000000,111.000000,10.000000,1.000000,0.000000,0.000000,0.154486,0.192038,0.089372,0.008937,0.000000,121.000000,111.000000,10.000000,1.000000,0.000000,0.000000:
// measure 0
0000
0000
0000
0000
,  // measure 1
0000
0000
0000
0000
,  // measure 2
0100
0000
0100
0000
,  // measure 3
0010
0010
0000
0110
,  // measure 4
0000
1000
1000
0000
,  // measure 5
0001
0001
0000
1001
,  // measure 6
0000
1000
0000
1000
,  // measure 7
0000
0100
0000
0100
,  // measure 8
0000
0010
0000
0010
,  // measure 9
0000
0001
0000
0001
,  // measure 10
0000
1000
0000
0001
,  // measure 11
0000
0100
0000
0001
,  // measure 12
0000
0010
0000
0001
,  // measure 13
0000
0100
0100
0000
,  // measure 14
0010
0010
0010
0000
,  // measure 15
1000
0000
0001
0000
,  // measure 16
1000
1000
1000
0000
,  // measure 17
0010
0000
0100
0000
,  // measure 18
0001
0001
0001
0000
,  // measure 19
0010
0000
0100
0000
,  // measure 20
1000
1000
1000
0000
,  // measure 21
0100
0100
0000
0000
,  // measure 22
0000
1001
0000
1001
0000
0000
0000
1000
,  // measure 23
0000
1000
0000
1000
0000
0000
0000
0000
,  // measure 24
0000
0010
0000
0010
0000
0000
0000
0100
,  // measure 25
0000
0100
0000
0100
0000
0100
0000
0000
,  // measure 26
1001
1001
0000
0001
,  // measure 27
0001
0001
0000
0000
,  // measure 28
0010
0010
0000
0100
,  // measure 29
0100
0100
0000
0010
,  // measure 30
0010
0010
0000
0010
,  // measure 31
0010
0000
0001
0000
,  // measure 32
1000
1000
1000
0000
,  // measure 33
0010
0000
0100
0000
,  // measure 34
0010
0010
0010
0000
,  // measure 35
1000
0000
0001
0000
,  // measure 36
0100
0100
0100
0000
,  // measure 37
0001
0000
1000
0000
,  // measure 38
0100
0000
0000
0000
,  // measure 39
0000
0000
0000
0110
0000
0000
0000
0010
,  // measure 40
0000
0000
0000
0001
0000
0000
0000
0001
,  // measure 41
0000
0000
0000
1000
0000
1000
0000
1000
,  // measure 42
0000
1001
1001
0000
,  // measure 43
0010
0010
0010
0000
,  // measure 44
0000
0100
0100
0000
,  // measure 45
0001
0001
0001
0000
,  // measure 46
1000
1000
1000
2000
,  // measure 47
3000
0000
0000
1001
;
