#TITLE:Unknown Mother Goose;
#SUBTITLE:;
#ARTIST:wowaka feat. Hatsune Miku;
#TITLETRANSLIT:;
#SUBTITLETRANSLIT:;
#ARTISTTRANSLIT:;
#GENRE:;
#CREDIT:;
#MUSIC:unknown.mp3;
#BANNER:banner.png;
#BACKGROUND:background.png;
#CDTITLE:;
#SAMPLESTART:61.727;
#SAMPLELENGTH:17.298;
#SELECTABLE:YES;
#OFFSET:-0.065;
#BPMS:0.000=221.924
,227.000=206.924
,228.000=221.924
,291.000=225.924
,292.000=221.924
,307.000=229.924
,308.000=221.924
,309.500=244.924
,310.500=221.924
,314.000=213.924
,316.000=221.924
,322.000=223.924
,324.000=221.924
,451.000=218.924
,452.000=221.924
;
#STOPS:;
#DISPLAYBPM:222.000;
#BGCHANGES:;
#FGCHANGES:;

//--------------- dance-single - ----------------
#NOTES:
     dance-single:
     :
     Beginner:
     4:
     0,0,0,0,0:
0000
0000
0000
0000
,
0000
0000
0000
0000
,
0000
0000
0000
0000
,
0000
0000
0000
0000
,
0000
0000
0000
0000
,
0000
0000
0000
0000
,
0000
0000
0000
0000
,
0000
0000
0000
0000
,
0000
0000
0000
0000
,
1000
0000
0000
0000
,
0000
0000
0000
0000
,
1000
0000
0000
0000
,
0000
0000
0000
0000
,
0001
0000
0000
0000
,
0000
0000
0000
0000
,
0001
0000
0000
0000
,
0100
0000
0100
0000
,
0010
0000
0010
0000
,
0010
0000
0000
0000
,
1000
0000
1000
0000
,
1000
0000
0000
0000
,
0001
0000
0001
0000
,
0001
0000
0000
0000
,
0100
0000
0100
0000
,
0100
0000
0000
0000
,
1001
0000
0000
0000
,
0000
0000
0000
0000
,
0001
0000
0001
0000
,
0001
0000
0000
0000
,
1000
0000
1000
0000
,
1000
0000
0000
0000
,
0010
0000
0010
0000
,
0100
0000
0000
0000
,
0001
0000
0001
0000
,
0001
0000
0000
0000
,
1000
0000
1000
0000
,
1000
0000
0000
0000
,
0100
0000
0100
0000
,
0100
0000
0000
0000
,
0010
0000
0010
0000
,
0001
0000
1000
0000
,
0001
0000
0000
0000
,
0100
0000
0000
0000
,
0001
0000
0000
0000
,
0100
0000
0000
0000
,
0010
0000
0000
0000
,
1000
0000
0000
0000
,
0010
0000
0000
0000
,
1000
0000
0000
0000
,
0001
0000
0001
0000
,
0001
0000
0001
0000
,
1000
0000
1000
0000
,
1000
0000
1000
0000
,
0010
0000
0100
0000
,
0010
0000
0100
0000
,
0001
0000
1000
0000
,
1001
0000
0000
0000
,
0001
0000
0001
0000
,
0100
0000
0100
0000
,
1000
0000
0100
0000
,
0001
0000
0000
0000
,
1000
0000
1000
0000
,
0100
0000
0100
0000
,
0001
0000
0100
0000
,
1000
0000
0000
0000
,
0001
0000
0001
0000
,
0100
0000
0100
0000
,
1000
0000
0100
0000
,
0001
0000
0000
0000
,
1000
0000
1000
0000
,
0100
0000
0100
0000
,
0001
0000
0100
0000
,
1000
0000
0000
0000
,
0010
0000
0000
0000
,
0000
0000
0000
0000
,
0010
0000
0000
0000
,
0000
0000
0000
0000
,
0010
0000
0010
0000
,
0010
0000
0000
0000
,
0010
0000
0010
0000
,
0010
0000
0000
0000
,
1000
0000
1000
0000
,
1000
0000
1000
0000
,
0001
0000
0001
0000
,
0001
0000
0001
0000
,
0100
0000
0100
0000
,
0100
0000
0100
0000
,
0010
0000
0010
0000
,
0010
0000
0010
0000
,
1000
0000
1000
0000
,
1000
0000
1000
0000
,
0001
0000
0001
0000
,
0100
0000
0100
0000
,
0001
0000
0001
0000
,
1000
0000
1000
0000
,
0100
0000
0100
0000
,
0110
0000
0000
0000
,
1001
0000
0000
0000
,
0000
0000
0000
0000
,
1001
0000
0000
0000
,
0000
0000
0000
0000
,
1001
0000
0000
0000
,
0000
0000
0000
0000
,
1001
0000
0000
0000
,
0000
0000
0000
0000
,
0001
0000
0001
0000
,
0001
0000
0001
0000
,
1000
0000
1000
0000
,
1000
0000
1000
0000
,
0010
0000
0010
0000
,
0100
0000
0100
0000
,
0001
0000
0001
0000
,
1001
0000
0000
0000
,
1000
0000
1000
0000
,
0100
0000
0100
0000
,
0001
0000
0100
0000
,
1000
0000
0000
0000
,
0001
0000
0001
0000
,
0100
0000
0100
0000
,
1000
0000
0100
0000
,
0001
0000
0000
0000
,
1000
0000
1000
0000
,
0100
0000
0100
0000
,
0001
0000
0100
0000
,
1000
0000
0000
0000
,
0001
0000
0001
0000
,
0100
0000
0100
0000
,
1000
0000
0100
0000
,
0001
0000
0000
0000
,
1001
0000
0000
0000
;

//--------------- dance-single - ----------------
#NOTES:
     dance-single:
     :
     Easy:
     9:
     0,0,0,0,0:
0000
0000
0000
0000
,
0000
0000
0000
0000
,
0000
0000
0000
0000
,
0000
0000
0000
0000
,
0000
0000
0000
0000
,
0000
0000
0000
0000
,
0000
0000
0000
0000
,
0000
0000
0000
0000
,
0000
0000
0000
0000
,
1000
0000
0010
0000
,
1000
0010
1000
0000
,
0001
0000
0010
0000
,
0001
0010
0001
0000
,
1000
0000
0100
0000
,
1000
0100
1000
0000
,
0001
0000
0100
0000
,
0010
0100
0010
0000
,
1000
0000
1000
0000
,
0010
1000
0010
1000
,
0001
0000
0001
0000
,
0100
0001
0100
0001
,
1000
0000
1000
0000
,
0010
1000
0010
1000
,
0001
0000
0001
0000
,
0100
0001
0100
0001
,
1000
0000
0000
0000
,
0000
0000
0000
0000
,
1000
0000
0010
0000
,
1000
0010
1000
0000
,
0010
0000
0100
0000
,
0010
0100
0010
0000
,
0100
0000
0001
0000
,
0100
0001
1000
0000
,
0001
0000
1000
0000
,
0001
1000
0001
0000
,
0100
0000
0001
0000
,
0100
0001
0100
0000
,
0001
0000
0010
0000
,
0010
0001
1000
0000
,
0010
0000
0100
0000
,
1001
0000
1001
0000
,
0110
0000
0010
0000
,
0110
0000
0010
0000
,
0110
0000
0010
0000
,
0110
0000
0010
0000
,
1001
0000
0001
0000
,
1001
0000
0001
0000
,
1001
0000
0001
0000
,
1001
0000
0001
0000
,
1001
0001
0100
0001
,
1000
0001
0001
0000
,
1001
1000
0100
1000
,
0001
1000
1000
0000
,
0110
0010
0100
0010
,
0100
0100
0100
0100
,
0001
1000
0001
1000
,
1001
1001
0000
0000
,
0001
0000
0100
0000
,
0010
1000
0100
0010
,
0001
0000
1000
0000
,
0010
1000
0100
0000
,
1000
0000
0010
0000
,
0100
0001
0010
0100
,
1000
0000
0001
0000
,
1000
0001
0100
0000
,
0010
0000
0100
0000
,
0001
0010
0100
1000
,
0010
0000
1000
0000
,
0001
1000
0100
0000
,
0010
0000
0001
0000
,
1000
0010
0100
0001
,
0010
0000
0100
0000
,
1000
0010
0100
0000
,
0001
0000
0001
0000
,
0001
1000
0001
0000
,
1000
0000
1000
0000
,
1000
0001
1000
0000
,
0010
0000
0010
0000
,
0010
0100
0010
0000
,
0100
0000
0100
0000
,
0100
0010
0100
0000
,
0001
0001
0001
0000
,
1000
1000
1000
0000
,
0010
0010
0010
0000
,
0100
0001
0100
0000
,
0001
0001
0001
0000
,
1000
1000
1000
0000
,
0010
0010
0010
0000
,
0100
0001
0100
0000
,
0001
0001
0001
0000
,
1000
1000
1000
0000
,
0100
0100
0100
0000
,
0010
0001
0010
0000
,
0001
0001
0001
0000
,
1000
1000
1000
0000
,
0100
0100
0100
0100
,
0010
0001
0010
0000
,
0011
0000
0010
0000
,
0011
0000
0010
0000
,
1100
0000
0100
0000
,
1100
0000
0100
0000
,
0011
0000
0010
0000
,
0011
0000
0010
0000
,
1100
0000
0100
0000
,
1100
0000
0100
0000
,
1100
1000
0001
1000
,
0100
0010
0001
0000
,
0101
0001
1000
0001
,
0100
0010
1000
0000
,
1010
0010
1000
0000
,
0011
0010
0001
0000
,
1000
0001
1000
0001
,
1001
1001
0000
0000
,
1001
0000
0101
0000
,
0001
0010
0100
1000
,
1001
0000
1100
0000
,
0100
0010
0001
0000
,
0011
0000
1100
0000
,
0100
1000
0010
0100
,
0110
0000
0101
0000
,
0001
1000
0100
0000
,
1100
0000
0101
0000
,
0001
1000
0010
0100
,
0101
0000
1010
0000
,
0010
1000
0100
0000
,
0101
0000
1100
0000
,
1000
0010
0100
1000
,
1100
0000
0101
0000
,
0001
0010
0100
0000
,
1001
0000
0000
0000
;

//--------------- dance-single - ----------------
#NOTES:
     dance-single:
     :
     Medium:
     11:
     0,0,0,0,0:
0000
0000
0000
0000
,
0000
0000
0000
0000
,
0000
0000
0000
0000
,
0000
0000
0000
0000
,
0000
0000
0000
0000
,
0000
0000
0000
0000
,
0000
0000
0000
0000
,
0000
0000
0000
0000
,
0000
0000
0000
0000
,
1001
0000
0000
1000
0000
0000
0010
0000
,
0100
0000
0001
0100
0000
0000
0000
0000
,
0101
0000
0000
0001
0000
0000
1000
0000
,
0100
0000
0100
0010
0000
0001
1000
0000
,
1001
0000
0000
0001
0000
0000
0100
0000
,
0010
0000
1000
0010
0000
0000
0100
0000
,
0001
0000
0000
1000
0000
0000
0001
0000
,
0100
0000
0010
0000
0100
0000
0010
0000
0100
0000
0010
0000
,
1000
0000
0000
0001
0000
0001
1000
0000
,
0000
0001
0000
0001
1000
0000
1000
0000
,
0001
0000
0000
1000
0000
1000
0001
0000
,
0000
1000
0000
1000
0001
0000
0001
0000
,
0100
0000
0000
0010
0000
0010
0100
0000
,
0000
0010
0000
0010
0100
0000
0100
0000
,
0010
0000
0000
0100
0000
0100
0010
0000
,
0000
0100
0000
0100
0010
0000
1000
0000
,
2002
0000
0000
0000
,
0000
0000
0000
3003
,
0101
0001
1000
0010
,
0100
0000
0001
0100
0000
0000
0001
0000
,
1000
0100
0010
0001
,
1000
0000
0010
1000
0000
0000
0010
0000
,
0100
0001
0010
0001
,
1001
0101
1100
1000
,
0010
0100
0001
0100
,
0010
0000
1000
0001
0000
0000
0000
0000
,
0100
0001
0100
0010
,
1000
0000
0010
0100
0000
0000
0001
0000
,
0010
0100
1000
0010
,
0100
0000
0001
1000
0000
0000
0001
0000
,
0100
0100
0010
0010
,
1000
0000
0001
0000
1000
0000
0001
0000
1000
0000
0000
0000
,
0020
0000
0100
0000
,
0000
0000
0100
0030
,
2000
0000
0001
0000
,
0000
0000
3001
0000
,
0002
0000
0100
0000
,
0000
0000
0100
0003
,
2000
0000
0010
0000
,
0000
0000
0010
3000
,
0101
0100
0010
1000
,
0001
0000
0010
0000
0100
1000
0100
0000
,
1100
0100
0010
0001
,
1000
0000
0100
0000
0010
0001
0010
0000
,
0001
1000
0001
0000
1000
0001
1000
0000
,
0001
1000
0001
0000
1000
0001
1000
0000
,
1001
1001
1001
1001
,
0110
0220
0000
0330
,
0101
0000
0000
0001
0100
0000
0010
0000
,
1000
0010
0100
0001
,
1100
0000
0000
0100
0010
0000
0001
0000
,
1000
0001
1000
0000
,
0011
0000
0000
0010
0100
0000
1000
0000
,
0010
0100
0001
1000
,
1010
0000
0000
0010
0100
0000
0001
0000
,
0010
0100
1000
0000
,
1001
0000
0000
0001
1000
0000
0100
0000
,
0010
0100
1000
0010
,
0110
0000
0000
0010
0100
0000
0001
0000
,
0010
0001
1000
0000
,
1100
0000
0000
0100
0001
0000
0100
0000
,
1000
0010
0100
0001
,
0101
0000
0000
0100
1000
0000
0100
0000
,
0001
0010
0100
0000
,
1100
0000
0100
1000
0000
0000
1100
0000
,
0100
1000
0000
0000
1100
0000
0000
0000
,
0011
0000
0010
0001
0000
0000
0011
0000
,
0010
0001
0000
0000
0011
0000
0000
0000
,
1000
0010
1000
0010
0000
0010
1000
0010
,
1000
0010
0000
0010
0100
0000
0000
0000
,
0001
0010
0001
0010
0000
0010
0001
0010
,
0001
0010
0000
0010
0001
0000
0000
0000
,
1000
0010
1000
0010
1000
0000
0001
0000
,
1000
0010
1000
0010
1000
0000
0001
0000
,
0100
0001
0100
0001
0100
0000
0010
0000
,
1000
0000
0010
0100
0000
0001
0000
0000
,
1000
0001
1000
0001
1000
0000
0001
0000
,
0100
0001
0100
0001
0100
0000
0001
0000
,
0010
0001
0010
0001
0010
0000
0001
0000
,
1000
0000
0010
0100
0000
0010
0000
0000
,
0100
0001
0100
0001
0100
0000
0010
0000
,
1000
0100
1000
0100
1000
0000
0010
0000
,
1000
0001
1000
0001
1000
0000
0010
0000
,
0100
0000
0001
0001
0000
1000
0000
0000
,
0001
0010
0001
0010
0001
0000
1000
0000
,
0001
0100
0001
0100
0001
0000
1000
0000
,
0010
0100
0010
0100
0010
0000
1000
0000
,
0010
0000
0100
0001
0000
1001
0000
0000
,
0201
0000
0310
0000
,
1200
0000
0310
0000
,
0201
0000
0310
0000
,
1200
0000
0310
0000
,
0021
0000
0130
0000
,
1020
0000
0130
0000
,
0021
0000
0130
0000
,
1020
0000
0130
0000
,
0101
0001
1001
0001
,
0101
0000
0001
0000
1000
0001
1000
0000
,
1100
1000
1001
1000
,
1100
0000
1000
0000
0001
1000
0001
0000
,
0011
0000
0001
0000
0100
0001
0100
0000
,
1010
0000
1000
0000
0100
1000
0001
0000
,
1001
1001
1001
1001
,
0110
0220
0000
0330
,
0101
0000
0000
0100
0010
0000
1000
0000
,
0010
0000
0100
0000
0001
1000
0001
0000
,
0101
0000
0000
0001
0010
0000
0100
0000
,
1000
0000
0010
1000
0010
0000
0100
0000
,
0101
0000
0000
0001
1000
0000
0001
0000
,
1000
0000
0100
0000
0010
0001
0010
0000
,
0011
0000
0000
0010
0100
0000
1000
0000
,
0001
0000
1000
0001
1000
0000
0001
0000
,
0011
0000
0000
0010
0001
0000
1000
0000
,
0001
0000
0100
0000
0010
1000
0010
0000
,
1010
0000
0000
0010
0100
0000
0001
0000
,
1000
0000
0001
0010
0001
0000
1000
0000
,
0101
0000
0000
0100
0010
0000
1000
0000
,
0001
0000
0010
0000
0100
1000
0100
0000
,
1100
0000
0000
1000
0001
0000
0100
0000
,
0010
0000
1000
0001
1000
0000
0010
0000
,
0220
0000
0000
0000
,
0330
0000
0000
0000
;

//--------------- dance-single - ----------------
#NOTES:
     dance-single:
     :
     Hard:
     14:
     0,0,0,0,0:
0000
0000
0000
0000
,
0000
0000
0000
0000
,
0000
0000
0000
0000
,
0000
0000
0000
0000
,
0000
0000
0000
0000
,
0000
0000
0000
0000
,
0000
0000
0000
0000
,
0000
0000
0000
0000
,
0000
0000
0000
0000
0000
1000
0001
0000
,
1001
0000
0001
1000
0000
0010
1000
0010
,
0100
0001
0100
0010
0000
0000
1000
0000
,
1100
0000
0100
1000
0000
0100
0010
0001
,
1000
0001
0100
0010
0000
0100
0001
0000
,
0011
0000
0001
1000
0000
0010
1000
0001
,
1000
0100
1000
0001
0000
0100
0100
0000
,
1010
0000
0010
0100
0000
0001
1000
0001
,
0100
0000
0100
0000
0100
0000
0010
0000
0010
0000
0010
0000
,
1000
0000
0010
1000
0010
0000
1000
0000
,
0010
1000
0010
0000
1010
0000
0101
0000
,
0001
0000
0010
0001
0010
0000
0001
0000
,
0010
0001
0010
0000
0011
0000
1100
0000
,
1000
0000
0100
1000
0100
0000
1000
0000
,
0100
1000
0100
0000
1100
0000
0011
0000
,
0001
0000
1000
0001
1000
0000
1001
0000
,
0001
1000
0001
0000
0100
0000
0010
0000
,
2000
0000
0000
0000
,
0000
0000
0000
0000
,
3010
0000
0100
0001
1000
0100
0010
0000
,
0100
0010
0001
0000
1000
0001
0100
0000
,
0010
0000
1000
0010
0100
0001
0100
0000
,
0001
1000
0001
0000
0100
0001
0100
0000
,
0001
0000
0010
0100
1000
0100
0010
0000
,
0001
0001
1000
0000
1010
0000
0101
0000
,
0001
0000
1000
0010
0100
0001
0010
0000
,
0001
1000
0001
0000
0100
0001
0100
0000
,
0001
0000
0010
0100
1000
0010
0100
0000
,
0001
1000
0001
0000
1000
0100
1000
0000
,
0010
0000
1000
0010
1000
0010
0100
0000
,
0001
0100
0001
0000
1000
0100
1000
0000
,
0001
0000
1000
0001
1000
0001
0100
0010
,
1000
0000
1000
0000
0001
0000
0001
0000
2002
0000
3003
0000
,
0001
1000
0001
1000
,
0001
1000
0001
1000
,
0010
0100
0010
0100
,
0010
0100
0010
0100
,
0001
1000
0001
1000
,
0001
1000
0001
1000
,
0100
0010
0100
0010
,
0100
0010
0100
0010
,
0001
0000
0000
1000
0100
0010
0001
0000
0000
1000
0100
0010
,
0001
0000
0000
0000
0000
0000
1000
0000
0100
0000
1000
0000
0001
0000
0000
1000
0000
0000
0001
0000
0000
0000
0000
0000
,
1001
0000
0000
1000
0010
0100
0001
0000
0000
1000
0010
0100
,
0001
0000
0000
0000
0000
0000
1000
0000
0010
0000
1000
0000
0001
0000
0000
1000
0000
0000
0001
0000
0000
0000
0000
0000
,
1000
0010
1000
0001
0100
0010
1000
0100
,
0010
0001
1000
0010
0100
0001
0010
0100
,
0110
0110
0110
0110
,
1001
2002
0000
3003
,
1000
0000
0010
1000
0010
0000
0100
0000
,
0001
0000
1000
0000
0001
0100
1000
0000
,
0100
0000
0010
1000
0010
0000
0100
0000
,
0001
0000
0010
0100
1000
0000
0001
0000
,
1001
0000
0001
0100
1000
0000
0100
0000
,
0010
0000
1000
0000
0100
0001
0100
0000
,
0010
0000
0001
1000
0001
0000
0100
0000
,
1000
0000
0100
0001
0010
0000
0100
0000
,
0110
0000
0010
0100
1000
0000
0010
0000
,
0100
0000
0001
0000
1000
0100
0001
0000
,
0100
0000
0010
0001
0100
0000
1000
0000
,
0100
0000
0001
0010
0100
0000
0010
0000
,
0011
0000
0001
1000
0010
0000
0100
0000
,
0001
0000
0100
0000
1000
0100
0001
0000
,
0010
0000
0100
0001
0100
0000
1000
0000
,
0010
0000
0100
1000
0100
0000
0001
0000
,
1001
0000
1000
0001
0000
1000
0001
0000
,
1000
0001
0000
1000
0001
1000
0001
0000
,
0100
0000
0001
0100
0000
0001
0100
0000
,
0001
0100
0000
0001
0100
0001
0100
0000
,
0010
0010
1000
0010
0000
1000
0010
0000
,
1000
0010
0000
1000
0010
1000
0010
0000
,
0100
0100
0001
0100
0000
0001
0100
0000
,
0001
0100
0000
0001
0100
0001
0100
0000
,
0001
1000
0001
1000
0010
0100
0001
0000
,
1000
0001
1000
0001
0010
0100
1000
0000
,
0001
1000
0001
1000
0010
0100
0001
1000
,
0100
0000
0001
0100
0000
0010
0001
0000
,
1000
0001
1000
0001
0010
0001
1000
0000
,
0001
1000
0001
1000
0010
1000
0001
0000
,
0100
0001
0100
0001
1000
0010
1000
0010
,
0100
0000
0001
0100
0000
0010
1000
0000
,
0001
0010
0001
0010
0100
1000
0001
0000
,
1000
0010
1000
0010
0100
0001
1000
0000
,
0001
0100
0001
0100
0010
0100
0001
1000
,
0001
0000
0100
0001
0000
1000
0001
0000
,
1000
0010
0100
0010
1000
0010
0100
0000
,
0001
0100
0010
0100
0001
0100
0010
0000
,
1000
0010
0100
0001
1000
0100
0001
0100
,
0010
0000
0001
1001
0000
1001
0000
0000
,
0001
1000
0001
1000
,
0001
1000
0001
1000
,
0010
0100
0010
0100
,
0010
0100
0010
0100
,
0001
1000
0001
1000
,
0001
1000
0001
1000
,
0100
0010
0100
0010
,
0100
0010
0100
0010
,
0001
0000
0000
1000
0100
1000
0100
0000
0000
0010
0001
0010
,
0001
0000
0000
0000
0000
0000
1000
0000
0010
0000
1000
0000
0010
0000
0000
0100
0000
0000
0001
0000
0000
0000
0000
0000
,
1001
0000
0000
0001
1000
0001
1000
0000
0000
0010
0100
0010
,
0100
0000
0000
0001
1000
0001
1000
0000
0010
1000
0001
1000
,
0001
0100
0010
1000
0010
0100
0001
0010
,
0100
1000
0010
0100
0001
1000
0001
0100
,
0101
1100
0101
1100
,
1001
1001
0220
0330
,
0101
0000
0001
0100
1000
0100
0010
0000
,
1000
0000
0001
0000
1000
0001
0100
0000
,
0110
0000
0010
1000
0100
1000
0010
0000
,
0100
0000
0001
1000
0100
0000
0010
0000
,
0110
0000
0010
0100
1000
0100
0010
0000
,
0001
0000
1000
0000
0010
0100
0001
0000
,
1000
0000
0001
0010
0100
0010
0001
0000
,
1000
0000
0001
1000
0100
0000
0010
0000
,
0110
0000
0100
0010
0001
1000
0010
0000
,
0100
0000
1000
0000
0100
0001
0010
0000
,
1000
0000
0010
0001
0100
0001
0010
0000
,
0001
0000
1000
0010
0100
0000
0001
0000
,
0101
0000
0001
0100
1000
0100
0010
0000
,
1000
0000
0001
0000
0010
0001
0100
0000
,
0001
0000
1000
0100
0001
0100
1000
0000
,
0010
0000
0100
0001
0010
0000
0001
0000
,
1001
0000
0000
0000
;

//--------------- dance-single - ----------------
#NOTES:
     dance-single:
     :
     Challenge:
     16:
     0,0,0,0,0:
0000
0000
0000
0000
,
0000
0000
0000
0000
,
0000
0000
0000
0000
,
0000
0000
0000
0000
,
0000
0000
0000
0000
,
0000
0000
0000
0000
,
0000
0000
0000
0000
,
0000
0000
0000
0000
,
0000
0000
0000
0000
,
2000
0000
0000
0010
0000
0000
0001
0000
,
0000
0010
0000
0000
3001
0000
0000
0000
,
0002
0000
0000
0100
0000
0000
1000
0000
,
0000
0100
0000
0000
1003
0001
1000
0000
,
0020
0000
0000
1000
0000
0000
0100
0000
,
0000
1000
0000
0000
0130
0000
0001
0000
,
2000
0000
0000
0100
0000
0000
0001
0000
,
3100
0000
0010
0000
0100
0000
0010
0000
0100
0000
0010
0000
,
1002
0000
0000
0100
0103
0000
1002
0000
,
0000
0100
0103
0000
0101
0000
1100
0000
,
2001
0000
0000
0100
3100
0000
2001
0000
,
0000
0100
3100
0000
1100
0000
0011
0000
,
1002
0000
0000
0010
0013
0000
1002
0000
,
0000
0010
0013
0000
0011
0000
1010
0000
,
2001
0000
0000
0010
3010
0000
2001
0000
,
0000
0010
3010
0000
1010
0000
1001
0000
,
0202
0000
0000
0000
,
0000
0000
0000
0303
,
1100
0000
1000
1100
0000
1000
0001
0000
,
0010
0001
0010
0001
1000
0000
0010
0000
,
1010
0000
1000
1010
0000
0010
0100
0000
,
0001
1000
0001
0000
0010
0000
0001
0000
,
0011
0000
0001
0011
0000
0001
1000
0000
,
1100
0101
1100
1000
,
1010
0000
0010
1010
0000
0010
0100
0000
,
0001
1000
0100
1000
0001
0000
0010
0000
,
0011
0000
0010
0011
0000
0001
1000
0000
,
0100
1000
0001
1000
0100
1000
0001
0000
,
0101
0000
0100
0101
0000
0001
1000
0000
,
0100
0010
0100
1000
0100
0010
0100
0000
,
0110
0000
0000
0010
0001
1000
0001
1000
,
1100
0000
0101
0000
0011
0000
1010
0000
2002
0000
3003
0000
,
2002
3003
0010
0000
,
2002
3003
0010
0000
,
2002
3003
0100
0000
,
2002
3003
0100
0000
,
0022
0033
1000
0000
,
0022
0033
1000
0000
,
0001
0000
0100
0000
0001
0000
1000
0000
0001
0000
0000
0000
,
1000
0000
0100
0000
1000
0000
0001
0000
1000
0000
0000
0000
,
1010
0000
0000
0010
1000
0010
0100
0000
0000
0001
0100
0010
,
0100
0000
0000
0001
1000
0001
1000
0100
0001
0100
1000
0001
,
0000
0000
1000
0010
0100
0010
0100
0000
0001
0100
0010
0100
,
0010
0000
1000
0010
0100
0010
1000
0100
0001
0100
1000
0001
,
0000
0000
0100
0001
0100
0010
1000
0100
1000
0001
0100
0001
,
1000
0100
0010
1000
0010
0100
0010
0001
0100
0010
0100
0001
,
1000
1001
1001
1001
,
0110
0220
0000
0330
,
1010
0000
1000
0100
0001
0100
1000
0010
,
0100
1000
0100
0001
,
0011
0000
0001
1000
0010
0001
0010
1000
,
0001
0010
0100
0010
0001
0000
1000
0000
,
1010
0000
0010
0100
1000
0100
0010
0000
,
0100
0001
0010
0100
,
0110
0000
0010
0100
1000
0010
0100
1000
,
0100
0001
0010
0100
1000
0000
0001
0000
,
1001
0000
0001
1000
0100
1000
0001
0000
,
0010
0001
1000
0010
,
0110
0000
0100
0001
0010
1000
0001
0100
,
1000
0010
0100
0001
1000
0000
0001
0000
,
0101
0000
0100
1000
0100
0001
0010
0000
,
0100
0001
0100
1000
,
1010
0000
0010
0100
1000
0001
0010
0100
,
0001
0010
0100
0010
0001
0000
1000
0000
,
1001
0000
1000
1000
0000
0000
0010
0000
,
0100
0100
0000
0001
1000
0000
0000
0000
,
0001
0000
0010
0010
0000
0000
0001
0000
,
0100
0100
0000
0010
1000
0000
0000
0000
,
0001
0000
0100
0001
0100
0000
0010
0000
0000
0000
1000
0000
0010
0000
1000
0010
,
1000
0010
0000
1000
0001
0100
0001
0000
,
1000
0000
0100
1000
0100
0000
1000
0000
0000
0000
0010
0000
0100
0000
0001
0100
,
0001
0100
0001
1000
0100
0000
0000
0000
,
1000
0100
1000
0100
1000
0000
0100
0000
0001
0000
0100
0000
1000
0000
0000
0000
,
0001
0100
0001
0100
0001
0000
0100
0000
1000
0000
0100
0000
0001
0000
0000
0000
,
1000
0100
1000
0100
1000
0000
0010
0000
0100
0000
0001
0000
0100
0000
0010
0000
,
1000
0000
0001
1000
0000
1001
0000
0000
,
0001
0010
0001
0010
0001
0000
0010
0000
1000
0000
0010
0000
0001
0000
0000
0000
,
1000
0010
1000
0010
1000
0000
0010
0000
0001
0000
0010
0000
1000
0000
0000
0000
,
0001
0010
0001
0010
0001
0000
0100
0000
0010
0000
1000
0000
0010
0000
0100
0000
,
0001
0000
1000
0001
0000
1001
0000
0000
,
1000
0000
0100
0010
0100
0000
1000
0000
0010
0000
0100
0000
0001
0000
1000
0000
,
0001
0000
0010
0001
0010
0000
0001
0000
1000
0000
0010
0000
0100
0000
0001
0000
,
1000
0000
0001
0010
0001
0000
1000
0000
0010
0000
1000
0000
0001
0000
0100
0000
,
0101
0000
0001
1001
0000
0101
0000
0000
,
0001
0000
1000
0010
1000
0000
0001
0000
1000
0000
0100
0000
0010
0000
0001
0000
,
1000
0000
0001
0010
0001
0000
1000
0000
0001
0000
0010
0000
0100
0000
1000
0000
,
0010
0000
0100
0001
0100
0000
0010
0000
1000
0000
0001
0000
0100
0000
0001
0000
,
0101
0000
1000
1001
0000
1001
0000
0000
,
0202
0000
0000
0303
,
2002
0000
0000
3003
,
2020
0000
0000
3030
,
0220
0000
0000
0330
,
0202
0000
0000
0303
,
0022
0000
0000
0033
,
2200
0000
0000
3300
,
2002
0000
0000
3003
,
0011
0000
0000
0001
1000
0010
0100
0001
1000
0100
0010
0001
,
0100
1000
0100
0001
1000
0100
0001
0100
1000
0001
0000
0000
,
1001
0000
0000
0001
1000
0010
0001
0010
1000
0001
0010
1000
,
0010
0001
1000
0100
0010
0001
1000
0001
0100
0010
0000
0000
,
1010
0000
0000
0010
1000
0001
0100
0010
1000
0100
0010
0001
,
1000
0010
1000
0001
0100
0010
0100
0001
1000
0100
0010
0001
,
1000
1001
1001
1001
,
1001
2002
0000
3003
,
0101
0000
0001
0100
1000
0100
0001
0000
,
1001
0000
1000
0000
0010
0100
0010
0000
,
1010
0000
1000
0001
0000
0010
0001
0000
,
0011
0000
0001
0010
1000
0000
0010
0000
,
0011
0000
0001
0100
1000
0100
0001
0000
,
0101
0000
0001
0000
1000
0001
0100
0000
,
0110
0000
0010
1000
0000
0010
0100
0000
,
0110
0000
0010
0100
1000
0100
0001
0000
,
0011
0000
0001
0010
0000
0100
1000
0000
,
1001
0000
0001
0000
1000
0001
0100
0000
,
0110
0000
0010
1000
0000
0010
0100
0000
,
0101
0000
0001
1000
0100
0000
0001
0000
,
0101
0000
0001
0100
1000
0010
0100
0000
,
0110
0000
0010
0000
0100
0001
1000
0000
,
0101
0000
0001
0100
1000
0100
0001
0000
,
1100
0000
1000
0100
0001
0100
1000
0000
,
2002
0000
0000
3003
;
