#TITLE:Unfair Damnation [tsugaru7reveng];
#SUBTITLE:;
#ARTIST:Yooh;
#TITLETRANSLIT:;
#SUBTITLETRANSLIT:;
#ARTISTTRANSLIT:;
#GENRE:;
#CREDIT:;
#MENUCOLOR:;
#METERTYPE:DDR;
#BANNER:Unfair Damnation [tsugaru7reveng].png;
#BACKGROUND:Unfair Damnation [tsugaru7reveng]-bg.png;
#LYRICSPATH:;
#CDTITLE:./CDTITLES/NONE.PNG;
#MUSIC:Unfair Damnation [tsugaru7reveng].ogg;
#OFFSET:0.000;
#SAMPLESTART:80.471;
#SAMPLELENGTH:15.000;
#SELECTABLE:YES;
#LISTSORT:;
#BPMS:0.000=170.000;
#STOPS:;
#BGCHANGES:;
#ATTACKS:;

//---------------dance-single - ----------------
#NOTES:
     dance-single:
     :
     Beginner:
     4:
     0.158,0.227,0.000,0.000,0.000: // measure 1
0000
0000
0000
0000
,  // measure 2
0000
0000
0000
0000
,  // measure 3
0000
0000
0000
0000
,  // measure 4
0000
0000
0000
0000
,  // measure 5
0000
0000
0000
0000
,  // measure 6
0000
0000
0000
0000
,  // measure 7
0000
0000
0000
0000
,  // measure 8
0000
0000
0000
0000
,  // measure 9
0000
0000
0000
0000
,  // measure 10
0001
0000
0000
0000
,  // measure 11
0000
0000
1000
0000
,  // measure 12
0010
0000
0000
0000
,  // measure 13
0000
0000
0000
0000
,  // measure 14
1000
0000
0000
0000
,  // measure 15
0000
0000
0001
0000
,  // measure 16
0100
0000
0000
0000
,  // measure 17
0000
0000
0000
0000
,  // measure 18
0010
0000
0000
0000
,  // measure 19
0010
0000
0000
0000
,  // measure 20
0100
0000
0000
0000
,  // measure 21
0100
0000
0000
0000
,  // measure 22
0001
0000
0000
0000
,  // measure 23
0001
0000
0000
0000
,  // measure 24
1000
0000
0000
0000
,  // measure 25
1000
0000
0000
0000
,  // measure 26
0001
0000
0001
0000
,  // measure 27
0001
0000
0001
0000
,  // measure 28
0010
0000
0010
0000
,  // measure 29
0010
0000
0010
0000
,  // measure 30
0100
0000
0100
0000
,  // measure 31
0100
0000
0100
0000
,  // measure 32
1000
0000
1000
0000
,  // measure 33
1000
1000
1000
0000
,  // measure 34
0001
0000
1000
0000
,  // measure 35
0001
0000
1000
0000
,  // measure 36
0010
0000
0100
0000
,  // measure 37
0010
0000
0100
0000
,  // measure 38
0001
0000
0010
0000
,  // measure 39
0001
0000
0010
0000
,  // measure 40
0100
0000
1000
0000
,  // measure 41
0100
0000
1000
0000
,  // measure 42
0010
0000
0100
0000
,  // measure 43
0010
0000
0100
0000
,  // measure 44
0001
0000
1000
0000
,  // measure 45
0001
0000
1000
0000
,  // measure 46
0001
0000
0100
0000
,  // measure 47
0010
0000
1000
0000
,  // measure 48
0001
0000
0100
0000
,  // measure 49
0010
0000
1000
0000
,  // measure 50
0001
0000
0010
0000
,  // measure 51
0010
0000
0100
0000
,  // measure 52
1000
0000
0010
0000
,  // measure 53
0010
0000
0100
0000
,  // measure 54
0001
0001
0001
0000
,  // measure 55
1000
1000
1000
0000
,  // measure 56
0010
0010
0010
0000
,  // measure 57
0100
0000
0100
0000
,  // measure 58
0010
0000
0010
0000
,  // measure 59
1000
0000
1000
0000
,  // measure 60
0001
0000
0001
0000
,  // measure 61
0100
0000
0100
0000
,  // measure 62
0001
0000
0001
0000
,  // measure 63
1000
0000
1000
0000
,  // measure 64
0100
0000
0100
0000
,  // measure 65
0010
0010
0010
0000
,  // measure 66
0001
0000
0001
0000
,  // measure 67
0010
0000
0010
0000
,  // measure 68
0100
0000
0100
0000
,  // measure 69
1000
0000
1000
0000
,  // measure 70
0010
0000
0010
0000
,  // measure 71
0100
0000
0100
0000
,  // measure 72
0001
0000
1000
0000
,  // measure 73
0001
0001
0001
0000
,  // measure 74
1000
0000
1000
0000
,  // measure 75
0100
0100
0100
0000
,  // measure 76
0010
0000
0010
0000
,  // measure 77
0001
0001
0001
0000
,  // measure 78
0010
0000
0010
0000
,  // measure 79
0100
0100
0100
0000
,  // measure 80
1000
0000
0001
0000
,  // measure 81
1000
1000
1000
1000
;

//---------------dance-single - ----------------
#NOTES:
     dance-single:
     :
     Easy:
     8:
     0.496,0.528,0.177,0.427,0.000: // measure 1
0000
0000
0000
0000
,  // measure 2
0000
0000
0000
0000
,  // measure 3
0000
0000
0000
0000
,  // measure 4
0000
0000
0000
0000
,  // measure 5
0000
0000
0000
0000
,  // measure 6
0000
0000
0000
0000
,  // measure 7
0000
0000
0000
0000
,  // measure 8
0000
0000
0000
0000
,  // measure 9
0000
0000
0000
0000
,  // measure 10
2000
0100
0010
0001
,  // measure 11
0010
3100
0002
0013
,  // measure 12
0002
0100
0010
1000
,  // measure 13
0010
0103
0001
1000
,  // measure 14
0020
0100
0001
0100
,  // measure 15
1000
0130
0002
1003
,  // measure 16
0200
0010
0001
0310
,  // measure 17
1000
0000
0110
0000
0001
1000
0100
0000
,  // measure 18
2000
0010
0010
3010
,  // measure 19
0001
0010
0200
0310
,  // measure 20
0002
0100
0100
0103
,  // measure 21
1000
0010
0200
0310
,  // measure 22
2000
0001
0001
3001
,  // measure 23
0010
0100
0020
0031
,  // measure 24
0002
1000
1000
1003
,  // measure 25
0100
0010
0200
1300
,  // measure 26
1001
0000
0010
0000
1000
0001
1000
0000
,  // measure 27
0001
0000
0010
0000
0001
1000
0001
0000
,  // measure 28
1000
0000
0100
0000
1000
0010
1000
0000
,  // measure 29
0001
0000
0100
0000
0001
0010
0200
0000
,  // measure 30
0310
0001
1000
0000
0010
1000
0001
0000
,  // measure 31
1000
0001
0100
0000
0001
1000
0100
0000
,  // measure 32
1000
0100
1000
0100
0010
0000
0001
0000
,  // measure 33
1001
0010
0100
1001
,  // measure 34
0001
0000
0010
0001
0020
0000
0031
0000
,  // measure 35
1000
0000
0010
1000
0020
0000
1030
0000
,  // measure 36
0001
0000
0100
0001
0200
0000
0301
0000
,  // measure 37
1000
0000
0100
1000
0100
0000
0110
0000
,  // measure 38
0001
0000
1000
0001
2000
0000
3010
0000
,  // measure 39
1000
0000
0001
1000
0002
0000
0013
0000
,  // measure 40
0001
0000
1000
0001
2000
0000
3100
0000
,  // measure 41
2000
3020
0130
0110
,  // measure 42
1001
0000
0010
0100
0020
0000
0031
0000
,  // measure 43
1000
0000
0010
0100
0020
0000
1030
0000
,  // measure 44
0001
0000
0100
0001
0200
0000
0310
0000
,  // measure 45
1000
0000
0100
1000
0200
0000
0310
0000
,  // measure 46
0001
0000
1000
0001
0200
0000
0301
0000
,  // measure 47
1000
0000
0001
1000
0020
0000
1030
0000
,  // measure 48
0001
0000
0010
0100
0020
0000
0031
0000
,  // measure 49
1000
0000
0100
0010
0001
0000
1000
0000
,  // measure 50
1001
0000
0001
0100
0001
0000
0101
0000
,  // measure 51
0001
0000
1000
0100
1000
0000
1100
0000
,  // measure 52
0100
0000
0010
0100
0010
0000
0110
0000
,  // measure 53
0010
0000
0001
0010
0001
0000
0011
0000
,  // measure 54
0010
0001
1000
0000
0010
1000
0001
0000
,  // measure 55
1000
0001
0100
0000
0001
1000
0100
0000
,  // measure 56
1000
0010
1000
0010
0100
0000
0001
0000
,  // measure 57
1001
0010
0100
1001
,  // measure 58
0002
0000
1003
0010
2000
0000
3100
1000
,  // measure 59
0200
0000
1300
0010
2000
0000
3001
0000
,  // measure 60
2000
0000
3001
0010
0002
0000
0103
0001
,  // measure 61
0200
0000
0301
0010
0001
0001
0001
0000
,  // measure 62
2000
0000
3001
0010
0002
0000
0103
0001
,  // measure 63
0200
0000
0301
0010
0002
0000
1003
0000
,  // measure 64
0002
0000
1003
0100
2000
0000
3010
1000
,  // measure 65
0020
2030
3100
0110
,  // measure 66
0001
0000
0100
0010
2000
0000
3010
0000
,  // measure 67
1000
0000
0100
0010
0001
1000
0001
0000
,  // measure 68
0100
0000
0010
1000
0002
0000
1003
0000
,  // measure 69
0001
0000
0010
0100
1000
1000
1000
0000
,  // measure 70
0001
0000
0010
0100
2000
0000
3010
0000
,  // measure 71
1000
0000
0010
0100
0001
1000
0001
0000
,  // measure 72
0010
0000
0100
0010
0002
0000
1003
0000
,  // measure 73
0002
0203
0310
0110
,  // measure 74
1000
0000
0100
1000
0100
0000
1100
0000
,  // measure 75
1000
0000
0010
1000
0010
0000
1010
0000
,  // measure 76
0010
0000
0100
0010
0100
0000
0110
0000
,  // measure 77
0010
0000
0100
0001
0100
0000
0101
0000
,  // measure 78
0010
1000
0001
0000
0010
0001
1000
0000
,  // measure 79
0001
1000
0100
0000
1000
0001
0100
0000
,  // measure 80
0001
0100
0001
0100
0010
0000
1000
0000
,  // measure 81
1001
0010
0100
2002
,  // measure 82
0000
0000
0000
0000
,  // measure 83
3003
0000
0000
0000
;

//---------------dance-single - ----------------
#NOTES:
     dance-single:
     :
     Medium:
     13:
     0.597,0.660,0.121,0.258,0.322: // measure 1
0000
0000
0000
0000
,  // measure 2
0000
0000
0000
0000
,  // measure 3
0000
0000
0000
0000
,  // measure 4
0000
0000
0000
0000
,  // measure 5
0000
0000
0000
0000
,  // measure 6
0000
0000
0000
0000
,  // measure 7
0000
0000
0000
0000
,  // measure 8
0000
0000
0000
0000
,  // measure 9
0000
0000
0000
0000
,  // measure 10
0200
0001
0010
1000
,  // measure 11
0010
0301
2000
3100
,  // measure 12
0020
0001
0100
1000
,  // measure 13
0100
0031
1000
0001
,  // measure 14
2000
0010
0100
0001
,  // measure 15
0100
3010
0200
0310
,  // measure 16
0002
0010
0100
1003
,  // measure 17
0010
0000
0110
0000
0001
1000
0100
1000
,  // measure 18
0002
0100
1000
0010
,  // measure 19
1000
0103
2000
3010
,  // measure 20
2000
0100
0001
0010
,  // measure 21
0001
0000
3100
0000
0001
1000
0100
1000
,  // measure 22
0020
0100
0001
0100
,  // measure 23
1000
0130
0002
1003
,  // measure 24
0200
0001
0010
1000
,  // measure 25
0010
0000
0301
0000
1000
0001
0100
0001
,  // measure 26
1000
0000
0000
0000
0100
0000
0000
1000
0010
0000
0100
0000
0001
0000
1000
0000
,  // measure 27
0001
0000
0000
0000
0010
0000
0000
0100
1000
0000
0001
0000
1000
0000
0010
0000
,  // measure 28
0100
0000
0000
0000
0010
0000
0000
1000
0010
0000
0100
0000
0001
0000
1000
0000
,  // measure 29
0010
0000
0000
0000
0100
0000
0000
0001
0010
0000
0100
0000
2000
0000
0000
0000
,  // measure 30
3001
0000
0010
0000
0001
0000
0000
1000
0000
0010
0000
1000
0001
0000
1000
0000
,  // measure 31
0001
0000
0100
0000
0001
0000
0000
1000
0000
0100
0000
1000
0001
0000
1000
0000
,  // measure 32
0001
0010
0001
0010
0100
1000
0100
1000
,  // measure 33
0001
0100
1000
0100
0001
0000
1001
0000
,  // measure 34
0110
0000
0000
0000
0010
0000
1000
0000
0100
0000
0000
1000
0000
0000
0010
0000
,  // measure 35
1000
0000
0000
0100
0000
0000
1000
0000
0010
0000
0000
1000
0000
0000
0100
0000
,  // measure 36
0010
0000
0000
0000
0001
0000
0100
0000
0010
0000
0000
0100
0000
0000
0001
0000
,  // measure 37
0100
0000
0000
0010
0000
0000
0100
0000
0001
0000
0100
0000
0010
0000
1000
0000
,  // measure 38
0001
0000
0000
0000
0010
0000
0100
0000
1000
0000
0000
0010
0000
0000
0100
0000
,  // measure 39
0010
0000
0000
1000
0000
0000
0010
0000
0100
0000
0000
0001
0000
0000
0100
0000
,  // measure 40
0010
0000
0000
0000
0100
0000
0001
0000
1000
0000
0000
0001
0000
0000
0010
0000
,  // measure 41
0001
0100
0010
1000
0001
1000
0100
1000
,  // measure 42
0010
0000
0000
0000
0100
0000
0001
0000
0010
0000
0000
0001
0000
0000
0100
0000
,  // measure 43
0001
0000
0000
0010
0000
0000
0001
0000
0100
0000
0000
0010
0000
0000
1000
0000
,  // measure 44
0100
0000
0000
0000
0010
0000
0100
0000
1000
0000
0000
0010
0000
0000
1000
0000
,  // measure 45
0100
0000
0000
1000
0000
0000
0010
0000
0100
0000
0001
0000
1000
0000
0001
0000
,  // measure 46
0010
0000
0000
0000
0001
0000
1000
0000
0010
0000
0000
1000
0000
0000
0001
0000
,  // measure 47
0010
0000
0000
0001
0000
0000
1000
0000
0010
0000
0000
1000
0000
0000
0001
0000
,  // measure 48
0100
0000
0000
0000
0010
0000
1000
0000
0100
0000
0000
0010
0000
0000
0100
0000
,  // measure 49
1000
0010
0100
0001
1000
0001
0100
0001
,  // measure 50
1000
0000
0000
0000
0100
0000
0010
0000
0001
0010
0000
0000
0011
0000
0000
0000
,  // measure 51
0001
0000
0000
0000
0100
0000
0010
0000
1000
0010
0000
0000
1010
0000
0000
0000
,  // measure 52
1000
0000
0000
0000
0001
0000
1000
0000
0100
1000
0000
0000
1100
0000
0000
0000
,  // measure 53
0010
0000
0000
0000
0100
0000
0001
0000
0010
0100
0000
0000
0010
0000
0010
0000
,  // measure 54
0001
0000
0100
0000
0001
0000
0000
1000
0000
0100
0000
1000
0001
0000
1000
0000
,  // measure 55
0001
0000
0010
0000
0001
0000
0000
1000
0000
0010
0000
1000
0001
0000
1000
0000
,  // measure 56
0001
0010
0001
0010
0100
1000
0100
1000
,  // measure 57
0001
0010
1000
0010
0001
0000
1001
0000
,  // measure 58
0001
0000
0010
0000
0100
0000
0010
0000
0002
0000
0000
0013
0100
0000
0010
0000
,  // measure 59
0002
0000
0000
0013
0100
0000
0010
0000
0002
0000
0000
0013
0000
0000
0100
0000
,  // measure 60
2000
0000
0000
3010
0100
0000
0010
0000
2000
0000
0000
3010
0100
0000
0010
0000
,  // measure 61
2000
0000
0000
3010
0100
0000
0010
0000
1000
0000
0001
0000
0100
0000
0010
0000
,  // measure 62
0110
0000
0000
0000
1000
0000
0001
0000
0200
0000
0000
0310
1000
0000
0010
0000
,  // measure 63
0200
0000
0000
0310
1000
0000
0010
0000
0200
0000
0000
0301
0000
0000
1000
0000
,  // measure 64
0020
0000
0000
0130
0001
0000
0100
0000
0020
0000
0000
0130
0001
0000
0100
0000
,  // measure 65
0020
0000
0000
1030
0001
0000
0100
0000
0001
0000
0010
0000
0100
0000
1000
0000
,  // measure 66
1001
0000
0000
0000
1000
0000
0100
0000
1000
0010
0000
1000
0010
0000
1000
0000
,  // measure 67
0001
0010
0000
0001
0010
0000
0001
0000
2000
0000
0000
3100
0000
0000
0010
0000
,  // measure 68
0002
0000
0000
0000
0103
0000
0010
0000
1000
0100
0000
1000
0100
0000
0010
0000
,  // measure 69
0001
0100
0000
0001
0100
0000
0010
0000
1000
0000
1000
0000
0010
0000
0100
0000
,  // measure 70
0120
0000
0000
0000
0130
0000
0010
0000
0100
0001
0000
0100
0001
0000
0100
0000
,  // measure 71
0010
1000
0000
0010
1000
0000
0010
0000
0200
0000
0000
0301
0000
0000
1000
0000
,  // measure 72
0200
0000
0000
0000
0310
0000
0100
0000
0010
0001
0000
0010
0001
0000
1000
0000
,  // measure 73
0100
1000
0000
0100
1000
0000
0001
0000
0001
0000
1000
0000
0010
0000
0100
0000
,  // measure 74
0110
0000
0000
0000
0010
0000
1000
0000
0100
1000
0000
0000
1100
0000
1000
0000
,  // measure 75
0100
0000
0000
0000
0010
0000
0001
0000
1000
0010
0000
0000
1010
0000
0010
0000
,  // measure 76
0100
0000
0000
0000
0001
0000
0100
0000
0010
1000
0000
0000
1001
0000
1000
0000
,  // measure 77
0001
0000
0010
0100
0010
0001
0001
1000
,  // measure 78
0001
0000
0010
0000
0001
0100
0000
0001
0000
1000
0000
0100
1000
0000
0100
0000
,  // measure 79
1000
0000
0010
0000
1000
0100
0000
1000
0000
0001
0000
0100
0001
0000
1000
0000
,  // measure 80
0001
0010
0001
0010
0100
1000
0100
1000
,  // measure 81
0001
0000
0010
0000
1000
0000
0010
0001
1000
0000
0000
0000
2002
0000
0000
0000
,  // measure 82
0000
0000
0000
0000
,  // measure 83
3003
0000
0000
0000
;

//---------------dance-single - ----------------
#NOTES:
     dance-single:
     :
     Hard:
     16:
     0.791,0.957,0.185,0.362,0.749: // measure 1
0000
0000
0000
0000
,  // measure 2
0000
0000
0000
0000
,  // measure 3
0000
0000
0000
0000
,  // measure 4
0000
0000
0000
0000
,  // measure 5
0000
0000
0000
0000
,  // measure 6
0000
0000
0000
0000
,  // measure 7
0000
0000
0000
0000
,  // measure 8
0000
0000
0000
0000
,  // measure 9
0000
0000
0000
0000
,  // measure 10
0020
1000
0100
1000
,  // measure 11
0001
0130
0002
0013
,  // measure 12
2000
0100
0001
0010
,  // measure 13
0001
0000
3100
0000
0001
1000
0100
1000
,  // measure 14
0002
0010
1000
0100
,  // measure 15
0010
0100
2003
3010
,  // measure 16
0200
0001
0010
0301
,  // measure 17
1000
0000
0100
0000
0010
0000
0001
0000
1000
0010
0000
0010
0100
0010
1000
0001
,  // measure 18
2000
0100
0010
0100
,  // measure 19
0001
3010
0200
0310
,  // measure 20
0002
0100
0010
1000
,  // measure 21
0100
0000
0000
0000
0013
0000
0000
1000
0100
0000
0010
0000
0001
0000
1000
0000
,  // measure 22
0020
0100
0001
0100
,  // measure 23
1000
0031
2000
3001
,  // measure 24
0200
0010
1000
0001
,  // measure 25
0010
0000
0000
0000
1300
0000
0000
0001
0100
0000
0010
0000
1000
0000
0001
0000
,  // measure 26
1000
0000
0000
0000
1100
0000
0000
0100
0010
0000
0100
0000
1000
0000
0010
0000
,  // measure 27
0100
0000
0000
0000
0101
0000
0000
0100
0001
0000
0100
0000
0010
0000
1000
0000
,  // measure 28
0001
0000
0000
0000
1001
0000
0000
0001
0010
0000
0100
0000
0010
0000
0001
0000
,  // measure 29
0100
0000
0000
0000
0110
0000
0000
0010
1000
0000
0001
0000
2000
0000
0000
0000
,  // measure 30
3001
0000
0010
0000
0100
1000
0000
1000
0000
1000
0000
1000
0010
0100
0010
1000
,  // measure 31
0001
0000
0010
0000
0100
0010
0000
0010
0000
0010
0000
0010
0001
1000
0001
0000
,  // measure 32
1000
0100
1000
0100
1000
0100
1000
0100
0010
0001
0010
0001
0010
0001
0010
0001
,  // measure 33
1000
0000
0010
0000
0001
0000
0010
0000
1000
0100
0010
0001
2000
0000
0000
0000
,  // measure 34
3001
0000
0000
0010
0001
0000
0010
0000
0200
0000
0000
0310
0001
0000
0010
0000
,  // measure 35
0200
0000
0000
0310
0001
0000
0010
0000
0100
0000
0010
0001
0000
0001
1000
0000
,  // measure 36
0002
0000
0000
0103
0010
0000
1000
0000
0020
0000
0000
0130
0010
0000
1000
0000
,  // measure 37
0020
0000
0000
0130
0010
0000
1000
0000
0010
0000
0100
0010
0100
0000
0001
1000
,  // measure 38
0002
0000
0000
1003
0001
0000
0100
0000
0002
0000
0000
1003
0001
0000
0100
0000
,  // measure 39
0002
0000
0000
1003
0001
0000
0100
0000
0001
0000
1000
0001
0000
0001
0010
0000
,  // measure 40
0002
0000
0000
0103
0010
0000
1000
0000
0200
0000
0000
1300
0010
0000
1000
0000
,  // measure 41
0001
0000
0010
0100
1000
0000
0010
0100
0001
0000
1000
0001
0100
0000
0001
0000
,  // measure 42
1002
0000
0000
0000
1003
0000
0100
0000
0010
0100
0000
0100
1000
0000
0100
0000
,  // measure 43
0010
0100
0000
0100
1000
0000
0100
0000
0020
0000
0000
0031
0100
0000
0010
0000
,  // measure 44
2000
0000
0000
0000
3001
0000
0010
0000
0100
0010
0000
0010
0001
0000
0010
0000
,  // measure 45
0100
0010
0000
0010
0001
0000
0010
0000
0100
0000
1000
0001
0100
0000
0001
1000
,  // measure 46
0020
0000
0000
0130
0010
0000
1000
0000
0001
0010
0000
0010
0100
0000
0010
0000
,  // measure 47
0001
0010
0000
0010
0100
0000
0010
0000
0002
0000
0000
0013
0100
0000
1000
0000
,  // measure 48
0020
0000
0000
0130
0001
0000
0100
0000
0010
1000
0000
1000
0001
0000
1000
0000
,  // measure 49
0010
0000
0010
0000
0100
0001
1000
0001
0100
0000
0001
0000
1000
0000
0100
0000
,  // measure 50
0210
0000
0000
0000
0310
0000
0001
0000
1000
0010
0000
0010
0100
0000
0001
0000
,  // measure 51
1000
0010
0000
0010
0100
0000
0001
0000
1000
0000
0100
0001
0000
0100
1000
0000
,  // measure 52
0002
0000
0000
0000
0013
0000
0001
0000
1000
0100
0000
0100
0010
0000
0001
0000
,  // measure 53
1000
0100
0000
0100
0010
0000
0001
0000
1000
0000
0010
0100
0001
0000
1000
0000
,  // measure 54
0001
0000
0100
0000
0001
0010
0000
0010
0100
0010
0000
0010
0001
1000
0001
0000
,  // measure 55
1000
0000
0010
0000
0100
0010
0000
0010
1000
0010
0000
0010
1000
0001
1000
0000
,  // measure 56
0001
0010
0001
0010
0001
0010
0001
0010
0100
1000
0100
1000
0100
1000
0100
1000
,  // measure 57
0001
0000
0010
0000
1000
0000
0010
0001
0100
0000
0010
1000
0002
0000
0000
0000
,  // measure 58
1003
0000
0100
0010
0001
0000
0100
0000
0120
0000
0000
1030
0010
0000
0100
0000
,  // measure 59
0120
0000
0000
1030
0010
0000
0100
0000
0120
0000
1030
0010
0000
0010
0100
0000
,  // measure 60
0001
0000
0010
0100
1000
0000
0100
0000
0120
0000
0000
0031
0010
0000
0100
0000
,  // measure 61
0120
0000
0000
0031
0010
0000
0100
0000
0110
0000
0010
0100
0010
0000
0001
1000
,  // measure 62
0001
0000
0100
0010
1000
0000
0010
0000
2010
0000
0000
3001
0100
0000
0001
0000
,  // measure 63
0012
0000
0000
1003
0100
0000
1000
0000
1020
0000
1030
0100
0000
0100
0010
0000
,  // measure 64
0001
0000
1000
0001
0010
0000
0001
0000
0102
0000
0000
1003
0100
0000
1000
0000
,  // measure 65
2100
0000
0000
3001
0100
0000
0001
0000
1000
0000
0100
0010
0001
0000
1000
0001
,  // measure 66
0100
0000
0010
1000
0001
0000
1000
0000
0001
0010
0000
0010
0100
0000
1000
0000
,  // measure 67
0001
0010
0000
0010
0100
0000
1000
0000
0001
0000
0100
1000
0000
0100
0001
0000
,  // measure 68
1000
0000
0010
0100
0001
0000
1000
0000
0100
0010
0000
0010
0001
0000
1000
0000
,  // measure 69
0100
0010
0000
0010
0001
0000
1000
0000
0001
0000
0010
0100
1000
0000
0010
0100
,  // measure 70
0001
0000
1000
0001
0010
0000
0001
0000
1000
0100
0000
0100
0010
0000
0001
0000
,  // measure 71
1000
0010
0000
0010
0100
0000
0001
0000
1000
0100
0000
0100
0010
0000
0001
0000
,  // measure 72
1000
0000
0010
1000
0100
0000
0010
0000
0001
0100
0000
0100
0010
0000
1000
0000
,  // measure 73
0001
0010
0000
0010
0100
0000
1000
0001
1000
0000
0001
0100
0010
0000
1000
0000
,  // measure 74
1010
0000
0000
0000
1100
0000
0100
0000
0010
0001
0000
0001
0010
0000
0001
0000
,  // measure 75
0100
0010
0000
0010
1000
0000
0001
0000
1000
0100
0000
0100
0010
0000
0001
0000
,  // measure 76
1001
0000
0000
0000
0101
0000
0001
0000
0100
0010
0000
0010
1000
0000
0010
0000
,  // measure 77
0100
0001
0000
0001
1000
0000
0001
0000
0010
0100
0000
0100
1000
0001
1000
0000
,  // measure 78
1001
0000
0001
0000
1000
0100
0000
0100
0010
0100
0000
0100
1000
0001
0100
0001
,  // measure 79
1000
0000
0010
0000
0100
0010
0000
0010
1000
0010
0000
0010
0100
0001
1000
0001
,  // measure 80
1000
0010
1000
0010
1000
0010
1000
0010
0100
0001
0100
0001
0100
0001
0100
0001
,  // measure 81
1000
0000
0100
0000
0001
0000
0100
1000
0001
0000
0100
0000
0220
0000
0000
0000
,  // measure 82
0000
0000
0000
0000
,  // measure 83
0330
0000
0000
0000
;
