#TITLE:Undercover;
#SUBTITLE:;
#ARTIST:Hommarju;
#TITLETRANSLIT:;
#SUBTITLETRANSLIT:;
#ARTISTTRANSLIT:;
#GENRE:;
#CREDIT:;
#BANNER:Undercover.png;
#BACKGROUND:Undercover-bg.png;
#LYRICSPATH:;
#CDTITLE:cdtitle.png;
#MUSIC:Undercover.ogg;
#OFFSET:-0.066000;
#SAMPLESTART:16.670000;
#SAMPLELENGTH:17.000000;
#SELECTABLE:YES;
#DISPLAYBPM:130.000000;
#BPMS:0.000000=130.000000
,32.000000=260.000000
,37.500000=130.000000
,166.000000=65.000000
,167.500000=130.000000
;
#STOPS:37.500000=0.346000
;
#BGCHANGES:66.000=undercover1.avi=1.000=0=0=1=====,
69.000=undercover2.png=4.000=0=0=1=File1FlashOverlay====,
69.125=undercover2.png=1.000=0=0=1=====,
114.000=undercover2.avi=1.000=0=0=1=====,
117.000=undercover3.png=4.000=0=0=1=File1FlashOverlay====,
117.250=undercover3.png=1.000=0=0=1=====,
130.000=undercover3.avi=1.000=0=0=1=====,
133.000=undercover4.png=4.000=0=0=1=File1FlashOverlay====,
133.250=undercover4.png=1.000=0=0=1=====,
162.000=undercover4.avi=1.000=0=0=1=====,
165.000=undercover5.png=4.000=0=0=1=File1FlashOverlay====,
165.250=undercover5.png=1.000=0=0=1=====,
192.500=undercover5.avi=1.000=0=0=1=====,
195.500=undercover6.png=4.000=0=0=1=File1FlashOverlay====,
195.750=undercover6.png=1.000=0=0=1=====,
208.500=undercover6.avi=1.000=0=0=1=====,
211.500=undercover7.png=4.000=0=0=1=File1FlashOverlay====,
211.750=undercover7.png=1.000=0=0=1=====,
224.500=undercover7.avi=1.000=0=0=1=====,
227.500=undercover8.png=4.000=0=0=1=File1FlashOverlay====,
227.750=undercover8.png=1.000=0=0=1=====,
256.500=undercover8.avi=1.000=0=0=1=====,
259.500=undercover9.png=4.000=0=0=1=File1FlashOverlay====,
259.750=undercover9.png=1.000=0=0=1=====,
99999=-nosongbg-=1.000=0=0=0 // don't automatically add -songbackground-
;
#KEYSOUNDS:;
#ATTACKS:;

//---------------dance-single - ----------------
#NOTES:
     dance-single:
     :
     Hard:
     13:
     0.482188,0.713005,0.291394,0.275206,0.793240,417.000000,381.000000,36.000000,34.000000,0.000000,0.000000,0.482188,0.713005,0.291394,0.275206,0.793240,417.000000,381.000000,36.000000,34.000000,0.000000,0.000000:
0000
0000
0000
0000
,
0000
0000
0000
0000
,
0000
0000
0000
0000
,
0000
0000
0000
0000
,
1000
0100
0001
0100
,
1000
0000
0000
0010
0000
0100
0001
0000
1000
0000
0000
0000
,
0001
0010
1000
0010
,
0001
0000
0000
0100
0000
0020
0000
0000
0000
0000
0000
0000
,
0000
0000
0000
0000
,
0000
0000
0230
0302
,
0023
0000
0000
0032
0000
0000
0103
0000
0000
1000
0000
0100
,
0001
0000
0010
0000
0000
0000
0200
0000
0000
2300
0000
0000
,
3020
0000
0000
2030
0000
0000
3100
0000
0000
0001
0000
0100
,
1000
0000
0010
0000
0000
0000
0200
0000
0000
0302
0000
0000
,
0203
0000
0000
0320
0000
0000
1030
0000
0000
0100
0000
0001
,
0100
0000
1000
0000
0000
0000
0001
0000
0000
0011
0000
0000
,
0002
0000
0000
1003
0000
0000
0011
0000
0000
0010
0001
0000
,
0000
0000
0000
0000
0000
0000
1001
0000
0000
0000
0000
1000
,
0001
0000
0010
0000
0000
1000
0000
0000
0010
0000
0000
0001
,
1000
0000
0010
0100
0000
0000
0101
0000
0000
0000
0000
1000
,
0010
0000
0100
0000
0000
0001
0000
0000
0010
0000
0000
1000
,
0010
0000
0001
0100
0000
0000
1010
0000
0000
0000
0000
1000
,
0100
0000
0001
0000
0000
0100
0000
0000
1000
0010
0000
0100
,
0001
0000
0010
0100
0000
0000
1100
0000
0000
0000
0000
0010
,
0001
0000
0100
0000
0000
0010
0000
0000
1000
0000
0000
0100
,
0001
0000
0100
1000
0000
0000
0010
0000
0000
1001
0000
0101
,
0000
0000
1010
0000
0000
2100
0000
0000
0000
0001
0000
3010
,
0000
0000
0000
0001
0000
0000
0010
0000
0000
0110
0000
1100
,
0000
0000
0011
0000
0000
0101
0000
0000
1000
0001
0000
1000
,
0001
0000
0000
0010
0000
0000
0001
0000
0000
0110
0000
0011
,
0000
0000
1001
0000
0000
2010
0000
0000
0000
0001
0000
3100
,
0000
0000
0000
0001
0000
0000
1000
0000
0100
0000
0000
0001
,
0100
0000
0000
1000
0000
0000
0001
0000
0010
0000
0000
1000
,
0010
0000
0000
0000
0000
0000
0001
0000
0000
0000
0000
0000
1000
0000
0010
0000
0100
0000
0001
0000
0010
0000
0100
1000
,
0001
0000
0100
0000
0010
0000
1000
0000
0100
0000
0010
0001
1000
0000
0010
0000
0001
0000
0010
0000
1000
0000
0001
0000
,
0010
0000
0001
0000
0100
0000
0001
0000
0100
0000
1000
0000
0100
0000
0001
0000
0010
0000
0100
0000
1000
0000
0010
1000
,
0100
0000
0010
0000
0001
0000
0100
0000
0010
0000
1000
0001
0010
0000
0100
0000
1000
0000
0010
0000
0100
0000
0001
0000
,
1000
0000
0010
0000
0001
0000
0010
0000
1000
0000
0001
0000
0010
0000
1000
0000
0010
0000
1000
0000
0010
0000
1000
0010
,
0001
0000
0100
0000
0001
0000
0100
0000
0001
0000
0100
1000
0100
0000
0010
0000
0100
0000
0010
0000
0100
0000
0010
0000
,
0100
0001
0100
0010
1000
0010
2000
0000
0000
3100
0001
0100
,
2000
0000
0000
3100
0001
0100
1000
0000
0010
0100
0000
0001
,
1000
0000
1000
0000
0002
0023
0230
2300
,
3000
0000
0000
0010
0000
0000
0000
0000
0000
1000
0000
0000
0000
0001
0000
0100
0000
0000
0000
1000
0000
0000
0000
0000
,
0000
0200
0000
0302
0000
0023
0000
0230
,
0000
0000
0000
1300
0000
0000
0000
0000
0000
0010
0000
0000
0000
0100
0000
0001
0000
0000
0000
0010
0000
0000
0000
0000
,
0000
1001
0000
0100
0000
0110
0000
0001
,
0000
0000
0000
1000
0000
0000
0000
0000
0000
0001
0000
0000
0000
0100
0000
0010
0000
0000
0000
1000
0000
0000
0000
0000
,
0000
2001
0000
3010
0000
0102
0000
0013
,
0000
0000
0000
1000
0000
0000
0000
0000
0000
0001
0000
0000
0000
0100
0000
0000
0000
0000
0000
0000
0000
0010
0000
0000
,
0000
0000
0000
0100
0000
0000
0000
0000
0000
1010
0000
0000
0000
0101
0000
0000
0000
0000
0000
0011
0000
0000
0000
0000
,
0000
2001
0000
0000
0000
0000
0000
0000
0000
0000
0000
0000
0000
3100
0000
0000
0000
0000
0000
0000
0000
0001
0000
0000
,
0000
0000
0000
1000
0000
0000
0000
0000
0000
0011
0000
0000
0000
0011
0000
0000
0000
0000
0000
1100
0000
0000
0000
0000
,
0000
1010
0000
0000
0000
0000
0000
0100
0000
0001
0000
0000
0000
0010
0000
0100
0000
0000
0000
0000
0000
1001
0000
0000
,
0000
0000
0000
0000
0000
0000
0000
0000
0000
1010
0000
0000
0000
0011
0000
0000
0000
0000
0000
1100
0000
0000
0000
0000
,
0000
0102
0000
0000
0000
0000
0000
0000
0000
0000
0000
0000
0000
1003
0000
0000
0000
0000
0000
0000
0000
1000
0000
0000
,
0000
0000
0000
0001
0000
0000
0000
0010
0000
0000
0000
0000
0000
0100
0000
1000
0000
0000
0000
0000
0000
0001
0000
0000
,
0000
0000
0000
1000
0000
0000
0000
0010
0000
0000
0000
0000
0000
0100
0000
0001
0000
0000
0000
0000
0000
1000
0000
0000
,
0000
0000
0000
1000
0000
0100
0000
0001
0000
1000
0000
0010
0000
0001
0100
1000
0000
0100
0000
0001
0000
1000
0000
0010
,
0000
0001
0010
1000
0000
0100
0000
0001
0000
0100
0000
1000
0000
0001
0000
1000
0000
0100
0000
0001
0000
1000
0000
0010
,
0000
0001
0000
0010
0000
0100
0000
1000
0000
0010
0000
0100
0000
0001
1000
0010
0000
1000
0000
0100
0000
0010
0000
0001
,
0000
0100
0001
0010
0000
0100
0000
1000
0000
0010
0000
1000
0000
0100
0000
0010
0000
0100
0000
1000
0000
0010
0000
0100
,
0000
0001
0000
0010
0000
0001
0000
0100
0000
0001
0000
0100
0000
0001
1000
0010
0000
0100
0000
0001
0000
0010
0000
1000
,
0000
0010
0001
1000
0000
0001
0000
1000
0000
0010
0000
0001
0000
0010
0000
1000
0000
0100
0000
0001
0000
1000
0000
0010
,
0000
0001
0000
0020
0000
0000
0000
0000
0000
0031
0000
1000
0000
0100
0000
0020
0000
0000
0000
0000
0000
0031
0000
1000
,
0000
0100
0000
0010
0000
0000
0000
0001
0000
0100
0000
0000
0000
1000
0000
0100
0000
0000
0000
0000
0000
0010
0000
0000
,
0000
0010
0000
2002
0000
0000
3003
0000
0000
0000
0000
0000
0000
0000
0000
0000
0000
0000
0000
0000
0000
0000
0000
0000
;

//---------------dance-single - ----------------
#NOTES:
     dance-single:
     :
     Medium:
     7:
     0.314521,0.475337,0.348054,0.906560,0.044519,272.000000,229.000000,43.000000,112.000000,0.000000,0.000000,0.314521,0.475337,0.348054,0.906560,0.044519,272.000000,229.000000,43.000000,112.000000,0.000000,0.000000:
0000
0000
0000
0000
,
0000
0000
0000
0000
,
0000
0000
0000
0000
,
0000
0000
0000
0000
,
0002
0023
0230
2300
,
3010
0000
0000
1000
0000
1000
0001
0000
0000
0000
0000
0000
,
2000
3200
0320
0032
,
1003
2002
0000
0000
,
0000
0000
0000
0000
,
0000
0000
0000
3003
0020
0000
2030
0000
,
3002
0000
0000
2003
0000
0000
3010
0000
0000
0100
0000
0100
,
0001
0000
0020
0230
,
2300
0000
0000
3200
0000
0000
0310
0000
0000
0001
0000
0001
,
0100
0000
0020
2030
,
3020
0000
0000
0032
0000
0000
0013
0000
0000
1000
0000
1000
,
0100
0000
2000
3002
,
0023
0230
1300
2002
,
0000
3003
1100
0000
,
1000
0010
0100
0001
,
0100
0000
0100
0010
0000
0000
1010
0000
0000
0000
0000
0000
,
0001
0010
0100
1000
,
0001
0000
0001
1000
0000
0000
0101
0000
0000
0000
0000
0000
,
0010
1000
0010
0100
,
0001
0000
0001
0010
0000
0000
0110
0000
0000
0000
0000
0000
,
1000
0010
0001
0100
,
1000
0000
1000
0100
0000
0000
0020
0000
0000
0001
0000
0000
,
0001
0031
2000
0001
,
0001
3001
0002
0100
,
0100
0103
0020
1000
,
1000
1030
0002
0010
,
0010
0013
0200
1000
,
1000
1300
0020
0000
,
0000
0000
0100
0100
,
0100
0130
0020
2030
,
3200
0302
0023
0032
,
0203
2300
3020
2030
,
3200
0302
0023
0032
,
0203
2300
3200
0302
,
0203
0302
0023
0230
,
0302
2003
3200
0320
,
0032
0203
2300
3020
,
0230
0000
0300
0000
2000
3002
0023
0230
,
0300
0000
0000
1000
0000
0000
0000
0000
0000
0001
0000
0000
0000
0001
0000
0100
0000
0000
0000
0000
0000
0000
0000
0000
,
0000
0020
0000
2030
0000
3002
0000
0023
,
0000
0000
0000
0130
0000
0000
0000
0000
0000
1000
0000
0000
0000
1000
0000
0001
0000
0000
0000
0000
0000
0000
0000
0000
,
0000
2000
0000
3020
0000
0230
0000
0302
,
0000
0103
0000
0110
0000
0110
0000
0000
,
0000
0002
0000
0023
0000
2030
0000
3020
,
0000
0031
0000
0011
0000
0011
0000
0000
,
0000
1001
0000
1001
0000
1001
0000
1001
,
0000
1001
0000
1001
0000
1001
0000
1001
,
0000
0101
0000
0101
0000
0101
0000
0101
,
0000
0101
0000
0101
0000
0101
0000
0101
,
0000
0110
0000
0110
0000
0110
0000
0110
,
0000
0110
0000
0110
0000
0110
0000
0110
,
0000
2002
0000
0000
0000
0000
3003
0000
,
0000
1001
0000
0110
0000
1001
0000
0110
,
0000
2000
0000
3200
0000
0302
0000
0023
,
0000
0230
0000
0302
0000
2003
0000
3200
,
0000
0320
0000
0032
0000
0203
0000
2300
,
0000
3020
0000
0230
0000
2300
0000
3020
,
0000
0032
0000
0203
0000
2300
0000
3002
,
0000
0203
0000
0320
0000
2030
0000
3200
,
0000
0320
0000
0031
0000
0020
0000
0031
,
0000
1001
0000
0110
0000
1001
0000
0001
,
0000
0001
0000
2200
0000
0000
3300
0000
0000
0000
0000
0000
0000
0000
0000
0000
0000
0000
0000
0000
0000
0000
0000
0000
;

//---------------dance-single - ----------------
#NOTES:
     dance-single:
     :
     Easy:
     5:
     0.268268,0.316891,0.242828,0.169980,0.000000,232.000000,202.000000,30.000000,21.000000,0.000000,0.000000,0.268268,0.316891,0.242828,0.169980,0.000000,232.000000,202.000000,30.000000,21.000000,0.000000,0.000000:
0000
0000
0000
0000
,
0000
0000
0000
0000
,
0000
0000
0000
0000
,
0000
0000
0000
0000
,
0000
1000
0000
1000
,
0000
0001
0000
0001
,
0000
1000
0000
1000
,
0000
0001
0000
0002
,
0000
0000
0000
0000
,
0000
0000
0000
0003
1000
0000
0010
0000
,
1000
0010
0100
0001
,
0010
0000
0001
0010
,
0001
0010
0100
1000
,
0010
0000
1000
0010
,
0100
0001
1000
0100
,
0010
0000
0001
0100
,
0001
0100
0010
0010
,
0010
0000
2001
0100
,
3001
0000
1001
1001
,
1001
0000
1002
0100
,
1003
0000
1001
1001
,
1001
0000
0210
0001
,
0310
0000
0110
0110
,
0110
0000
2010
0001
,
3010
0000
0101
0101
,
0101
0000
0010
1000
,
0100
1000
0010
0100
,
0001
0100
0010
1000
,
0100
1000
0010
0100
,
0001
0100
0010
1000
,
0100
1000
0010
0100
,
0001
0100
0020
0000
,
0000
0000
1000
1000
,
1000
0030
1000
0100
,
1000
1000
0001
0100
,
0001
0001
1000
0010
,
1000
1000
0001
0010
,
0001
0001
1000
0100
,
0001
0001
0100
1000
,
0010
0010
0200
0302
,
0203
0302
0013
0100
,
1001
0000
0000
0000
0002
0000
0000
0003
,
0000
1000
0000
0100
0000
0010
0000
0000
,
0000
0001
0000
0100
0000
0010
0000
1000
,
0000
0001
0000
0010
0000
0100
0000
0000
,
0000
1000
0000
0100
0000
0001
0000
0100
,
0000
1000
0000
0010
0000
0100
0000
0000
,
0000
0001
0000
0010
0000
0001
0000
0001
,
0000
1001
0000
1001
0000
1001
0000
0000
,
0000
2010
0000
0100
0000
3010
0000
0000
,
0000
0012
0000
0100
0000
0013
0000
0000
,
0000
2001
0000
0100
0000
3001
0000
0000
,
0000
0012
0000
0100
0000
0013
0000
0000
,
0000
2010
0000
0100
0000
0010
3000
0000
,
0000
0210
0000
0001
0000
0310
0000
0000
,
0000
1000
0000
1000
0000
0001
0000
0001
,
0000
1001
0000
1001
0000
1001
0000
0000
,
0000
1000
0000
0100
0000
0001
0000
0010
,
0000
1000
0000
0010
0000
0001
0000
0100
,
0000
1000
0000
0100
0000
0001
0000
0010
,
0000
1000
0000
0010
0000
0001
0000
0100
,
0000
1000
0000
0010
0000
0100
0000
0001
,
0000
0010
0000
0001
0000
1000
0000
0100
,
0000
2000
0000
3010
0000
2000
0000
3010
,
0000
0100
0000
0001
0000
0010
0000
0100
,
0000
2002
3003
0000
0000
0000
0000
0000
;

//---------------dance-single - ----------------
#NOTES:
     dance-single:
     :
     Beginner:
     2:
     0.124883,0.210047,0.040471,0.000000,0.000000,108.000000,103.000000,5.000000,0.000000,0.000000,0.000000,0.124883,0.210047,0.040471,0.000000,0.000000,108.000000,103.000000,5.000000,0.000000,0.000000,0.000000:
// measure 0
0000
0000
0000
0000
,  // measure 1
0000
0000
0000
0000
,  // measure 2
0000
0000
0000
0000
,  // measure 3
0000
0000
0000
0000
,  // measure 4
0000
1000
0000
1000
,  // measure 5
0000
1000
0000
1000
,  // measure 6
0000
1000
0000
1000
,  // measure 7
0000
1000
0000
0000
,  // measure 8
1001
0000
0000
0000
,  // measure 9
0000
0000
0000
1000
,  // measure 10
0000
1000
0000
1000
,  // measure 11
0000
0000
0000
0001
,  // measure 12
0000
0001
0000
0001
,  // measure 13
0000
0000
0000
0010
,  // measure 14
0000
0010
0000
0010
,  // measure 15
0000
0000
0000
0100
,  // measure 16
0000
0100
0000
0000
,  // measure 17
0000
0000
0000
1000
,  // measure 18
0000
0001
0000
1000
,  // measure 19
1000
1000
0000
0001
,  // measure 20
0000
1000
0000
0001
,  // measure 21
0001
0001
0000
0010
,  // measure 22
0000
0100
0000
0010
,  // measure 23
0010
0010
0000
0100
,  // measure 24
0000
0010
0000
0010
,  // measure 25
0000
0000
1000
0000
,  // measure 26
1000
0000
1000
0000
,  // measure 27
0000
0000
0001
0000
,  // measure 28
0001
0000
0001
0000
,  // measure 29
0000
0000
0010
0000
,  // measure 30
0100
0000
0010
0000
,  // measure 31
0000
0000
1000
0000
,  // measure 32
0000
0000
1001
1001
,  // measure 33
1001
0000
0001
0000
,  // measure 34
0000
0000
1000
0000
,  // measure 35
0000
0000
0010
0000
,  // measure 36
0000
0000
0100
0000
,  // measure 37
0000
0000
0010
0000
,  // measure 38
0100
0000
0010
0000
,  // measure 39
1000
0000
0001
0000
,  // measure 40
0000
0000
1000
1000
,  // measure 41
1000
0000
0000
0000
,  // measure 42
0000
0010
0000
0000
0000
0010
0000
0000
,  // measure 43
0000
0100
0000
0000
0000
0100
0000
0000
,  // measure 44
0000
0010
0000
0000
0000
0000
0000
0000
,  // measure 45
0000
1000
0000
0000
0000
0100
0000
0000
,  // measure 46
0000
1000
0000
0000
0000
0000
0000
0000
,  // measure 47
0000
0001
0000
0000
0000
0010
0000
0000
,  // measure 48
0000
0001
0000
0001
0000
0001
0000
0000
,  // measure 49
0000
0000
0000
1000
0000
0000
0000
1000
,  // measure 50
0000
0000
0000
1000
0000
0000
0000
1000
,  // measure 51
0000
0000
0000
0001
0000
0000
0000
0001
,  // measure 52
0000
0000
0000
0001
0000
0000
0000
0001
,  // measure 53
0000
0000
0000
0010
0000
0000
0000
0010
,  // measure 54
0000
0000
0000
0010
0000
0000
0000
0010
,  // measure 55
0000
0000
0000
0000
,  // measure 56
0000
0100
0000
0100
0000
0100
0000
0000
,  // measure 57
0000
0010
0000
0000
0000
0000
0000
0000
,  // measure 58
0000
0100
0000
0000
0000
0100
0000
0000
,  // measure 59
0000
0001
0000
0000
0000
0000
0000
0000
,  // measure 60
0000
1000
0000
0000
0000
1000
0000
0000
,  // measure 61
0000
0010
0000
0000
0000
0000
0000
0000
,  // measure 62
0000
0100
0000
0000
0000
0000
0000
0000
,  // measure 63
0000
0010
0000
0010
0000
0010
0000
0010
,  // measure 64
0000
0000
0000
0000
0000
0000
0000
1001
;
