#TITLE:Undercover;
#SUBTITLE:;
#ARTIST:Hommarju;
#TITLETRANSLIT:;
#SUBTITLETRANSLIT:;
#ARTISTTRANSLIT:;
#GENRE:;
#CREDIT:;
#BANNER:Undercover [ohaiimian].png;
#BACKGROUND:Undercover [ohaiimian]-bg.png;
#LYRICSPATH:;
#CDTITLE:;
#MUSIC:Undercover [ohaiimian].ogg;
#OFFSET:1.780000;
#SAMPLESTART:60.988998;
#SAMPLELENGTH:14.769000;
#LASTBEATHINT:1.688277;
#SELECTABLE:YES;
#DISPLAYBPM:130.000000;
#BPMS:0.000000=130.000000
;
#STOPS:
;
#BGCHANGES:;
#KEYSOUNDS:;
#ATTACKS:;

//---------------dance-single - ----------------
#NOTES:
     dance-single:
     :
     Hard:
     14:
     0.533066,0.721201,0.097131,0.186168,0.886324,461.000000,449.000000,12.000000,23.000000,0.000000,0.000000,0.533066,0.721201,0.097131,0.186168,0.886324,461.000000,449.000000,12.000000,23.000000,0.000000,0.000000:
// measure 0
0000
0000
0000
0000
,  // measure 1
0000
0000
0000
0000
,  // measure 2
0000
0000
0000
0000
,  // measure 3
0000
0000
0000
0000
,  // measure 4
0000
0000
0000
0000
,  // measure 5
2000
0001
0000
3001
,  // measure 6
0200
0010
0000
0310
,  // measure 7
0002
1000
0000
1003
,  // measure 8
0020
0100
0000
0200
,  // measure 9
0000
0000
0000
0330
,  // measure 10
0001
0000
0001
0100
0000
0100
0010
0000
0010
1000
0000
1000
,  // measure 11
0001
0000
0001
0010
0000
0010
0100
0000
0100
1000
0100
0010
,  // measure 12
0001
0000
0001
0010
0000
0010
0100
0000
0100
1000
0000
1000
,  // measure 13
0001
0000
0001
0100
0000
0100
0010
0000
0010
1000
0000
1000
,  // measure 14
0001
0000
0001
0100
0000
0100
1000
0000
1000
0001
0000
0001
,  // measure 15
0010
0000
0010
1000
0000
1000
0100
0000
0100
0010
0000
0010
,  // measure 16
0100
0000
1000
0100
0000
0000
0001
0000
0100
0001
0000
0000
,  // measure 17
0101
0000
0000
1001
0000
0000
1100
0000
0000
1001
0000
1000
,  // measure 18
0001
0000
1000
0100
0000
1000
0001
0000
1000
0010
0000
0010
,  // measure 19
1000
0000
1000
0100
0000
0100
0010
0000
0010
0001
0100
0010
,  // measure 20
1000
0000
0001
0100
0000
0001
1000
0000
0001
0010
0000
0010
,  // measure 21
0100
0000
0100
1000
0000
1000
0010
0000
0010
0100
0000
0100
,  // measure 22
0001
0000
0010
0100
0000
1000
0100
0000
0010
0100
0000
0010
,  // measure 23
0001
0000
1000
0010
0000
0001
0010
0000
1000
0100
0000
0001
,  // measure 24
0100
0000
0100
0010
0000
0010
1000
0000
1000
0001
0000
0001
,  // measure 25
0010
0000
0010
0100
0000
0100
0001
0000
0001
1000
0000
1000
,  // measure 26
0010
0001
0100
0010
,  // measure 27
2000
0100
0001
0010
,  // measure 28
3100
1000
0010
0100
,  // measure 29
0002
0000
0000
0100
0000
0000
1000
0000
0000
0010
0000
0013
,  // measure 30
0200
1000
0320
1000
,  // measure 31
0230
0001
0320
0001
,  // measure 32
0130
0000
0100
0000
0000
1000
0001
0000
0000
1001
0000
0000
,  // measure 33
0100
0000
0100
0000
0000
0001
1000
0000
0000
1001
0000
0001
,  // measure 34
0100
0000
0010
0000
1000
0000
0001
0000
0010
0000
0100
1000
0100
0000
0010
0000
0001
0000
1000
0000
0010
0000
0100
0001
,  // measure 35
0100
0010
1000
0100
0010
0100
1000
0001
0100
0010
0100
0001
,  // measure 36
1000
0000
0100
0000
0010
0000
0001
0000
1000
0000
0010
0100
0010
0000
0100
0000
0001
0000
0010
0000
0100
0000
0010
0100
,  // measure 37
0010
0100
1000
0100
0010
0001
0100
0010
1000
0010
0100
0001
,  // measure 38
1000
0000
0100
0000
0001
0000
1000
0000
0010
0000
0001
0100
0001
0000
0100
0000
1000
0000
0001
0000
0010
0000
1000
0100
,  // measure 39
1000
0001
0100
0001
1000
0100
1000
0001
0010
0001
1000
0010
,  // measure 40
2000
0000
0000
3100
0010
0100
0002
0000
0000
0103
1000
0010
,  // measure 41
0100
0000
0010
1000
0000
1000
0002
0000
0000
1003
0000
1000
,  // measure 42
0001
0000
0000
0000
,  // measure 43
1000
0000
1000
0010
0000
0010
0100
0000
0100
0001
0100
0010
,  // measure 44
1000
0000
1000
0100
0000
0100
0010
0000
0010
0001
0000
0001
,  // measure 45
1000
0000
1000
0010
0000
0010
0100
0000
0100
0001
0000
0001
,  // measure 46
1000
0000
1000
0100
0000
0100
0001
0000
0001
1000
0000
1000
,  // measure 47
0010
0000
0010
0001
0000
0001
0100
0000
0100
0010
0000
0010
,  // measure 48
0100
0000
0001
0100
0000
0000
1000
0000
0100
1000
0000
0000
,  // measure 49
1100
0000
0000
1001
0000
0000
0101
0000
0000
1001
0000
1000
,  // measure 50
0001
0100
0010
1000
,  // measure 51
0002
0100
1000
0010
,  // measure 52
0103
0001
0010
0100
,  // measure 53
2000
0000
0000
0100
0000
0000
0001
0000
0000
0010
0000
3010
,  // measure 54
0200
0001
0320
0001
,  // measure 55
0230
1000
0320
1000
,  // measure 56
0130
0000
0100
0000
0000
0001
1000
0000
0000
1001
0000
0000
,  // measure 57
0100
0000
0100
0000
0000
1000
0001
0000
0000
1001
0000
1000
,  // measure 58
0010
0000
0100
0000
0001
0000
1000
0000
0100
0000
0010
0001
0010
0000
0100
0000
1000
0000
0001
0000
0100
0000
0010
1000
,  // measure 59
0010
0100
0001
0010
0100
0010
0001
1000
0010
0100
0010
1000
,  // measure 60
0001
0000
0010
0000
0100
0000
1000
0000
0001
0000
0100
0010
0100
0000
0010
0000
1000
0000
0100
0000
0010
0000
0100
0010
,  // measure 61
0100
0010
0001
0010
0100
1000
0010
0100
0001
0100
0010
1000
,  // measure 62
0001
0000
0010
0000
1000
0000
0001
0000
0100
0000
1000
0010
1000
0000
0010
0000
0001
0000
1000
0000
0100
0000
0001
0010
,  // measure 63
0001
1000
0010
1000
0001
0010
0001
1000
0100
1000
0001
0100
,  // measure 64
0002
0000
0000
0013
0100
0010
2000
0000
0000
3010
0001
0100
,  // measure 65
0010
0000
0100
0001
0000
0001
2000
0000
0000
3001
0000
0001
,  // measure 66
1000
0000
0000
0000
;

//---------------dance-single - ----------------
#NOTES:
     dance-single:
     :
     Medium:
     11:
     0.350367,0.454089,0.032377,0.250923,0.331866,303.000000,299.000000,4.000000,31.000000,0.000000,0.000000,0.350367,0.454089,0.032377,0.250923,0.331866,303.000000,299.000000,4.000000,31.000000,0.000000,0.000000:
// measure 0
0000
0000
0000
0000
,  // measure 1
0000
0000
0000
0000
,  // measure 2
0000
0000
0000
0000
,  // measure 3
0000
0000
0000
0000
,  // measure 4
0000
0000
0000
0000
,  // measure 5
0000
1000
0000
1000
,  // measure 6
0000
0001
0000
0001
,  // measure 7
0000
0100
0000
0100
,  // measure 8
0000
0010
0000
0020
,  // measure 9
0000
0000
0000
0030
,  // measure 10
1000
0000
1000
0100
0000
0000
0100
0000
0100
0010
0000
0000
,  // measure 11
0010
0000
0010
0001
0000
0001
2000
0000
0000
3000
0000
0000
,  // measure 12
0001
0000
0001
0100
0000
0000
0100
0000
0100
0010
0000
0000
,  // measure 13
0010
0000
0010
1000
0000
1000
0002
0000
0000
0003
0000
0000
,  // measure 14
2000
3200
0320
0032
,  // measure 15
0203
0320
2030
3000
,  // measure 16
0001
0100
1000
0100
,  // measure 17
0010
0010
0010
0010
,  // measure 18
0001
0000
0001
0100
0000
0000
0100
0000
0100
0010
0000
0000
,  // measure 19
0010
0000
0010
1000
0000
1000
0001
0000
0000
1001
0000
0000
,  // measure 20
1000
0000
1000
0100
0000
0000
0100
0000
0100
0010
0000
0000
,  // measure 21
0010
0000
0010
0001
0000
0001
1000
0000
0000
1001
0000
0000
,  // measure 22
1000
0000
1000
0010
0000
0000
0010
0000
0010
0100
0000
0000
,  // measure 23
0100
0000
0100
0001
0000
0001
1000
0000
0000
1001
0000
0000
,  // measure 24
0001
0000
0001
0010
0000
0000
0010
0000
0010
0100
0000
0000
,  // measure 25
0100
0000
0100
1000
0000
1000
0001
0000
0000
1001
0000
0000
,  // measure 26
1000
0100
0001
0100
,  // measure 27
2000
0100
0100
0100
,  // measure 28
3001
0100
1000
0100
,  // measure 29
0002
0010
0010
0010
,  // measure 30
1003
0010
0001
0010
,  // measure 31
2000
0010
0010
0010
,  // measure 32
3001
0000
0001
0000
0000
0100
0000
0000
0000
0010
0000
0000
,  // measure 33
1000
0000
1000
0000
0000
0100
0000
0000
0000
0010
0000
0000
,  // measure 34
0001
0000
0001
0010
0000
0000
0010
0000
0010
0001
0000
0000
,  // measure 35
0001
0000
0001
0010
0000
0010
0001
0000
0001
0010
0000
0010
,  // measure 36
0100
0000
0100
0010
0000
0000
0010
0000
0010
0100
0000
0000
,  // measure 37
0100
0000
0100
0010
0000
0010
0100
0000
0100
0010
0000
0010
,  // measure 38
0100
0000
0100
1000
0000
1000
0001
0000
0001
0100
0000
0100
,  // measure 39
0010
0000
0010
1000
0000
1000
0001
0000
0001
0010
0000
0010
,  // measure 40
0200
1300
0002
0103
,  // measure 41
0010
0000
0100
0010
0000
0100
0020
0000
0000
1030
0000
0000
,  // measure 42
0001
0000
0100
0000
,  // measure 43
0010
0000
0010
1000
0000
1000
0002
0000
0000
0003
0000
0000
,  // measure 44
1000
0000
1000
0100
0000
0000
0100
0000
0100
0010
0000
0000
,  // measure 45
0010
0000
0010
0001
0000
0001
2000
0000
0000
3000
0000
0000
,  // measure 46
0002
0203
0320
2030
,  // measure 47
3200
0320
0032
0003
,  // measure 48
1000
0100
0001
0100
,  // measure 49
0010
0010
0010
0010
,  // measure 50
0001
0100
1000
0100
,  // measure 51
0002
0100
0100
0100
,  // measure 52
1003
0100
0001
0100
,  // measure 53
2000
0010
0010
0010
,  // measure 54
3001
0010
1000
0010
,  // measure 55
0002
0010
0010
0010
,  // measure 56
1003
0000
1000
0000
0000
0100
0000
0000
0000
0010
0000
0000
,  // measure 57
0001
0000
0001
0000
0000
0100
0000
0000
0000
0010
0000
0000
,  // measure 58
1000
0000
1000
0010
0000
0000
0010
0000
0010
1000
0000
0000
,  // measure 59
1000
0000
1000
0010
0000
0010
1000
0000
1000
0010
0000
0010
,  // measure 60
0100
0000
0100
0010
0000
0000
0010
0000
0010
0100
0000
0000
,  // measure 61
0100
0000
0100
0010
0000
0010
0100
0000
0100
0010
0000
0010
,  // measure 62
0100
0000
0100
0001
0000
0001
1000
0000
1000
0100
0000
0100
,  // measure 63
0010
0000
0010
0001
0000
0001
1000
0000
1000
0010
0000
0010
,  // measure 64
0200
0301
2000
3100
,  // measure 65
0010
0000
0100
0010
0000
0100
0020
0000
0000
0031
0000
0000
,  // measure 66
1000
0000
0000
0000
;

//---------------dance-single - ----------------
#NOTES:
     dance-single:
     :
     Easy:
     6:
     0.268268,0.293822,0.032377,0.056660,0.000000,232.000000,228.000000,4.000000,7.000000,0.000000,0.000000,0.268268,0.293822,0.032377,0.056660,0.000000,232.000000,228.000000,4.000000,7.000000,0.000000,0.000000:
// measure 0
0000
0000
0000
0000
,  // measure 1
0000
0000
0000
0000
,  // measure 2
0000
0000
0000
0000
,  // measure 3
0000
0000
0000
0000
,  // measure 4
0000
0000
0000
0000
,  // measure 5
1000
0001
0000
0001
,  // measure 6
0100
0010
0000
0010
,  // measure 7
0100
0001
0000
1000
,  // measure 8
0000
0100
0000
0020
,  // measure 9
0000
0000
0000
0030
,  // measure 10
0001
0100
0010
1000
,  // measure 11
0001
0010
0200
0300
,  // measure 12
1000
0100
0010
0001
,  // measure 13
1000
0010
0200
0300
,  // measure 14
0010
1000
0100
0010
,  // measure 15
0001
0100
0020
0030
,  // measure 16
0100
0001
0010
0100
,  // measure 17
1000
1000
1000
0001
,  // measure 18
0100
0010
1000
0001
,  // measure 19
0010
0010
0100
1100
,  // measure 20
1000
1000
0001
0001
,  // measure 21
0100
0001
0100
0101
,  // measure 22
0001
0010
0100
1000
,  // measure 23
0001
0100
0010
0110
,  // measure 24
0100
0100
0001
0001
,  // measure 25
0010
0100
1000
1001
,  // measure 26
1000
1000
1000
1000
,  // measure 27
0001
0001
0001
0001
,  // measure 28
0100
0100
0100
0100
,  // measure 29
0010
0010
0010
0010
,  // measure 30
1000
1000
0100
0100
,  // measure 31
0010
0010
0001
0001
,  // measure 32
0100
0100
0001
0001
,  // measure 33
0010
0010
0010
0010
,  // measure 34
1000
0100
0010
0001
,  // measure 35
0100
0100
0010
0010
,  // measure 36
0100
0001
0010
0100
,  // measure 37
1000
1000
0001
0001
,  // measure 38
0100
0100
0010
0010
,  // measure 39
1000
0001
0010
0100
,  // measure 40
1000
1000
0001
0001
,  // measure 41
0100
0100
0100
0100
,  // measure 42
0010
0000
0010
0000
,  // measure 43
1000
0010
0200
0300
,  // measure 44
0001
0100
0010
1000
,  // measure 45
0001
0010
0200
0300
,  // measure 46
0010
0001
0100
0010
,  // measure 47
1000
0100
0020
0030
,  // measure 48
0100
1000
0010
0100
,  // measure 49
0001
0001
0001
1000
,  // measure 50
0001
0001
0001
0001
,  // measure 51
1000
1000
1000
1000
,  // measure 52
0100
0100
0100
0100
,  // measure 53
0010
0010
0010
0010
,  // measure 54
0001
0001
0100
0100
,  // measure 55
0010
0010
1000
1000
,  // measure 56
0100
0100
1000
1000
,  // measure 57
0010
0010
0010
0010
,  // measure 58
0001
0100
0010
1000
,  // measure 59
0100
0100
0010
0010
,  // measure 60
0100
1000
0010
0100
,  // measure 61
0001
0001
1000
1000
,  // measure 62
0100
0100
0010
0010
,  // measure 63
0001
1000
0010
0100
,  // measure 64
0001
0001
1000
1000
,  // measure 65
0100
0100
0100
0100
,  // measure 66
0010
0000
0000
0000
;

//---------------dance-single - ----------------
#NOTES:
     dance-single:
     :
     Beginner:
     3:
     0.130665,0.159053,0.000000,0.121414,0.000000,113.000000,113.000000,0.000000,15.000000,0.000000,0.000000,0.130665,0.159053,0.000000,0.121414,0.000000,113.000000,113.000000,0.000000,15.000000,0.000000,0.000000:
// measure 0
0000
0000
0000
0000
,  // measure 1
0000
0000
0000
0000
,  // measure 2
0000
0000
0000
0000
,  // measure 3
0000
0000
0000
0000
,  // measure 4
0000
0000
0000
0000
,  // measure 5
1000
0000
0001
0000
,  // measure 6
1000
0000
0000
0000
,  // measure 7
0001
0000
1000
0000
,  // measure 8
0001
0000
0000
0000
,  // measure 9
0000
0000
0000
0000
,  // measure 10
0010
0000
0010
0000
,  // measure 11
0020
0000
0030
0000
,  // measure 12
0100
0000
0100
0000
,  // measure 13
0200
0000
0300
0000
,  // measure 14
0001
0000
0001
0000
,  // measure 15
0002
0000
0003
0000
,  // measure 16
1000
0000
1000
0000
,  // measure 17
2000
0000
3000
0000
,  // measure 18
0100
0000
0010
0000
,  // measure 19
0001
0001
1000
0000
,  // measure 20
0010
0000
0100
0000
,  // measure 21
0001
0001
1000
0000
,  // measure 22
0100
0000
1000
0000
,  // measure 23
0010
0010
0100
0000
,  // measure 24
0001
0000
0010
0000
,  // measure 25
0100
0100
0010
0000
,  // measure 26
0002
0000
0003
0000
,  // measure 27
2000
0000
3000
0000
,  // measure 28
0020
0000
0030
0000
,  // measure 29
0200
0000
0300
0000
,  // measure 30
0001
0000
0010
0000
,  // measure 31
0100
0000
1000
0000
,  // measure 32
0100
0000
0010
0000
,  // measure 33
0001
0000
1000
0000
,  // measure 34
0010
0000
0010
0000
,  // measure 35
0010
0010
0010
0000
,  // measure 36
0100
0000
0100
0000
,  // measure 37
0100
0100
0100
0000
,  // measure 38
0001
0000
1000
0000
,  // measure 39
0001
1000
0001
0000
,  // measure 40
1000
0000
0001
0000
,  // measure 41
1000
0001
1000
0000
,  // measure 42
0000
0000
0000
0000
,  // measure 43
0010
0000
0010
0000
,  // measure 44
0100
0000
0100
0000
,  // measure 45
0200
0000
0300
0000
,  // measure 46
0001
0000
0001
0000
,  // measure 47
0002
0000
0003
0000
,  // measure 48
1000
0000
1000
0000
,  // measure 49
2000
0000
3000
0000
,  // measure 50
0002
0000
0003
0000
,  // measure 51
2000
0000
3000
0000
,  // measure 52
0020
0000
0030
0000
,  // measure 53
0200
0000
0300
0000
,  // measure 54
0001
0000
0010
0000
,  // measure 55
0100
0000
1000
0000
,  // measure 56
0100
0000
0010
0000
,  // measure 57
0001
0000
1000
0000
,  // measure 58
0010
0000
0010
0000
,  // measure 59
0010
0010
0010
0000
,  // measure 60
0100
0000
0100
0000
,  // measure 61
0100
0100
0100
0000
,  // measure 62
0001
0000
1000
0000
,  // measure 63
0001
1000
0001
0000
,  // measure 64
1000
0000
0001
0000
,  // measure 65
1000
0001
1000
0000
;
