#TITLE:Undercover;
#SUBTITLE:;
#ARTIST:Hommarju;
#TITLETRANSLIT:;
#SUBTITLETRANSLIT:;
#ARTISTTRANSLIT:;
#GENRE:;
#CREDIT:;
#BANNER:Undercover.png;
#BACKGROUND:Undercover-bg.png;
#LYRICSPATH:;
#CDTITLE:;
#MUSIC:Undercover.ogg;
#OFFSET:-0.066000;
#SAMPLESTART:60.978626;
#SAMPLELENGTH:14.999999;
#SELECTABLE:YES;
#BPMS:0.000000=130.000000
;
#STOPS:
;
#BGCHANGES:;
#KEYSOUNDS:;
#ATTACKS:;

//---------------dance-single - ----------------
#NOTES:
     dance-single:
     :
     Challenge:
     17:
     0.811741,0.953102,0.445186,0.396620,1.667422,702.000000,646.000000,55.000000,49.000000,64.000000,6.000000,0.811741,0.953102,0.445186,0.396620,1.667422,702.000000,646.000000,55.000000,49.000000,64.000000,6.000000:
// measure 0
0000
0000
0000
0000
,  // measure 1
0000
0000
0000
0000
,  // measure 2
0000
0000
0000
0000
,  // measure 3
0000
0000
0000
0000
,  // measure 4
1000
0000
0100
1000
0000
0000
0002
0000
0000
2003
0000
0000
,  // measure 5
3002
0000
1003
0100
2000
0000
3000
0000
,  // measure 6
0020
0230
0320
0230
,  // measure 7
0301
0010
0001
1000
0100
1000
0001
0010
0001
1000
0100
2000
,  // measure 8
0000
0000
0000
0000
0000
0000
0000
3000
0000
MMMM
MMMM
MMMM
,  // measure 9
0100
1000
0100
1100
0100
1000
0001
0100
0001
0101
0100
0001
,  // measure 10
0100
0010
0100
0110
0010
0100
0010
1000
0010
1010
0100
0001
,  // measure 11
1000
0100
0010
0110
0010
0001
0100
0010
1000
1010
1000
0010
,  // measure 12
0100
0001
0010
0011
0000
0001
0010
0100
1000
1001
0001
0001
,  // measure 13
1000
0010
1000
0020
0130
0100
0001
0010
0001
0020
0031
0001
,  // measure 14
1000
0100
1000
0200
1000
1300
0001
0100
0001
0020
0030
0000
,  // measure 15
1000
0100
1000
0100
0000
0000
0001
0100
0001
0100
0000
0000
,  // measure 16
1100
0010
0010
1100
0001
0001
1100
0010
0010
1100
0000
1100
,  // measure 17
0010
0001
0010
0001
1000
0001
0100
0010
0100
1001
0000
0000
,  // measure 18
1000
0100
1000
0100
0010
0001
0010
0001
0001
1100
0000
0000
,  // measure 19
0010
0001
0100
0001
0010
0100
0001
1000
1000
0011
0000
0000
,  // measure 20
1000
0100
1000
0010
0100
0010
1000
0001
1000
0022
0033
0011
,  // measure 21
0110
0001
0001
0110
1000
1000
0110
0001
0001
0110
1000
1000
,  // measure 22
0011
1000
1000
0011
0100
0100
0011
1000
1000
1001
0000
0000
,  // measure 23
1010
0100
0100
1010
0001
0001
1010
0100
0100
1010
0001
0001
,  // measure 24
0011
1000
1000
0011
0100
0100
0011
0010
0010
0011
0001
0001
,  // measure 25
1000
0100
0010
0001
0100
0010
1000
0100
0010
0001
0100
0010
,  // measure 26
1000
0100
0001
0100
1000
0100
0001
0100
1000
0100
0001
0100
,  // measure 27
0010
0001
0100
1000
0100
0001
0100
1000
0100
0001
0100
1000
,  // measure 28
0110
0001
0100
1001
0100
0001
0110
1000
0100
1001
0000
0001
,  // measure 29
1000
0100
0010
0001
0010
0100
1000
0010
0100
0001
0100
0010
,  // measure 30
1000
0100
0010
0001
0010
0100
1000
0100
0001
0100
1000
0001
,  // measure 31
0100
0010
0100
0010
0100
0010
0100
0010
0100
0010
0100
0010
1000
0001
1000
0001
1000
0001
1000
0001
1000
0001
1000
0001
,  // measure 32
0000
MMMM
0000
MMMM
0000
MMMM
0000
MMMM
,  // measure 33
1000
0000
0100
0000
0010
0000
1000
0000
0100
0000
0010
0001
0100
0000
0010
0000
1000
0000
0100
0000
0010
0000
1000
0001
,  // measure 34
0100
0000
0010
0000
1000
0000
0100
0000
0010
0000
1000
0000
0100
0000
0010
0000
1000
0000
0100
0010
0001
0000
1000
0000
,  // measure 35
0001
0000
0100
0000
0010
0000
0001
0000
0100
0000
0010
1000
0001
0000
1000
0000
0100
0000
0001
0000
1000
0000
0100
0010
,  // measure 36
0001
1000
0100
0001
1000
0010
0001
1000
0100
0001
0010
0100
,  // measure 37
2000
0000
0100
0000
0100
0000
3200
0000
0010
0000
0310
0001
2000
0000
0010
0000
0010
0000
3020
0000
0100
0000
0130
1000
,  // measure 38
0200
0010
0010
0320
0001
0001
0032
1000
1000
2003
0100
3100
,  // measure 39
0020
0000
0000
0000
0000
0000
0001
0000
0000
0000
0100
0000
2000
0000
0000
0000
0000
3000
0001
0000
0000
0000
0100
0000
,  // measure 40
1000
0000
0001
0100
0000
1000
0002
0000
0000
1100
0000
0000
,  // measure 41
2033
3002
2003
3002
,  // measure 42
2003
0000
0000
3000
0000
0000
0002
0000
0000
0000
0020
0000
0203
0030
0000
0000
0000
0000
1311
0000
0000
0000
0000
0000
,  // measure 43
0001
0010
0100
0110
0100
1000
0010
0100
0001
0101
0001
0100
,  // measure 44
0010
1000
0100
1100
0000
1000
0100
0010
0001
1001
1000
1000
,  // measure 45
0001
0100
0001
0200
0310
0010
1000
0100
1000
0200
1300
1000
,  // measure 46
0001
0010
0001
0020
0001
0031
1000
0010
1000
0200
0300
0000
,  // measure 47
0001
0010
0001
0010
0000
0000
1000
0010
1000
0010
0000
0000
,  // measure 48
0011
0100
0100
0011
1000
1000
0011
0100
0100
0011
0000
0011
,  // measure 49
1000
0100
0010
0001
0100
0010
1000
0100
0010
0001
0100
0010
,  // measure 50
1000
0100
0001
0100
1000
0100
0001
0100
1000
0100
0001
0100
,  // measure 51
0010
0001
0100
1000
0100
0001
0100
1000
0100
0001
0100
1000
,  // measure 52
0110
0001
0100
1001
0100
0001
0110
1000
0100
1001
0000
0001
,  // measure 53
1000
0100
0010
0001
0010
0100
1000
0010
0100
0001
0100
0010
,  // measure 54
1000
0100
0010
0001
0010
0100
1000
0100
0001
0100
1000
0001
,  // measure 55
0100
0010
0100
0010
0100
0010
0100
0010
0100
0010
0100
0010
1000
0001
1000
0001
1000
0001
1000
0001
1000
0001
1000
0001
,  // measure 56
0000
MMMM
0000
MMMM
0000
MMMM
0000
MMMM
,  // measure 57
0001
0000
0010
0000
0100
0000
0001
0000
0010
0000
0100
1000
0010
0000
0100
0000
0001
0000
0010
0000
0100
0000
0001
1000
,  // measure 58
0010
0000
0100
0000
0001
0000
0010
0000
0100
0000
0001
0000
0010
0000
0100
0000
0001
0000
0010
0100
1000
0000
0001
0000
,  // measure 59
1000
0000
0010
0000
0100
0000
1000
0000
0010
0000
0100
0001
1000
0000
0001
0000
0010
0000
1000
0000
0001
0000
0010
0100
,  // measure 60
1000
0001
0010
1000
0001
0100
1000
0001
0010
1000
0100
0010
,  // measure 61
0002
0000
0010
0000
0010
0000
0023
0000
0100
0000
0130
1000
0002
0000
0100
0000
0100
0000
0203
0000
0010
0000
0310
0001
,  // measure 62
0020
0100
0100
0230
1000
1000
2300
0001
0001
3002
0010
0013
,  // measure 63
0200
0000
0000
0000
0000
0000
1000
0000
0000
0000
0010
0000
0002
0000
0000
0000
0000
0003
1000
0000
0000
0000
0010
0000
,  // measure 64
0001
0000
1000
0010
0000
0001
2000
0000
0000
0011
0000
0011
,  // measure 65
3300
MMMM
MMMM
MMMM
MMMM
MMMM
0000
0000
0000
0000
0000
0000
;
