#TITLE:Undercover [VanEden];
#SUBTITLE:;
#ARTIST:Hommarju;
#TITLETRANSLIT:;
#SUBTITLETRANSLIT:;
#ARTISTTRANSLIT:;
#GENRE:;
#CREDIT:;
#BANNER:Undercover.png;
#BACKGROUND:Undercover-bg.png;
#LYRICSPATH:;
#CDTITLE:;
#MUSIC:Undercover.ogg;
#OFFSET:0.096415;
#SAMPLESTART:62.664108;
#SAMPLELENGTH:14.769234;
#SELECTABLE:YES;
#BPMS:0.000000=130.000000
;
#STOPS:167.875000=1.385000
;
#BGCHANGES:;
#KEYSOUNDS:;
#ATTACKS:;

//---------------dance-single - ----------------
#NOTES:
     dance-single:
     :
     Challenge:
     15:
     0.641239,0.702653,0.119804,0.207661,1.253954,562.000000,547.000000,15.000000,26.000000,12.000000,0.000000,0.641239,0.702653,0.119804,0.207661,1.253954,562.000000,547.000000,15.000000,26.000000,12.000000,0.000000:
0000
0000
0000
0000
,
0000
0000
0000
0000
,
0000
0000
0000
0000
,
0000
0000
0000
0000
,
0000
0000
0000
0000
,
2000
0100
3002
0100
,
2003
0100
3002
0100
,
2003
0010
3002
0010
,
2003
3200
0000
0010
,
0000
0000
0000
0300
,
1000
0100
0100
1000
0100
0010
0001
0100
0100
0001
0100
0010
,
1000
0001
0001
0010
0001
0001
0100
0001
0001
1000
0010
0100
,
0001
0010
0010
0001
0010
0100
1000
0010
0010
1000
0010
0100
,
0001
1000
1000
0010
1000
1000
0100
1000
1000
0100
0010
0001
,
0100
0010
0010
0100
0010
1000
0100
0010
0010
0100
0010
0001
,
1000
0100
0100
0010
0100
0100
0001
0100
0100
0010
0001
1000
,
0010
0100
0100
0010
1000
0100
0010
0100
0100
0010
0001
0100
,
0010
0000
0000
1010
0000
0000
0101
0000
0000
1100
0000
1000
,
0001
0000
0010
0100
0000
0010
0001
0000
0001
1000
0000
0010
,
1000
0001
0010
0001
1000
0010
0100
0001
0010
0100
0000
0100
,
1000
0000
0100
0010
0000
0100
1000
0000
1000
0001
0000
0100
,
0001
1000
0100
1000
0001
0100
0010
1000
0100
0010
0000
0010
,
0001
0000
1000
0010
0000
0010
1000
0000
0001
0100
0000
0010
,
0100
0001
0010
0001
0100
0010
1000
0100
0010
0100
0000
0100
,
1000
0000
1000
0001
0000
0001
0010
0000
0010
0100
0000
0010
,
0100
1000
0001
1000
0100
0010
0001
0100
0010
1000
0000
1000
,
0002
0013
0020
1030
,
2000
3010
0020
0031
,
0002
0103
0200
1300
,
2000
0000
0000
3100
0000
0000
0200
0000
0000
0301
0000
0001
,
0010
0000
0001
1000
0000
1000
0010
0000
1000
0001
0000
0001
,
0100
0000
0010
1000
0000
1000
0001
0000
0010
0100
0000
0100
,
0010
0001
0010
0001
1000
0001
1000
0010
1000
0010
0100
0001
,
1000
0000
0000
0101
0000
0000
1100
0000
0000
1001
0000
1000
,
0001
0000
1000
0000
0010
0000
1000
0000
0001
0000
0010
0100
1000
0000
0001
0000
0010
0000
0001
0000
1000
0000
0010
0100
,
0001
1000
0100
0001
0100
1000
0001
0100
1000
0001
1000
0100
,
0001
0000
1000
0000
0100
0000
1000
0000
0001
0000
0100
0010
1000
0000
0001
0000
0100
0000
0001
0000
1000
0000
0100
0010
,
0001
1000
0010
0001
0010
1000
0001
0010
1000
0001
1000
0010
,
0001
0000
0010
0000
0100
0000
1000
0000
0010
0000
0100
0001
1000
0000
0100
0000
0010
0000
0001
0000
0100
0000
0010
1000
,
0001
0010
0001
1000
0010
1000
0001
0100
0001
1000
0100
0010
,
0002
0000
0000
0013
0100
0010
2000
0000
0000
3010
0100
0010
,
0001
0000
0001
1000
0000
1000
0010
0000
0000
0110
0000
0100
,
0000
0000
0000
0100
0010
0010
0100
0001
0001
0100
0010
0010
,
1000
0001
0010
0100
1000
1000
0001
1000
1000
0010
0100
0100
,
1000
0100
0100
0001
0010
0010
1000
0010
0010
0001
0100
0100
,
1000
0100
0001
1000
0010
0010
1000
0001
0010
0100
1000
1000
,
0100
0010
0001
0100
0010
0010
1000
0100
0100
0001
0100
0100
,
0010
0001
0100
0010
1000
1000
0001
0010
1000
0010
0001
0001
,
0100
1000
0100
0001
0000
0000
1010
0000
0000
0011
0000
0000
,
1001
0000
0001
0020
0000
0000
0100
0000
0130
2000
0000
0001
,
0000
0000
3001
0200
0000
0000
1000
0000
0000
0001
0000
0000
,
0310
0000
0000
2000
0000
0000
0010
0000
3010
0200
0000
0001
,
0000
0000
0301
0020
0000
0000
0001
0000
0000
1000
0000
0000
,
0130
0000
0100
1000
0000
0001
0100
0000
0100
0001
0000
1000
,
0010
0000
0010
0100
0000
0001
1000
0000
1000
0100
0000
0010
,
0001
0000
0001
1000
0100
1000
0100
0010
0001
0100
0010
0100
,
0001
0000
0010
0000
0100
0000
1000
0000
0000
MMMM
0000
0000
1001
0000
0000
MMMM
0000
0000
1001
0000
0000
MMMM
0000
0000
,
1001
0000
0000
0000
1000
0000
0001
0000
0010
0000
0100
0000
1000
0000
0010
0000
0100
0001
1000
0000
0010
0000
0100
0000
,
0001
0000
0010
0000
0100
1000
0001
0000
0010
0000
0100
0000
0001
0000
0100
0000
0010
0000
0001
0000
0100
0000
0010
0000
,
0001
0000
0010
0000
1000
0000
0001
0000
1000
0000
0010
0000
0100
0000
0001
0000
0010
0001
1000
0000
0001
0000
0010
0000
,
0100
0000
1000
0000
0001
1000
0010
0000
0100
0000
1000
0000
0100
0000
0010
0000
1000
0000
0100
0000
0010
0000
0100
0000
,
1000
0000
0100
0000
0001
0000
1000
0000
0010
0000
0001
0000
1000
0000
0010
0000
0100
0010
0001
0000
0010
0000
1000
0000
,
0001
0000
0010
0000
0001
1000
0010
0000
1000
0000
0100
0000
0001
0000
0100
0000
0010
0000
0001
0000
0100
0000
1000
0000
,
0001
1000
0100
0020
0000
0000
1030
0001
1000
0200
0000
0000
,
1300
0001
1000
0010
0000
0001
0010
0000
1000
0001
0000
0000
,
1001
0000
1001
0000
0000
0000
0000
0000
0000
0000
0000
0000
;

//---------------dance-single - ----------------
#NOTES:
     dance-single:
     :
     Beginner:
     2:
     0.146047,0.285534,0.063896,0.000000,0.000000,128.000000,120.000000,8.000000,0.000000,0.000000,0.000000,0.146047,0.285534,0.063896,0.000000,0.000000,128.000000,120.000000,8.000000,0.000000,0.000000,0.000000:
0000
0000
0000
0000
,
0000
0000
0000
0000
,
0000
0000
0000
0000
,
0000
0000
0000
0000
,
0000
0000
0000
0000
,
0000
0000
0000
0000
,
0000
0000
0000
0000
,
0000
0000
0000
0000
,
0000
0000
0000
0000
,
0000
0000
0000
0000
,
1000
0000
0010
0000
,
1000
0000
1000
0000
,
0001
0000
0010
0000
,
0001
0000
0001
0000
,
1000
0000
0100
0000
,
0001
0000
0010
0000
,
0100
0000
0100
0000
,
0010
0010
0010
0010
,
0001
0000
1000
0000
,
0010
0000
0100
0000
,
0001
0000
0010
0000
,
0001
0000
1000
0000
,
0100
0000
1000
0000
,
0010
0000
0100
0000
,
0001
0000
1000
0000
,
0010
0000
1000
0000
,
0001
0000
0000
0000
,
1000
0000
0000
0000
,
1000
0000
0000
0000
,
0001
0000
0000
0000
,
0010
0000
0010
0000
,
0100
0000
0100
0000
,
1000
0000
1000
0000
,
1001
1001
1001
1001
,
1000
0000
0001
0000
,
1000
1000
1000
0000
,
0010
0000
0100
0000
,
0001
0001
0001
0000
,
0010
0000
0100
0000
,
1000
1000
1000
0000
,
0010
0000
0100
0000
,
0010
0010
0010
0010
,
0000
0100
0000
0100
,
0000
0001
0000
1000
,
0000
0010
0000
0010
,
0000
1000
0000
0100
,
0000
0010
0000
0001
,
0000
1000
0000
0001
,
0000
1000
1000
1000
,
1000
0100
0000
0000
,
0000
0100
0000
0000
,
0000
0010
0000
0000
,
0000
0001
0000
0000
,
0000
1000
0000
1000
,
0000
0001
0000
0001
,
0000
0010
0000
0100
,
0000
1001
1001
1001
,
1001
0001
0000
0010
,
0000
0100
0100
0100
,
0000
1000
0000
0010
,
0000
0100
0100
0100
,
0000
0001
0000
1000
,
0000
0100
0100
0100
,
0000
0010
0000
0001
,
0000
0100
0100
0100
,
0010
0000
0000
0000
;

//---------------dance-single - ----------------
#NOTES:
     dance-single:
     :
     Easy:
     6:
     0.231622,0.337449,0.135778,0.031948,0.000000,203.000000,186.000000,17.000000,4.000000,0.000000,0.000000,0.231622,0.337449,0.135778,0.031948,0.000000,203.000000,186.000000,17.000000,4.000000,0.000000,0.000000:
0000
0000
0000
0000
,
0000
0000
0000
0000
,
0000
0000
0000
0000
,
0000
0000
0000
0000
,
0000
0000
0000
0000
,
0000
0000
0000
0000
,
0000
0000
0000
0000
,
0000
0000
0000
0000
,
0000
0000
0000
0000
,
0000
0000
0000
0000
,
1000
0010
1000
0010
,
1000
0001
0100
0000
,
0001
0010
0001
0010
,
0001
1000
0100
0000
,
1000
0001
0010
0001
,
1000
0100
1000
0000
,
0001
0100
0001
1000
,
0010
0010
0010
0110
,
1000
0000
0001
0000
,
0010
0001
0010
0010
,
0010
0000
0100
0000
,
1000
0010
1000
1000
,
1000
0000
0001
0000
,
0100
0010
0100
0010
,
1000
0000
0001
0000
,
0010
0010
0001
1000
,
1001
0000
0001
0000
,
1000
0000
0010
0000
,
1000
0000
0100
0000
,
0010
0010
0100
0100
,
1000
0000
0001
0000
,
0100
0000
0010
0000
,
1000
0100
0010
0001
,
1001
0101
1001
1100
,
1000
0100
1000
0010
,
0100
0010
0100
0001
,
0010
0001
0010
0100
,
1000
0001
1000
0010
,
0100
0001
0100
0010
,
1000
0001
1000
0100
,
0020
0031
0002
1003
,
1001
0110
1001
0100
,
0000
1000
0010
1000
,
0000
0001
0100
0001
,
0100
0001
1000
0010
,
0000
1000
0100
0010
,
0001
1000
0010
0010
,
0000
0100
0001
0100
,
0010
1000
1000
0001
,
1001
1000
0000
0010
,
0000
0100
0000
0001
,
0000
1000
0000
0100
,
0000
0010
0001
0010
,
0100
1000
0000
0001
,
0000
0100
0000
0010
,
0000
1000
0010
0100
,
0001
1001
0011
1001
,
1010
0010
0100
0001
,
0100
0010
1000
0001
,
1000
0100
0010
0001
,
0010
0100
1000
0001
,
1000
0010
0100
0001
,
0010
0100
1000
0001
,
1000
0020
0130
0200
,
0301
0011
0110
1100
,
0001
0000
0000
0000
;

//---------------dance-single - ----------------
#NOTES:
     dance-single:
     :
     Medium:
     9:
     0.341157,0.468435,0.167726,0.119804,0.287531,299.000000,278.000000,21.000000,15.000000,0.000000,0.000000,0.341157,0.468435,0.167726,0.119804,0.287531,299.000000,278.000000,21.000000,15.000000,0.000000,0.000000:
0000
0000
0000
0000
,
0000
0000
0000
0000
,
0000
0000
0000
0000
,
0000
0000
0000
0000
,
0000
0000
0000
0000
,
0000
0000
0000
0000
,
0000
0000
0000
0000
,
0000
0000
0000
0000
,
0000
0000
0000
0000
,
0000
0000
0000
0000
,
1000
0100
0001
0100
,
1000
0000
0000
0001
0000
0001
0010
0000
0000
0000
0000
0000
,
0001
0100
1000
0100
,
0001
0000
0000
1000
0000
1000
0010
0000
0000
0000
0000
0000
,
1000
0100
0001
0001
,
0100
0000
0000
1000
0000
1000
0001
0000
0000
0000
0000
0000
,
2000
0010
3002
0010
,
1003
1100
0001
0101
,
0100
0001
0010
0001
,
0100
0000
0000
0001
0000
0000
0010
0000
0000
0001
0000
0001
,
1000
0010
1000
0100
,
1000
0000
0000
0010
0000
0000
1000
0000
0000
0001
0000
0001
,
0010
0100
0010
0001
,
1000
0000
0000
0010
0000
0000
0100
0000
0100
0010
0000
0010
,
1000
0001
1000
0100
,
0010
0001
1000
0010
,
0210
0000
0302
0000
,
2003
0000
3010
0000
,
0020
0000
2030
0000
,
3100
0000
0000
0010
0000
0000
0001
0000
0000
1000
0000
1000
,
0001
0100
0010
1000
,
0001
0010
0100
1000
,
0001
0000
1000
0000
0000
0001
1000
0000
0000
1001
0000
0000
,
0110
1010
0101
0011
,
1100
0000
1000
0100
0000
0100
0010
0000
0010
0001
0000
0001
,
1000
0000
0001
1000
0000
0001
1000
0000
0001
0010
0000
0001
,
1000
0000
1000
0010
0000
0010
0100
0000
0100
0001
0000
0001
,
1000
0000
0010
1000
0000
0010
1000
0000
0010
0100
0000
0000
,
0001
0000
1000
0001
0000
1000
0010
0000
1000
0010
0000
1000
,
0100
0000
0100
0010
0000
0010
0001
0000
0001
1000
0000
1000
,
0020
0000
0000
1030
0000
1000
0020
0000
0000
1030
0000
1000
,
0001
0000
0000
0011
0000
0000
0110
0000
0000
1100
0000
1000
,
0000
0000
0000
0010
0000
0000
1000
0000
1000
0001
0000
0000
,
0000
0010
0001
0100
,
0001
0000
0000
0010
0000
0000
0100
0000
0100
1000
0000
0000
,
0000
0001
0010
1000
,
0010
0000
0000
0001
0000
0000
1000
0000
0010
1000
0000
0000
,
0000
0002
0010
2003
,
0010
3001
0011
1000
,
1010
0000
0010
1000
0000
0000
0100
0000
0000
0010
0000
0000
,
0001
0002
0010
2003
,
0100
3001
0010
0100
,
0010
0001
0110
1000
,
0110
0000
0010
0100
0000
0000
0001
0000
0000
1000
0000
0000
,
0100
0010
0001
0100
,
0010
0000
0000
1000
0000
0001
0000
0000
1000
0001
0000
0000
,
0100
0110
1010
0011
,
1100
0000
0000
0101
0000
0001
0100
0000
0100
0010
0000
0010
,
1000
0000
1000
0001
0000
1000
0001
0000
1000
0001
0000
1000
,
0010
0000
0100
0001
0000
0001
0010
0000
0010
0100
0000
0100
,
1000
0000
1000
0001
0000
0100
0001
0000
0100
0001
0000
0100
,
0010
0000
0100
0010
0000
0010
1000
0000
1000
0001
0000
0001
,
0100
0000
0100
0001
0000
0010
0001
0000
0010
0001
0000
1000
,
0100
0000
1000
0200
0000
0000
0310
0000
0010
0002
0000
0000
,
0013
0000
0010
0100
0000
1000
0100
0000
0010
0001
0000
0000
,
1000
0000
1000
0000
0000
0000
0000
0000
0000
0000
0000
0000
;

//---------------dance-single - ----------------
#NOTES:
     dance-single:
     :
     Hard:
     13:
     0.591035,0.650605,0.215648,0.159739,1.066260,518.000000,491.000000,27.000000,20.000000,0.000000,0.000000,0.591035,0.650605,0.215648,0.159739,1.066260,518.000000,491.000000,27.000000,20.000000,0.000000,0.000000:
// measure 0
0000
0000
0000
0000
,  // measure 1
0000
0000
0000
0000
,  // measure 2
0000
0000
0000
0000
,  // measure 3
0000
0000
0000
0000
,  // measure 4
0000
0000
0000
0000
,  // measure 5
2000
0100
3002
0100
,  // measure 6
2003
0100
3002
0100
,  // measure 7
2003
0010
3002
0010
,  // measure 8
2003
3200
0000
0010
,  // measure 9
0000
0000
0000
0300
,  // measure 10
1000
0000
0100
1000
0100
0010
0001
0000
0100
0001
0100
0010
,  // measure 11
1000
0000
0001
0010
0000
0010
0100
0000
1000
0001
0010
0100
,  // measure 12
1000
0000
0010
1000
0010
0100
0001
0000
0010
0001
0010
0100
,  // measure 13
1000
0000
0010
1000
0000
1000
0100
0000
0010
0100
0010
0001
,  // measure 14
0100
0000
0100
0010
1000
0010
0100
0000
0100
0001
0010
0001
,  // measure 15
1000
0000
1000
0010
0000
0001
0010
0000
0010
1000
0010
0100
,  // measure 16
0001
0000
0100
0010
1000
0100
0010
0000
0100
0010
0001
0100
,  // measure 17
0010
0000
0000
1010
0000
0000
0101
0000
0000
1100
0000
1000
,  // measure 18
0001
0000
0010
0100
0000
0010
0001
0000
0001
1000
0000
1010
,  // measure 19
0000
0000
0011
0000
0000
0001
0010
0100
1000
0001
0000
1000
,  // measure 20
0100
0000
0100
0010
0000
0100
1000
0000
1000
0001
0000
0101
,  // measure 21
0000
0000
1100
0000
0000
0100
0010
0100
1000
0001
0000
0001
,  // measure 22
0100
0000
0010
1000
0000
1000
0010
0000
0100
0001
0000
0101
,  // measure 23
0000
0000
0100
0010
0000
1000
0001
0000
1000
0010
0100
0001
,  // measure 24
1000
0000
1000
0001
0000
0001
0010
0000
0010
0100
0000
0110
,  // measure 25
0000
0000
1001
0000
0000
0001
1000
0010
0100
0001
0000
0001
,  // measure 26
2000
3010
0020
1030
,  // measure 27
2000
3001
0002
0013
,  // measure 28
0020
0130
0200
1300
,  // measure 29
1100
0000
0000
0101
0000
0000
1100
0000
0000
0011
0000
0001
,  // measure 30
0010
0000
0001
0010
0000
0001
0100
0000
0001
0100
0000
0001
,  // measure 31
1000
0000
0010
1000
0000
0010
1000
0000
0010
1000
0000
0100
,  // measure 32
0010
0001
0010
0001
0010
0001
1000
0100
1000
0100
1000
0100
,  // measure 33
0010
0000
0000
0101
0000
0000
1100
0000
0000
1001
0000
0001
,  // measure 34
0010
0001
1000
0010
1000
0001
0100
0001
1000
0100
1000
0001
,  // measure 35
0010
0001
0100
0010
1000
0001
1000
0010
0001
0010
0100
0001
,  // measure 36
1000
0100
0010
0001
0100
0010
1000
0010
0100
0001
0010
0100
,  // measure 37
0010
0001
1000
0010
1000
0100
0010
0001
1000
0010
1000
0100
,  // measure 38
0001
0100
1000
0010
1000
0010
0001
0010
1000
0010
1000
0100
,  // measure 39
0001
0100
1000
0010
0100
0001
0010
0100
0010
0001
1000
0100
,  // measure 40
0020
0000
0000
0031
1000
0001
0200
0000
0000
0310
1000
0010
,  // measure 41
0100
0000
0001
0010
0000
0100
1000
0000
0000
1001
0000
0001
,  // measure 42
0000
0000
0000
1000
0000
1000
0010
0000
0100
0010
0000
0010
,  // measure 43
1000
0001
0010
0100
0000
1000
0010
1000
0001
0100
0000
0001
,  // measure 44
0010
0001
1000
0100
0000
0100
0010
0000
0010
0001
0000
1000
,  // measure 45
0010
0100
0001
0010
0000
0010
0001
0100
0001
1000
0000
1000
,  // measure 46
0010
0100
0010
1000
0000
1000
0001
0000
0010
0001
0000
0001
,  // measure 47
0100
0010
1000
0001
0000
0001
1000
0010
1000
0100
0000
0100
,  // measure 48
0010
0001
0010
0100
0000
0000
1100
0000
0000
0101
0000
0000
,  // measure 49
1001
0000
1000
0010
0000
0000
1000
0000
1000
0001
0000
0010
,  // measure 50
0000
0000
0010
0200
0000
0000
0300
0000
2000
0000
0000
0000
,  // measure 51
3001
0000
0000
1000
0000
0000
0001
0000
0001
0100
0000
0010
,  // measure 52
0000
0000
0010
1000
0010
0100
0001
1000
0000
1001
0000
0001
,  // measure 53
0010
0000
0001
0100
0000
0001
1000
0000
0010
1000
0000
0100
,  // measure 54
1000
0000
0001
1000
0000
0001
0010
0000
0100
1000
0000
0010
,  // measure 55
0100
0000
0001
1000
0010
1000
0010
1000
0010
0100
0001
0100
,  // measure 56
0001
0100
0001
0010
0000
0000
1100
0000
0000
0110
0000
0000
,  // measure 57
1001
0000
1000
0010
0100
0001
1000
0001
0100
0010
1000
0001
,  // measure 58
0100
0001
1000
0010
1000
0100
0010
0001
0100
0010
1000
0100
,  // measure 59
0001
0100
1000
0001
1000
0010
0100
0001
0010
0001
0100
0010
,  // measure 60
1000
0100
0010
0001
0100
0010
1000
0100
0010
0001
1000
0010
,  // measure 61
0001
0010
1000
0001
0100
0010
1000
0010
0100
0001
0010
0100
,  // measure 62
1000
0100
0010
0001
0010
0100
0001
0100
0010
0100
1000
0010
,  // measure 63
0001
0010
1000
0002
0000
0000
1003
0010
1000
0200
0000
0000
,  // measure 64
0310
0001
0010
0100
0000
1000
0100
0000
0010
0001
0000
0000
,  // measure 65
1001
0000
1001
0000
0000
0000
0000
0000
0000
0000
0000
0000
;
