#TITLE:Undercover;
#SUBTITLE:(Torpak);
#ARTIST:Hommarju;
#TITLETRANSLIT:;
#SUBTITLETRANSLIT:;
#ARTISTTRANSLIT:;
#GENRE:;
#CREDIT:;
#BANNER:Undercover-bn.png;
#BACKGROUND:Undercover-bg.png;
#LYRICSPATH:;
#CDTITLE:;
#MUSIC:Undercover.ogg;
#OFFSET:-0.066000;
#SAMPLESTART:60.978626;
#SAMPLELENGTH:14.999999;
#SELECTABLE:YES;
#BPMS:0.000000=130.000000
,30.000000=260.000000
,40.000000=130.000000
,137.666672=260.000000
,138.333328=130.000000
,140.000000=260.000000
,140.666672=130.000000
,146.333328=260.000000
,147.000000=130.000000
,148.666672=260.000000
,149.333328=130.000000
,155.000000=260.000000
,155.666672=130.000000
,157.333328=260.000000
,158.000000=130.000000
,231.333328=260.000000
,232.000000=130.000000
,233.666672=260.000000
,234.333328=130.000000
,240.000000=260.000000
,240.666672=130.000000
,242.333328=260.000000
,243.000000=130.000000
,249.000000=260.000000
,249.666672=130.000000
,251.333328=260.000000
,252.000000=130.000000
;
#STOPS:39.000000=0.462000,
169.666672=1.846000
;
#BGCHANGES:;
#KEYSOUNDS:;
#ATTACKS:;

//---------------dance-single - ----------------
#NOTES:
     dance-single:
     :
     Hard:
     11:
     0.428997,0.640258,0.178074,0.169980,0.603024,371.000000,349.000000,22.000000,21.000000,6.000000,0.000000,0.428997,0.640258,0.178074,0.169980,0.603024,371.000000,349.000000,22.000000,21.000000,6.000000,0.000000:
// measure 0
0000
0000
0000
0000
,  // measure 1
0000
0000
0000
0000
,  // measure 2
0000
0000
0000
0000
,  // measure 3
0000
0000
0000
0000
,  // measure 4
0001
0000
0010
0000
,  // measure 5
0100
0000
0000
0000
,  // measure 6
0010
0000
0100
0000
,  // measure 7
2000
0000
0002
0000
,  // measure 8
0000
0000
0000
0000
,  // measure 9
0000
0000
0000
3003
,  // measure 10
0100
0000
0000
0100
0000
0000
0010
0000
0010
0100
0000
0000
,  // measure 11
0001
0000
0001
1000
0000
1000
0001
0000
0000
0000
0000
0000
,  // measure 12
0010
0000
0000
0010
0000
0000
0100
0000
0100
0010
0000
0000
,  // measure 13
1000
0000
1000
0001
0000
0001
1000
0000
0000
0000
0000
0000
,  // measure 14
0002
0103
2000
3100
,  // measure 15
0002
0010
0100
1003
,  // measure 16
2000
3010
0002
0013
,  // measure 17
1000
0000
0000
1010
0000
0000
1001
0000
0000
0100
0000
0100
,  // measure 18
0010
0000
0000
0010
0000
0001
0100
0000
0100
0010
0000
1000
,  // measure 19
0010
0000
1000
0000
0000
0100
0010
0000
0010
0001
0000
0001
,  // measure 20
0100
0000
0000
0100
0000
1000
0010
0000
1000
0100
0000
0010
,  // measure 21
0000
0000
0010
0000
0000
0001
0100
0000
0010
1000
0000
0000
,  // measure 22
0100
0000
0000
0110
0000
0010
0100
0000
0100
0000
0000
1001
,  // measure 23
0000
0000
0100
0001
0000
1000
0100
0000
1000
0010
0000
0000
,  // measure 24
0101
0000
0000
0000
0000
0010
0010
0000
0010
0000
0000
1100
,  // measure 25
0000
0000
1100
0000
0000
0010
0010
0000
0010
0001
0000
0000
,  // measure 26
0200
0001
0010
0010
,  // measure 27
1000
1000
1000
2300
,  // measure 28
0100
0100
0001
0001
,  // measure 29
0010
0010
0010
3020
,  // measure 30
1000
1000
0100
0100
,  // measure 31
0001
0001
0001
0032
,  // measure 32
1000
0000
0010
0000
0000
0010
0000
0000
0000
1003
0000
0000
,  // measure 33
1000
0000
0000
1100
0000
0000
1001
0000
0000
0110
0000
0100
,  // measure 34
0010
0001
0010
0001
0000
0010
M000
0100
0010
0100
0010
0000
,  // measure 35
0100
000M
1000
0100
1000
0100
1000
0100
1000
0100
1000
0010
,  // measure 36
0000
0100
0001
0100
0001
0100
0000
0001
M000
0100
0010
0100
,  // measure 37
0010
0000
0100
000M
0010
1000
0010
1000
0010
1000
0010
1000
,  // measure 38
0010
1000
0000
0100
0010
0100
0010
0100
0000
1000
00M0
0001
,  // measure 39
1000
0001
1000
0000
0100
000M
0010
0001
0010
0001
0000
1000
,  // measure 40
0100
1000
0100
1000
0010
0100
0002
0000
0000
1003
0100
0010
,  // measure 41
0002
0000
0000
1003
0100
0010
0001
0000
0001
1000
0000
1000
,  // measure 42
0100
0000
0000
0110
0000
0010
0001
0000
0000
0001
0000
0000
,  // measure 43
0001
0000
0000
0100
1000
0100
0010
0000
0000
0010
0000
0000
,  // measure 44
0100
0000
0000
0100
0000
0000
0010
0000
1000
0010
0000
1000
,  // measure 45
0100
0000
0000
0010
0000
0100
0010
0000
0000
1010
0000
0000
,  // measure 46
1100
0000
0000
0101
0000
0000
0001
0000
0000
0100
0000
1000
,  // measure 47
0200
0000
0000
0301
0000
0000
0010
0000
0010
0100
0000
0100
,  // measure 48
0010
0000
0010
0001
0000
0001
1000
0000
0000
1100
0000
0000
,  // measure 49
1001
1010
0200
1000
,  // measure 50
0010
0010
0001
0001
,  // measure 51
0001
0302
0100
0100
,  // measure 52
1000
1000
0010
0010
,  // measure 53
0010
0023
0001
0001
,  // measure 54
0100
0100
1000
1000
,  // measure 55
1000
1030
0200
0000
,  // measure 56
0320
0000
0130
0110
,  // measure 57
1001
0000
0000
0110
0000
0010
0001
1000
0001
1000
0001
0000
,  // measure 58
1000
0010
0100
0010
0100
0010
0000
0100
0001
0100
0001
0100
,  // measure 59
0001
0100
0010
1000
0010
1000
0010
1000
0010
0100
0010
0100
,  // measure 60
0010
0000
0100
0001
1000
0001
1000
0001
0000
1000
0001
0010
,  // measure 61
0001
0010
0001
0010
0100
1000
0100
1000
0000
0100
0010
0000
,  // measure 62
0000
0010
0000
0010
0000
0010
0000
0000
0100
0000
0100
0000
,  // measure 63
0100
0010
0001
0000
1000
0001
0000
1000
0100
0000
0010
0100
,  // measure 64
0020
0000
0030
0001
0010
0100
0020
0000
0030
0001
0010
0100
,  // measure 65
0010
0000
0001
0100
0000
0100
0010
0000
0000
1001
0000
1001
;
