#TITLE:Unbelief;
#SUBTITLE:;
#ARTIST:BEMANI Sound Team "Anonymous";
#TITLETRANSLIT:;
#SUBTITLETRANSLIT:;
#ARTISTTRANSLIT:Anonymous;
#GENRE:;
#CREDIT:;
#MENUCOLOR:;
#METERTYPE:DDR;
#BANNER:Unbelief.png;
#BACKGROUND:Unbelief-bg.png;
#LYRICSPATH:;
#CDTITLE:./CDTITLES/BEATMANIA IIDX.PNG;
#MUSIC:Unbelief.ogg;
#OFFSET:0.000;
#SAMPLESTART:71.111;
#SAMPLELENGTH:15.000;
#SELECTABLE:YES;
#LISTSORT:;
#DISPLAYBPM:68.000:135.000;
#BPMS:0.000=67.500,12.000=135.000,60.000=67.500,68.000=135.000,204.000=67.500,212.000=135.000,244.000=67.500;
#STOPS:;
#BGCHANGES:;
#ATTACKS:;

//---------------dance-single - ----------------
#NOTES:
     dance-single:
     :
     Beginner:
     4:
     0.137,0.143,0.000,0.084,0.000:
0000
0000
0000
0000
,
0000
0000
0000
0000
,
0000
0000
0000
0000
,
1000
0000
0000
0000
,
0001
0001
0001
0000
,
0001
0000
0000
0000
,
1000
1000
1000
0000
,
0010
0000
0010
0000
,
0100
0000
0100
0000
,
0001
0000
0001
0000
,
1000
1000
1000
0000
,
0100
0000
0100
0000
,
0010
0000
0010
0000
,
0001
0000
0001
0000
,
0100
0000
0100
0100
,
0100
0000
0010
0000
,
1000
0000
0001
0000
,
2000
0000
0000
3000
,
0002
0000
0000
0003
,
0200
0000
0000
0300
,
0020
0000
0000
0030
,
2000
0000
0000
3000
,
0200
0000
0000
0300
,
0020
0000
0000
0030
,
0002
0000
0000
0003
,
1000
0000
1000
0000
,
0100
0000
0100
0000
,
0010
0010
0010
0000
,
0010
0010
0010
0000
,
0001
0000
1000
0000
,
0001
0000
0100
0100
,
0100
0000
0010
0000
,
1000
0000
0001
0000
,
1000
0000
1000
0000
,
0002
0000
0000
0003
,
1000
0000
1000
0000
,
0001
0001
0001
0000
,
0100
0000
0100
0000
,
0010
0010
0010
0000
,
1000
0000
0100
0000
,
0001
0000
0100
0000
,
1000
1000
1000
0000
,
0001
0000
0001
0000
,
0100
0000
0010
0000
,
0100
0100
0100
0000
,
0001
0000
0010
0000
,
0100
0000
1000
0000
,
0001
0000
0100
0000
,
1000
0000
0100
0000
,
0001
0000
1000
0000
,
0001
0001
0001
0000
,
1000
0000
0000
0000
,
0001
0000
0000
0000
,
0100
0100
0000
0000
,
0010
0010
0000
0000
,
1000
0000
0000
0000
,
0001
0000
0000
0000
,
1000
1000
0000
0000
,
0100
0100
0000
0000
,
0010
0010
0000
0000
,
0001
0001
0000
0000
,
0200
0000
0300
0000
,
0020
0000
0030
0000
;

//---------------dance-single - ----------------
#NOTES:
     dance-single:
     :
     Easy:
     7:
     0.349,0.356,0.137,0.304,0.011:
0000
0000
0000
0000
,
0000
0000
0000
0000
,
0000
0000
0000
0000
,
1000
0000
0000
0001
0000
0000
2001
0000
,
3001
0010
0100
0110
,
0001
0000
0000
1000
0000
0000
1002
0000
,
1003
0010
0220
0330
,
1000
0000
0000
0200
0000
0000
0310
0000
,
0001
0000
0000
0200
0000
0000
0310
0000
,
1000
0000
0000
0020
0000
0000
0130
0000
,
0001
0010
0100
1000
,
0001
0000
0000
2000
0000
0000
3010
0000
,
1000
0000
0000
0002
0000
0000
0013
0000
,
0001
0000
0000
0200
0000
0000
0310
0000
,
1000
0100
0010
0001
,
2000
3001
0200
0310
,
2000
0000
3100
0000
0010
0001
1000
0001
,
2000
0000
0000
3001
,
1000
0100
1000
0000
0001
0100
0001
0000
,
1000
0000
0010
0000
0100
0010
0100
0000
,
0001
0000
0010
0000
0100
1000
0002
0000
,
2003
0010
0001
3100
,
0002
0010
1000
0103
,
2000
0100
0001
3010
,
0001
0100
0001
0000
1000
0010
1000
0000
,
0001
1000
0001
0000
1001
0000
1000
0000
,
0100
0010
0100
0000
0010
0000
0001
0000
,
1000
0100
0001
0100
,
1000
0000
0010
0000
0100
0010
0100
0000
,
0110
0000
0001
0000
1000
0001
1000
0000
,
1001
0110
0101
1100
,
0010
0020
0000
0000
0031
0000
1000
0000
,
0100
0200
0000
0000
0310
0000
0001
0000
,
1000
2000
0000
0000
3010
0000
0100
0000
,
0001
1000
0001
1000
0002
0000
0003
0000
,
1000
1100
1001
1010
,
0002
0000
1003
0100
0010
0000
0001
0000
,
1000
0100
1000
0000
0001
0100
0001
0000
,
1000
0010
0100
0001
1000
0001
2000
0000
,
3001
0000
0010
0100
1000
0000
0100
0000
,
1000
0000
0010
0100
0001
0000
0100
0000
,
0010
0000
0100
0001
1000
0000
0010
0000
,
2000
0000
3001
1000
0200
0000
0300
0000
,
1001
0011
1001
0101
,
2000
0000
3001
0010
0100
0000
1000
0000
,
0001
0010
0001
0000
1000
0010
1000
0000
,
0001
0100
0010
1000
0001
1000
0002
0000
,
1003
0000
0100
0010
0001
0000
0010
0000
,
0001
0000
0100
0010
1000
0000
0010
0000
,
0100
0000
0010
1000
0001
0000
0010
0000
,
0002
0000
1003
0001
2000
0000
0000
0000
,
3002
1000
0000
1003
,
2000
0001
0000
3001
,
1000
0100
0020
0000
0001
0000
0130
0000
,
0001
0000
0100
1000
0100
0000
0001
1000
,
0002
0000
0013
0100
1000
0000
0100
0000
,
0010
0000
0000
0001
0000
0000
1000
0000
0002
0000
0000
0000
1003
0000
0000
0000
,
0001
0100
0020
0000
1000
0000
0130
0000
,
1000
0000
0010
0001
0010
0000
1000
0001
,
2000
0000
3100
0010
0002
0000
0013
0000
,
0100
0000
0000
0010
0000
0000
0001
0000
0100
0000
0000
0010
0000
0000
0110
0000
,
0200
0000
0300
0000
,
0020
0000
0030
0000
;

//---------------dance-single - ----------------
#NOTES:
     dance-single:
     :
     Medium:
     12:
     0.558,0.523,0.236,0.236,0.422: // measure 1
0000
0000
0000
0000
,  // measure 2
0000
0000
0000
0000
,  // measure 3
0000
0000
0000
0000
,  // measure 4
1000
0000
0100
1000
0000
0000
0001
0000
0100
0001
0000
0000
0110
0000
0000
0000
,  // measure 5
0001
0101
1100
0101
,  // measure 6
1000
0000
0010
1000
0000
0000
0001
0000
0010
0001
0000
0000
0110
0000
0000
0000
,  // measure 7
1000
0000
0000
0000
1100
0000
0000
0000
0001
0000
1000
0002
0000
0000
0000
0000
,  // measure 8
1003
0000
0010
0100
0000
0010
2000
0000
0000
0000
3001
0000
0010
0000
0100
0000
,  // measure 9
1000
0000
0100
0010
0000
0100
2000
0000
0000
0000
3001
0000
0100
0000
0010
0000
,  // measure 10
0100
0000
0001
0100
0000
0010
0200
0000
0000
0000
0301
0000
0010
0000
0001
0000
,  // measure 11
1000
0000
0100
0000
0010
0000
0001
0000
1000
0000
0001
0000
0100
0020
0000
0000
,  // measure 12
1030
0000
0010
0100
0000
0000
0120
0000
0000
0000
1030
0000
0001
0000
0100
0000
,  // measure 13
0001
0000
0010
0100
0000
0000
0120
0000
0000
0000
0031
0000
1000
0000
0010
0000
,  // measure 14
0100
0000
0010
0100
0000
0000
0210
0000
0000
0000
0301
0000
0100
0000
0010
0000
,  // measure 15
1000
0000
0100
0000
1000
0001
1000
0000
0001
0000
0100
0000
0001
1000
0001
0000
,  // measure 16
1000
0100
0000
0000
0110
0000
0001
0000
0100
0001
0000
0000
0110
0000
1000
0000
,  // measure 17
0001
0000
0010
0000
0000
0000
0000
0000
1100
0000
0000
0000
0000
0000
0000
0000
0001
0000
0000
1000
0000
0000
1001
0000
0010
0000
0100
0000
0001
1000
0001
0000
,  // measure 18
2000
0000
0000
0000
0000
3010
0100
0000
,  // measure 19
0001
0010
0100
1000
0100
0001
0100
1000
,  // measure 20
0100
0010
0001
0100
0010
1000
0010
0001
,  // measure 21
0010
0000
0100
0000
0001
0000
0010
0000
0100
0000
1000
0001
2000
0000
0000
0000
,  // measure 22
3002
0000
0000
0010
0000
1000
0000
0100
0000
1000
0000
0000
0013
0000
0001
0000
,  // measure 23
2000
0000
0000
0010
0000
0001
0000
0100
0000
0001
0000
0000
3010
0000
1000
0000
,  // measure 24
0002
0000
0000
0100
0000
1000
0000
0100
0000
0010
0000
0000
1003
0000
0001
0000
,  // measure 25
1000
0000
0100
0000
1000
0010
1000
0000
0001
0000
0100
0000
0001
0010
0001
0000
,  // measure 26
1000
0001
1001
0000
0101
0001
1000
0000
,  // measure 27
0001
0010
0110
0000
0010
0001
1001
0000
,  // measure 28
1000
0100
1000
0001
0100
0001
1000
0010
1000
0001
0010
0001
,  // measure 29
1000
0000
0100
0000
0010
0000
0001
0000
0000
1000
0000
0000
0001
0000
0000
0100
0000
0000
0101
0000
0000
0000
0000
0000
,  // measure 30
0110
0010
1000
0000
0100
1000
1010
0000
,  // measure 31
0100
0001
0011
0000
0110
0000
1001
0000
,  // measure 32
2010
0000
0010
0000
0000
0000
3010
0100
0010
0000
0000
0000
1000
0000
1000
0000
,  // measure 33
0001
0002
0000
0000
0013
0000
0001
0001
,  // measure 34
0100
0000
0200
0000
0000
0000
0310
1000
0010
0000
1000
0001
1000
0000
0001
0000
,  // measure 35
0100
0100
0100
0100
0020
0000
1030
0001
,  // measure 36
1000
0100
0001
0100
0010
0001
1000
0001
,  // measure 37
0100
0000
0000
0100
0010
0000
1000
0000
0010
0000
0100
0001
0000
1000
0001
0000
,  // measure 38
1000
0100
1000
0000
0001
0000
0010
0000
0100
0000
1000
0000
0001
0100
0001
0000
,  // measure 39
1000
0010
1000
0000
0001
0000
0100
0000
0010
0000
1000
0001
2000
0000
0000
0000
,  // measure 40
3001
0010
0001
0010
1000
0010
1000
0010
,  // measure 41
0001
0100
0001
0100
1000
0100
1000
0100
,  // measure 42
0002
0000
0013
0100
1000
0001
0100
1000
,  // measure 43
0200
0000
0000
0000
0310
0000
1000
0001
2000
0000
0000
0000
3001
0000
0000
0000
,  // measure 44
1001
0010
1000
0010
0100
1000
0001
1000
,  // measure 45
0010
0000
0000
0010
0100
0000
0001
0000
0100
0000
0010
1000
0000
0001
1000
0000
,  // measure 46
0001
0010
0001
0000
1000
0000
0100
0000
0010
0000
0001
0000
1000
0010
1000
0000
,  // measure 47
0001
0100
0001
0000
1000
0000
0010
0000
0100
0000
0001
1000
0002
0000
0000
0000
,  // measure 48
1003
0000
0100
0000
0001
0100
0000
0010
0100
0000
1000
0100
0000
1000
0001
0000
,  // measure 49
1000
0000
0010
0000
0001
0010
0000
0100
0010
0000
1000
0010
0000
1000
0001
0000
,  // measure 50
0020
0000
0130
1000
0010
0001
0010
0100
,  // measure 51
0002
0000
0000
0000
1003
0000
0001
0100
0001
0010
0000
0100
1000
0000
0001
1000
,  // measure 52
0002
1000
0000
1003
,  // measure 53
2000
0001
0000
3001
,  // measure 54
1000
0100
1000
0100
1000
0000
0000
0000
1001
0000
0001
0000
0100
0000
0001
0000
,  // measure 55
1000
0000
0000
1000
0100
0000
0000
0100
0010
0000
0000
0010
0001
0000
0000
0001
0100
0000
0000
0100
0010
0000
0000
0010
,  // measure 56
2000
0000
0000
0000
0000
0000
3001
0100
0001
0000
1000
0010
0000
1000
0001
0000
,  // measure 57
0100
0000
0010
1000
0000
0001
1000
0000
2010
0000
0000
0000
0000
0000
0000
0000
,  // measure 58
3001
0010
0001
0010
0001
0000
0000
0000
1001
0000
1000
0000
0010
0000
1000
0000
,  // measure 59
0001
0000
0000
0001
0010
0000
0000
0010
0100
0000
0000
0100
1000
0000
0000
1000
0010
0000
0000
0010
0100
0000
0000
0100
,  // measure 60
0002
0000
0000
0000
0000
0000
1003
0010
1000
0000
0001
0100
0000
0001
1000
0000
,  // measure 61
0010
0000
0100
0001
0000
1000
0001
0000
1001
0000
0000
0110
0000
0000
0101
0000
,  // measure 62
0020
0000
0030
0000
,  // measure 63
0200
0000
0300
0000
;

//---------------dance-single - ----------------
#NOTES:
     dance-single:
     :
     Hard:
     17:
     0.777,0.808,0.160,0.243,1.000: // measure 1
0000
0000
0000
0000
,  // measure 2
0000
0000
0000
0000
,  // measure 3
0000
0000
0000
0000
,  // measure 4
1000
0100
1000
0100
0000
0000
0010
0001
0010
0001
0000
0000
1000
0020
0000
0000
,  // measure 5
0130
0101
1100
0101
,  // measure 6
0001
0010
0001
0010
0000
0000
0100
1000
0100
1000
0000
0000
0010
0200
0000
0000
,  // measure 7
0310
0000
0000
0000
0110
0000
0000
0000
0001
1000
0001
2000
0000
0000
0000
0000
,  // measure 8
3001
0000
0010
0100
0000
1000
0200
0000
0000
0310
0001
0000
1000
0000
0001
0000
,  // measure 9
1000
0000
0010
0100
0000
0001
0200
0000
0000
0310
1000
0000
0001
0000
1000
0000
,  // measure 10
0001
0000
0010
0100
0000
1000
0200
0000
0000
0310
0001
0000
1000
0000
0010
0000
,  // measure 11
1000
0100
1000
0000
0001
0100
0001
0000
1000
0010
1000
0001
0100
0020
0000
0000
,  // measure 12
1030
0000
0001
0010
0100
0000
0110
0000
0000
0000
1001
0000
0001
0100
0010
0000
,  // measure 13
0100
0000
0010
0100
0001
0000
0101
0000
0000
0000
1100
0000
0100
1000
0010
0000
,  // measure 14
1000
0000
0001
0010
0100
0000
0110
0000
0000
0000
0011
0000
0001
1000
0010
0000
,  // measure 15
1000
0100
1000
0100
0010
0001
1000
0000
0001
0100
0001
0100
0010
1000
0001
1000
,  // measure 16
0001
0000
0100
0000
0000
0000
0100
0010
1000
0000
0000
0001
0000
0000
0001
1000
0100
0000
0000
0100
0000
0000
0100
0010
0001
0100
0000
0000
0001
1000
0000
0000
,  // measure 17
0100
0000
0010
0000
0000
0000
0010
0100
1000
0000
0000
0000
0010
0000
0000
0000
0100
0000
0000
0110
0000
0000
1001
0000
0001
0000
1000
0001
1000
0001
1000
0001
,  // measure 18
2000
0000
0000
0000
0000
0000
0000
0000
0000
0000
3001
0000
0010
0100
1000
0000
,  // measure 19
0010
0100
0001
0000
0100
0010
1000
0000
0001
1000
0010
0000
1000
0100
0010
0000
,  // measure 20
0001
0100
0001
0100
0010
1000
0010
1000
0010
0100
0010
0100
0001
1000
0100
0000
,  // measure 21
1000
0100
1000
0100
0010
0100
0010
0100
1000
0100
0010
0001
1000
0002
0000
0000
,  // measure 22
1003
0000
0010
0200
0000
0001
0000
0010
0000
0010
0000
0310
0100
0000
0010
1000
,  // measure 23
0001
0000
0010
0200
0000
1000
0000
0010
0000
0010
0000
0310
0100
0000
0010
0001
,  // measure 24
1000
0000
0010
0200
0000
0010
0000
0001
0000
0001
0000
0301
1000
0000
0001
0000
,  // measure 25
1000
0100
1000
0100
0010
0100
1000
0000
0001
0100
0001
0100
0010
0100
0001
1000
,  // measure 26
0001
0000
0100
0000
0001
0000
0100
0000
0001
0000
0100
0000
0001
0000
0000
0000
0000
0000
0000
0000
0000
0000
0000
0000
1001
0000
0000
0000
0000
0000
1000
0000
0000
0100
0000
0000
0010
0000
0000
0000
0000
0000
0100
0000
0000
0000
0000
0000
,  // measure 27
1000
0010
1000
0001
0000
0000
1000
0000
0000
0001
0000
0000
1000
0000
0000
0100
0000
0000
0010
0100
0010
0001
0000
0000
,  // measure 28
1000
0100
0001
1000
0010
0001
1000
0100
0001
1000
0010
0001
,  // measure 29
0100
0000
0000
0010
0000
0000
1000
0000
0000
0001
0000
0000
1000
0000
0001
0000
0100
0000
0001
0000
0000
0000
0000
0000
1000
0000
0100
0000
1000
0000
0100
0000
1000
0000
0100
0000
1000
0000
0000
0000
0000
0000
0000
0000
0000
0000
0000
0000
,  // measure 30
1001
0000
0000
0000
0000
0000
0001
0000
0100
0000
0001
0000
1000
0000
0000
0000
0000
0000
0001
0000
0000
0000
0000
0000
1000
0000
0010
0000
1000
0000
0010
0000
0100
0000
0010
0000
0100
0000
0000
0000
0000
0000
0010
0000
0000
1000
0000
0000
,  // measure 31
0001
0000
0010
0100
1000
0010
0100
0010
1000
0000
0000
0000
1002
0000
0000
0000
,  // measure 32
1003
0000
0000
2000
0000
0000
0000
0000
0000
3100
0010
0001
1000
0000
0000
0000
0000
0000
0001
1000
0001
1000
0001
1000
,  // measure 33
0001
0000
0000
0002
0000
0000
0000
0000
0000
0000
0000
0000
0013
0000
0000
0000
0000
0000
0100
0010
0100
0010
0100
0010
,  // measure 34
0100
0000
0000
0200
0000
0000
0000
0000
0000
0310
0001
1000
0001
0000
0000
1000
0001
0100
0001
0000
0000
1000
0000
0000
,  // measure 35
0001
0000
1000
0000
1001
0000
1001
0000
2001
0000
0000
0000
3001
1000
0001
1000
,  // measure 36
0001
0010
0001
0100
1000
0100
0001
0010
0100
0010
0100
0010
0001
0000
1000
0000
,  // measure 37
0002
0000
0000
1003
0100
0010
0100
0000
1000
0000
0001
0100
0000
1000
0100
0000
,  // measure 38
0001
0010
0001
0010
0100
1000
0100
1000
0001
0100
0001
0100
0010
1000
0010
1000
,  // measure 39
0001
0010
0100
1000
0100
0010
0001
0010
0100
1000
0001
1000
0020
0000
0000
0000
,  // measure 40
1030
0100
1000
0100
0010
0100
0010
0100
0010
0001
0010
0001
1000
0100
1000
0100
,  // measure 41
0010
0100
0010
0100
0010
0001
1000
0001
0100
0001
1000
0001
0100
0010
1000
0010
,  // measure 42
0200
0000
0000
0000
0310
0000
1000
0100
0010
0000
0001
0000
0100
0000
1000
0000
,  // measure 43
0200
0000
0000
0000
0310
0000
1000
0001
1000
0100
0000
1000
0000
0001
0100
0001
,  // measure 44
1000
0100
1000
0010
0001
0010
1000
0100
0010
0100
0010
0100
1000
0000
0001
0000
,  // measure 45
2000
0000
0000
3001
0010
0100
0010
0000
0001
0000
1000
0010
0000
0001
0010
0000
,  // measure 46
1000
0100
1000
0100
0010
0001
0010
0001
1000
0010
1000
0010
0100
0001
0100
0001
,  // measure 47
1000
0100
0010
0001
0010
0100
1000
0100
0010
0001
1000
0001
0200
0000
0000
0000
,  // measure 48
0301
0010
0001
0010
1000
0010
1000
0010
0100
0010
0100
0010
0001
0100
0001
1000
,  // measure 49
0001
0100
0001
0100
1000
0100
1000
0100
0010
0100
0010
0100
0001
0010
0100
1000
,  // measure 50
0002
0000
0000
0000
0013
0000
1000
0010
0100
0000
1000
0000
0010
0000
0001
0000
,  // measure 51
0020
0000
0000
0000
1030
0000
0001
0100
0010
1000
0000
0001
0000
1000
0001
0000
,  // measure 52
2001
0001
0000
3001
,  // measure 53
0200
0010
0000
0310
,  // measure 54
1000
0100
0001
0100
1000
0000
0001
0000
0010
0000
0001
0100
0001
0000
1000
0000
,  // measure 55
0001
0010
0001
0010
0100
0010
0100
0010
0001
0100
0001
0100
0010
0100
0010
0100
0001
0010
0001
0010
0100
1000
0100
1000
,  // measure 56
0002
0000
0000
0000
0000
0000
0103
0010
1000
0000
0010
1000
0000
0100
0001
0000
,  // measure 57
0100
0000
1000
0010
0000
0001
0010
0000
0200
0000
0000
0000
0000
0000
0000
0000
,  // measure 58
0301
0010
1000
0010
0001
0000
1000
0000
0100
0000
1000
0010
1000
0000
0001
0000
,  // measure 59
1000
0100
1000
0100
0010
0100
0010
0100
1000
0010
1000
0010
0100
0010
0100
0010
1000
0100
1000
0100
0010
0001
0010
0001
,  // measure 60
2000
0000
0000
0000
0000
0000
3010
0100
0001
0000
0100
0001
0000
0010
1000
0000
,  // measure 61
0010
0000
0001
0100
0000
1000
0100
0000
0010
0000
0000
0110
0000
0000
1001
0000
,  // measure 62
0020
0000
0030
0000
,  // measure 63
0200
0000
0300
0000
;
