#TITLE:UZIEL;
#SUBTITLE:;
#ARTIST:murumuru-kurotou;
#TITLETRANSLIT:;
#SUBTITLETRANSLIT:;
#ARTISTTRANSLIT:;
#GENRE:;
#CREDIT:;
#MENUCOLOR:;
#METERTYPE:DDR;
#BANNER:UZIEL.png;
#BACKGROUND:UZIEL-bg.png;
#LYRICSPATH:;
#CDTITLE:./CDTITLES/BEATMANIA.PNG;
#MUSIC:UZIEL.ogg;
#OFFSET:0.000;
#SAMPLESTART:28.023;
#SAMPLELENGTH:15.000;
#SELECTABLE:YES;
#LISTSORT:;
#DISPLAYBPM:180.000;
#BPMS:0.000=179.850;
#STOPS:;
#BGCHANGES:;
#ATTACKS:;

//---------------dance-single - ----------------
#NOTES:
     dance-single:
     :
     Easy:
     5:
     0.189,0.255,0.000,0.000,0.000:
0000
0000
0000
0000
,
0000
0000
0000
0000
,
0000
0000
0000
0000
,
0000
0000
0000
0000
,
0000
0000
0000
0000
,
0000
0000
0000
0000
,
0000
0000
0000
0000
,
0000
0000
0000
0000
,
0000
0000
0000
0000
,
0001
0000
0001
0000
,
0001
0000
0000
0000
,
1000
0000
1000
0000
,
1000
0000
0000
0000
,
0010
0000
0010
0000
,
0010
0000
0000
0000
,
0100
0000
0100
0000
,
0100
0000
0000
0000
,
0001
0000
1000
0000
,
0001
0000
0000
0000
,
1000
0000
0001
0000
,
1000
0000
0000
0000
,
0001
0000
0100
0000
,
0010
0000
1000
0000
,
0001
0000
0100
0000
,
0010
0000
1000
0000
,
0001
0000
0010
0000
,
0100
0000
1000
0000
,
0001
0000
0010
0000
,
0100
0000
1000
0000
,
0001
0001
0001
0001
,
0001
0000
0000
0000
,
1000
1000
1000
1000
,
1000
0000
0000
0000
,
0010
0010
0010
0010
,
0010
0000
0000
0000
,
0100
0100
0100
0100
,
0100
0000
0000
0000
,
0010
0000
1000
0000
,
0001
0000
0100
0000
,
0010
0000
1000
0000
,
0001
0000
0100
0000
,
0100
0000
0001
0000
,
1000
0000
0010
0000
,
0100
0000
0001
0000
,
1000
0000
0010
0000
,
1000
1000
1000
1000
,
1000
0000
0000
0000
,
0001
0001
0001
0001
,
0001
0000
0000
0000
,
0010
0000
0010
0010
,
0010
0000
0010
0000
,
0100
0000
0100
0100
,
0100
0000
0100
0000
,
1000
0000
1000
1000
,
1000
0000
1000
0000
,
0001
0000
0001
0001
,
0001
0000
0001
0000
,
1000
0000
0001
1000
,
0001
0000
0001
0000
,
0100
0000
0010
0100
,
0010
0000
0010
0000
;

//---------------dance-single - ----------------
#NOTES:
     dance-single:
     :
     Medium:
     8:
     0.408,0.513,0.096,0.253,0.000: // measure 1
0000
0000
0000
0000
,  // measure 2
0000
0000
0000
0000
,  // measure 3
0000
0000
0000
0000
,  // measure 4
0000
0000
0000
0000
,  // measure 5
0000
0000
0000
0000
,  // measure 6
0000
0000
0000
0000
,  // measure 7
0000
0000
0000
0000
,  // measure 8
0000
0000
0000
0000
,  // measure 9
0000
0000
0000
0000
,  // measure 10
0001
0000
0000
0100
0100
0000
0100
0000
,  // measure 11
0010
0000
0000
1000
1000
0000
1000
0000
,  // measure 12
0001
0000
0000
0010
0010
0000
0100
0000
,  // measure 13
0100
0000
0000
1000
1000
0000
0001
0000
,  // measure 14
1000
0000
0000
0100
0100
0000
0100
0000
,  // measure 15
0010
0000
0000
0001
0001
0000
0001
0000
,  // measure 16
1000
0000
0000
0010
0010
0000
0010
0000
,  // measure 17
0100
0000
0000
0001
0001
0000
1000
0000
,  // measure 18
0001
0000
0000
0010
0010
0000
0010
0000
,  // measure 19
0100
0000
0000
1000
1000
0000
1000
0000
,  // measure 20
0001
0000
0000
0100
0100
0000
0100
0000
,  // measure 21
0010
0000
0000
1000
1000
0000
0001
0000
,  // measure 22
1000
0000
0000
0100
0000
0000
0000
0000
,  // measure 23
1000
1000
0000
0001
0000
2000
0000
0000
,  // measure 24
3001
0000
0000
0100
0000
0000
0000
0000
,  // measure 25
0010
0010
0000
0100
0000
0020
0000
0000
,  // measure 26
1030
0000
0000
0001
0000
0000
0000
0000
,  // measure 27
0010
0010
0000
0001
0000
2000
0000
0000
,  // measure 28
3001
0000
0000
0100
0000
0000
0000
0001
,  // measure 29
0001
0000
1000
0001
0000
0000
0000
0000
,  // measure 30
0100
0000
0000
0100
0010
0000
0100
0000
,  // measure 31
0020
2030
3002
0203
,  // measure 32
0310
0000
0000
0010
0100
0000
0010
0000
,  // measure 33
0200
0302
2003
3020
,  // measure 34
1030
0000
0000
1000
0001
0000
1000
0000
,  // measure 35
0002
0023
0230
2300
,  // measure 36
3001
0000
0000
0001
1000
0000
0001
0000
,  // measure 37
2000
3020
0230
0302
,  // measure 38
1003
0100
0000
1000
0000
0001
1000
0000
,  // measure 39
0001
0100
0000
0001
0000
1000
0001
0000
,  // measure 40
1000
0010
0000
1000
0000
0001
1000
0000
,  // measure 41
0001
0010
0000
0001
0000
1000
0001
0000
,  // measure 42
1000
1000
0000
0010
0000
0100
0010
0000
,  // measure 43
1000
1000
0000
0100
0000
0100
0010
0000
,  // measure 44
0001
0001
0000
0010
0000
0001
0100
0000
,  // measure 45
0010
0010
0000
0100
0000
0100
0001
0000
,  // measure 46
1001
0000
0000
0110
0000
0000
1000
0000
,  // measure 47
0002
0000
0000
0010
0013
0000
0010
0000
,  // measure 48
1001
0000
0000
0110
0000
0000
0001
0000
,  // measure 49
2000
0000
0000
0010
3010
0000
0010
0000
,  // measure 50
1000
0000
0100
1000
0100
0000
1000
0000
,  // measure 51
0001
1000
1001
0000
,  // measure 52
0001
0000
0100
0001
0100
0000
0001
0000
,  // measure 53
1000
0001
1001
0000
,  // measure 54
0010
0000
0100
0010
0100
0000
0010
0000
,  // measure 55
1000
0100
1100
0000
,  // measure 56
0010
0000
0100
0010
0100
0000
0001
0000
,  // measure 57
0010
0001
0011
0000
,  // measure 58
1000
0100
0000
1000
0001
0000
0000
0100
,  // measure 59
0010
1000
0001
0000
,  // measure 60
1000
0010
0000
0001
0010
0000
0000
1000
,  // measure 61
0100
0000
1000
0000
0001
0000
0100
0010
;

//---------------dance-single - ----------------
#NOTES:
     dance-single:
     :
     Hard:
     11:
     0.561,0.623,0.301,0.325,0.000: // measure 1
0000
0000
0000
0000
,  // measure 2
0000
0000
0000
0000
,  // measure 3
0000
0000
0000
0000
,  // measure 4
0000
0000
0000
0000
,  // measure 5
0000
0000
0000
0000
,  // measure 6
0000
0000
0000
0000
,  // measure 7
0000
0000
0000
0000
,  // measure 8
0000
0000
0000
0000
,  // measure 9
0000
0000
0000
0000
,  // measure 10
0001
0010
0100
1000
0001
0010
0100
1000
,  // measure 11
0020
0000
0000
0130
0100
0000
0001
0000
,  // measure 12
1000
0010
0100
0001
1000
0010
0100
0001
,  // measure 13
0200
0000
0000
0310
0010
0000
1000
0000
,  // measure 14
0001
0100
0010
1000
0001
0100
0010
1000
,  // measure 15
0002
0000
0000
1003
0100
0000
0110
0000
,  // measure 16
1000
0100
0010
0001
1000
0100
0010
0001
,  // measure 17
2000
0000
0000
3010
0100
0000
0110
0000
,  // measure 18
0001
0010
1000
0010
0100
1000
0001
0100
,  // measure 19
0020
0000
0000
1030
0001
0000
1001
0000
,  // measure 20
1000
0100
0001
0100
0010
0001
1000
0010
,  // measure 21
0100
0100
0010
1001
,  // measure 22
1000
0000
0000
2100
0000
0000
0000
0000
,  // measure 23
3001
0100
0000
0110
0000
0002
0000
0000
,  // measure 24
1003
0000
0000
1020
0000
0000
0000
0000
,  // measure 25
1030
0010
0000
0110
0000
0001
0001
0001
,  // measure 26
0100
0000
0000
0102
0000
0000
0000
0000
,  // measure 27
1003
0010
0000
0110
0000
2000
0000
0000
,  // measure 28
3100
0000
0000
0012
0000
0000
0000
0103
,  // measure 29
0010
1000
0001
0100
0001
1000
1000
1000
,  // measure 30
0001
0010
0100
1000
0001
0010
0100
1000
,  // measure 31
0020
0000
0130
0100
0010
0000
1001
0000
,  // measure 32
1000
0010
0100
0001
1000
0010
0100
0001
,  // measure 33
0200
0000
0310
0010
1000
0000
1001
0000
,  // measure 34
0001
0010
1000
0010
0100
1000
0001
0100
,  // measure 35
0020
0000
1030
1000
0001
0000
1001
0000
,  // measure 36
1000
0010
0001
0010
0100
0001
1000
0001
,  // measure 37
0200
0000
0301
0001
1000
0000
1001
0000
,  // measure 38
0001
0010
0000
0001
0000
0100
0001
1000
,  // measure 39
0001
0010
0100
1000
0000
0100
0010
0001
,  // measure 40
1000
0010
1000
1000
1000
0100
1000
0001
,  // measure 41
1000
0010
0100
0001
0000
0100
0010
1000
,  // measure 42
0001
0010
0000
0001
0000
1000
0100
0001
,  // measure 43
0100
1000
0000
0001
0000
1000
0010
0001
,  // measure 44
0010
1000
0001
0001
0001
1000
0100
1000
,  // measure 45
0001
0001
0000
0100
0000
0100
0010
0010
,  // measure 46
1000
0000
0000
1001
0000
0000
0010
0000
,  // measure 47
0200
0000
0000
0001
0000
0000
0310
0000
,  // measure 48
0001
0000
0000
1001
0000
0000
0010
0000
,  // measure 49
0200
0000
0000
1000
0000
0000
0310
0000
,  // measure 50
1000
0000
0100
1000
0000
0001
1000
0000
,  // measure 51
0001
0100
0220
0330
,  // measure 52
0001
0000
0100
0001
0000
1000
0001
0000
,  // measure 53
1000
0100
0220
0330
,  // measure 54
1000
0010
0000
1000
0001
0000
0010
0000
,  // measure 55
0001
0100
2020
3030
,  // measure 56
0001
0010
0000
0001
1000
0000
0001
0000
,  // measure 57
1000
0100
0022
0033
,  // measure 58
1000
0100
0001
0100
0000
0100
0010
0000
,  // measure 59
0001
0101
2200
3300
,  // measure 60
0001
0010
1000
0010
0000
0010
0100
1000
,  // measure 61
0010
0000
0110
0000
1001
0000
0010
0100
;
