#TITLE:Try Again;
#SUBTITLE:;
#ARTIST:USAO;
#TITLETRANSLIT:;
#SUBTITLETRANSLIT:;
#ARTISTTRANSLIT:;
#GENRE:;
#CREDIT:vonafroa;
#BANNER:try.png;
#BACKGROUND:try-bg.png;
#LYRICSPATH:;
#CDTITLE:;
#MUSIC:try.ogg;
#OFFSET:0.902000;
#SAMPLESTART:92.314003;
#SAMPLELENGTH:14.960000;
#SELECTABLE:YES;
#BPMS:0.000000=170.000000
;
#STOPS:
;
#BGCHANGES:;
#KEYSOUNDS:;
#ATTACKS:;

//---------------dance-single - CLASSIC [vonafroa]----------------
#NOTES:
     dance-single:
     CLASSIC [vonafroa]:
     Hard:
     12:
     0.538398,0.607632,0.142928,0.225676,0.003761,501.000000,482.000000,19.000000,30.000000,0.000000,0.000000,0.538398,0.607632,0.142928,0.225676,0.003761,501.000000,482.000000,19.000000,30.000000,0.000000,0.000000:
0000
0000
0000
0000
,
0000
0000
0000
0000
,
0001
1000
0001
0000
1001
0000
0110
0000
,
1001
0000
0110
0000
0010
0100
0010
0000
,
1000
0001
1000
0000
1001
0000
0110
0000
,
1001
0000
0110
0000
0100
0010
0100
0000
,
0010
0001
0100
0010
1000
0100
0010
0001
,
0100
1000
0100
0010
1000
0100
0010
0001
,
0010
0100
0001
0100
1000
0010
0100
0001
,
0101
0000
1010
0000
0010
1000
0100
0000
,
0010
0010
0001
0001
,
0100
0100
0100
0100
0100
0100
0100
0000
,
0010
0010
0010
0010
1000
1000
1000
1000
,
0001
0000
0010
0010
0010
0010
0010
0000
,
0100
0000
0100
1000
0010
0100
0010
0000
,
0100
0001
0010
0100
1000
0010
0100
0000
,
1000
0100
0010
1000
0100
0001
0100
1000
,
1001
0000
0110
0000
0100
0010
1000
0100
,
0010
0000
0010
0000
,
0100
1000
0010
0000
,
0010
0000
0010
0000
,
0100
0000
0001
0000
0010
0100
1000
0100
,
0010
0000
0001
0100
0001
0000
0100
0010
,
0000
0010
1000
0000
0100
0000
1000
0000
,
0010
0000
0100
0001
0010
0100
0010
0001
,
0000
0001
0100
0001
1000
0010
0100
0010
,
2000
0000
0000
0000
,
0000
0000
0000
0000
,
0000
0000
0000
0000
,
0000
0000
0000
0000
,
3002
0000
0000
0000
,
0000
0000
0000
0000
,
0000
0000
0000
0000
,
0013
0100
0001
0100
,
2000
0000
3020
0000
,
0230
0000
0302
0000
,
0023
0000
0230
0000
,
0302
0000
0203
0000
,
1300
0010
0100
0001
,
0010
0100
1000
0001
,
0200
0000
0000
0300
,
0000
0110
0110
0000
1000
0010
0100
0001
,
0010
0000
0100
0001
0100
1000
0010
2000
,
0000
0000
3100
0001
0100
0010
0001
0100
,
0010
0000
0100
1000
0100
0010
1000
0002
,
0000
0000
0103
1000
0100
0010
1000
1000
,
0100
0000
0010
1000
0010
0001
0100
0002
,
0000
0000
0013
1000
0010
0100
1000
0010
,
0100
0000
0010
0001
0010
0100
0001
2000
,
0000
0000
3010
0000
0001
0000
0010
0000
0100
0000
0001
0010
0001
0000
0100
0000
,
0010
0000
0010
1000
0100
0010
1000
0010
,
0001
0000
0100
0010
0100
0001
0010
0100
,
0001
0000
0100
1000
0010
0100
0001
0100
,
1000
0000
0100
0001
0010
0100
0001
0100
,
0010
0100
1000
0010
,
0100
0001
0010
0100
,
1000
0001
1000
0001
0100
0010
0100
0010
,
0110
0000
0110
0000
0100
0010
0100
0001
,
0010
0000
0100
0001
0100
0010
0001
0200
,
0000
0000
1300
0100
0010
1000
0100
0010
,
0001
0000
0100
1000
0100
0010
1000
0200
,
0000
0301
0100
0010
0001
0100
0010
1000
,
0100
0000
0010
1000
0010
0100
1000
0020
,
0000
0000
0031
0010
0100
0001
0010
0100
,
1000
0000
0010
0001
0010
0100
0001
0020
,
0000
1030
0010
0100
1000
0010
0100
0001
,
0010
0000
0100
0001
0100
0000
1000
0010
,
0100
1000
0100
0020
0000
2030
0000
3002
,
0000
0013
1000
0010
0001
0100
1000
0100
,
0001
0010
1000
0020
0000
0032
0000
2003
,
0000
3010
0100
1000
0100
0010
1000
0100
,
0001
0100
0010
0002
0000
0203
0000
0320
,
0000
1030
0100
0001
0100
0010
1000
0010
,
0001
0000
1000
0000
0010
0100
0010
0000
,
0100
0000
0001
0000
0010
0100
1000
0000
,
0010
1000
0010
0100
0001
0010
0001
0000
,
0010
0000
0001
0000
0100
0010
1000
0000
,
0100
1000
0100
0010
0001
0100
0001
0000
,
0100
0000
0010
0000
0100
0010
1000
0000
,
0100
1000
0010
1000
0100
0001
0100
1000
,
0010
0100
1000
0100
0010
1000
0001
0100
,
1000
0000
1000
0000
1000
0100
1000
0100
,
0010
0000
0100
0001
1000
0100
0001
0200
,
0000
1300
0010
0100
0001
0010
0100
1000
,
0010
0000
0100
1000
0100
0001
0010
0100
,
0001
0100
0010
0001
1000
0100
0010
0001
,
0100
0000
0010
1000
0001
0010
1000
0020
,
0000
0031
0100
0010
1000
0100
0010
0001
,
0100
0010
0100
0001
0010
1000
0010
0100
,
1100
0000
1100
0000
1000
0010
1010
0000
;

//---------------dance-single - INTENSIVE [vonafroa]----------------
#NOTES:
     dance-single:
     INTENSIVE [vonafroa]:
     Challenge:
     16:
     0.756552,0.978963,0.293379,0.225676,0.357320,704.000000,665.000000,39.000000,30.000000,0.000000,0.000000,0.756552,0.978963,0.293379,0.225676,0.357320,704.000000,665.000000,39.000000,30.000000,0.000000,0.000000:
// measure 0
0000
0000
0000
0000
,  // measure 1
0000
0000
0000
0000
,  // measure 2
1100
1000
1010
0000
0101
0000
0011
0000
,  // measure 3
1100
0000
1100
1000
1010
0010
0110
0000
,  // measure 4
0101
0001
0011
0000
1100
0000
1010
0000
,  // measure 5
0101
0000
0101
0001
0011
0010
0110
0000
,  // measure 6
0110
0100
1100
1000
1001
0001
0011
0010
,  // measure 7
0011
0001
0101
0100
0110
0010
1010
1000
,  // measure 8
0010
1000
0100
0001
0100
1000
0010
0001
0010
0100
0001
0010
1000
0010
0001
1000
,  // measure 9
0100
0000
0010
0100
0010
0000
0110
0000
,  // measure 10
0010
0001
0100
0000
0010
1000
0100
0000
,  // measure 11
0001
0100
0010
0001
0100
1000
0100
0000
,  // measure 12
1000
0100
0001
0010
1000
0010
0001
0100
,  // measure 13
0010
0000
0001
0010
0100
0001
1000
0000
,  // measure 14
0100
0001
0100
0010
0001
0100
1000
0000
,  // measure 15
0100
0001
0010
0100
0001
0100
1000
0000
,  // measure 16
0010
1000
0010
1000
0010
0000
0100
0000
0001
0010
0001
0010
0001
0000
0100
0000
,  // measure 17
0110
0000
1001
0000
0110
0010
1000
0100
,  // measure 18
0010
0100
0100
0100
0001
0100
0100
0100
,  // measure 19
0010
0000
0001
1000
0010
0010
0100
0000
,  // measure 20
0001
0000
0100
0010
0100
0010
0001
0010
,  // measure 21
1000
0100
0001
0100
1100
0000
1010
0000
,  // measure 22
0100
0000
0010
1000
0100
0000
0100
1000
,  // measure 23
0000
0010
1000
0010
1000
0000
0100
0000
,  // measure 24
1000
0000
0010
0100
0010
0100
1000
0100
,  // measure 25
0001
0010
1000
0010
0001
0100
0010
1000
,  // measure 26
0200
0000
0000
0000
,  // measure 27
0320
0000
0000
0000
,  // measure 28
0032
0000
0000
0000
,  // measure 29
2003
0000
0000
0000
,  // measure 30
3020
0000
0230
0000
,  // measure 31
0302
0000
2003
0000
,  // measure 32
3200
0000
0320
0000
,  // measure 33
0032
0000
2003
0000
3010
0100
0010
0000
,  // measure 34
2020
0000
0000
3030
0000
0100
0001
0010
,  // measure 35
0100
0001
0000
0100
0000
1000
0000
0020
,  // measure 36
0000
0000
0000
0030
0000
0100
1000
0100
,  // measure 37
0001
0010
0000
1000
0000
0010
0001
0200
,  // measure 38
0000
0000
0000
0300
0000
0010
1000
0100
,  // measure 39
0010
1000
0010
0001
0000
0100
0010
1000
,  // measure 40
0000
0100
1000
0000
0001
0100
0001
0000
,  // measure 41
0000
0000
1001
0000
1001
0000
0000
0000
0010
0000
1000
0001
1000
0000
0100
0000
,  // measure 42
0020
0000
0130
1000
0010
0001
0010
2000
,  // measure 43
0000
0000
3100
0001
0100
1000
0010
0100
,  // measure 44
0002
0000
0103
1000
0100
0010
1000
0200
,  // measure 45
0000
0000
0301
0001
0100
1000
0010
0100
,  // measure 46
2000
0000
3100
0001
0010
0100
0001
0200
,  // measure 47
0000
0000
1300
1000
0010
0100
1000
0100
,  // measure 48
0020
0000
1030
0100
0001
0100
1000
0020
,  // measure 49
0000
0000
0130
0000
0001
0000
0010
0000
0100
0001
0100
0000
1000
0000
0010
0000
,  // measure 50
0100
0000
0000
0000
1000
0000
0100
0000
0100
0000
0010
1000
0100
0000
0010
0000
,  // measure 51
0100
0000
0000
0000
0001
0000
0100
0000
0100
0000
0010
0001
0100
0000
0010
0000
,  // measure 52
0100
0000
0000
0000
1000
0000
0100
0000
0100
0000
0010
1000
0100
0000
0010
0000
,  // measure 53
0001
0000
0010
1000
0010
0001
0100
1000
,  // measure 54
0100
0001
0010
0100
1000
0001
0100
0010
,  // measure 55
1000
0100
0010
0001
0100
1000
0100
0010
,  // measure 56
1000
0100
1000
0100
0010
0001
0010
0001
0100
0001
0100
0001
1000
0010
1000
0010
,  // measure 57
0100
0000
0001
0010
1000
0010
0001
1000
,  // measure 58
0110
0000
0000
0000
0100
0000
0001
0000
0010
0000
0100
0010
0001
0000
2000
0000
,  // measure 59
0000
0000
3010
0000
0100
0000
0001
0000
0010
0000
0100
0010
0001
0000
1000
0000
,  // measure 60
1001
0000
0000
0000
0001
0000
1000
0000
0010
0000
1000
0001
0010
0000
0100
0000
,  // measure 61
1000
0010
0001
0010
0100
0001
0010
0100
,  // measure 62
0110
0000
0000
0000
0100
0000
1000
0010
0100
0000
1000
0100
0001
0000
0020
0000
,  // measure 63
0000
0000
1030
0000
0010
0000
0001
0100
0010
0000
0001
0010
1000
0000
0001
0000
,  // measure 64
1001
0000
0000
0000
0100
0000
0001
0100
0010
0000
1000
0100
0010
0000
1000
0000
,  // measure 65
0010
0000
0001
0100
0010
0000
0010
0100
0001
0000
0010
0100
1000
0000
0010
0000
,  // measure 66
0100
0000
1000
0100
0001
0000
0010
0000
0100
0000
0001
0100
1000
0000
0001
0000
,  // measure 67
0010
0000
0100
1000
0010
0000
0100
0001
0010
0000
0100
1000
0010
0000
0100
0000
,  // measure 68
0010
0000
0001
0010
1000
0000
0100
0000
0010
0000
1000
0010
0001
0000
1000
0000
,  // measure 69
0100
0000
0010
0001
0100
0000
0010
1000
0100
0000
0010
0001
0100
0000
0010
0000
,  // measure 70
0100
0000
1000
0100
0001
0000
0010
0000
0100
0000
0001
0100
1000
0000
0001
0000
,  // measure 71
0010
0000
0100
1000
0010
0000
0100
0001
0010
0000
0100
1000
0010
0000
0100
0000
,  // measure 72
0010
1000
0100
0001
0100
1000
0010
0001
,  // measure 73
0010
1000
0100
0000
0010
0001
0100
0000
0010
0100
0001
0000
0010
0100
1000
0000
,  // measure 74
0010
0000
0001
0010
1000
0000
0100
0000
0010
0000
1000
0010
0001
0000
1000
0000
,  // measure 75
0100
0000
0010
0001
0100
0000
0010
1000
0100
0000
0010
0001
0100
0000
0010
0000
,  // measure 76
0100
0000
1000
0100
0001
0000
0010
0000
0100
0000
0001
0100
1000
0000
0001
0000
,  // measure 77
0010
0000
0100
1000
0010
0000
0100
0001
0010
0000
0100
1000
0010
0000
0100
0000
,  // measure 78
0010
0000
0001
0010
1000
0000
0100
0000
0010
0000
1000
0010
0001
0000
1000
0000
,  // measure 79
0100
0000
0010
0001
0100
0000
0010
1000
0100
0000
0010
0001
0100
0000
0010
0100
,  // measure 80
0010
1000
0100
1000
0010
0100
0001
0100
0010
1000
0010
0100
0001
0010
0001
0100
,  // measure 81
0010
0000
0100
0001
0010
0000
1000
0000
0010
0000
0001
0000
0100
0000
0010
0000
,  // measure 82
1000
0000
0100
0001
0100
0000
1000
0000
1000
0000
0010
0000
0100
0000
2000
0000
,  // measure 83
0000
3100
0001
0010
0100
0001
0100
1000
,  // measure 84
0020
0000
0000
0000
0130
0000
0001
0000
0010
0000
0100
0000
0001
0000
0100
0010
,  // measure 85
0001
0000
0100
1000
0100
0000
0001
0100
0010
0000
1000
0000
0010
0000
0100
0000
,  // measure 86
2000
0000
3100
0001
0010
0010
0100
0002
,  // measure 87
0000
0000
0103
0000
1000
0000
0010
0000
0100
0000
1000
0000
0100
0000
0001
1000
,  // measure 88
0100
0010
0100
1000
0010
0100
0001
0100
0010
1000
0100
1000
0001
0000
0010
0100
,  // measure 89
1000
0000
0010
0100
0001
0000
0010
0100
1000
0000
1001
0000
0110
0000
0000
0000
;
