#VERSION:0.83;
#TITLE:Trinity Homerun;
#SUBTITLE:;
#ARTIST:KASAI HARDCORES;
#TITLETRANSLIT:;
#SUBTITLETRANSLIT:;
#ARTISTTRANSLIT:;
#GENRE:BASEBALL CLASSICS;
#ORIGIN:;
#CREDIT:;
#BANNER:Trinity Homerun.png;
#BACKGROUND:Trinity Homerun-bg.png;
#PREVIEWVID:;
#JACKET:Trinity Homerun-jacket.png;
#CDIMAGE:;
#DISCIMAGE:;
#LYRICSPATH:;
#CDTITLE:cdtitle.png;
#MUSIC:Trinity Homerun.ogg;
#OFFSET:-0.001612;
#SAMPLESTART:87.772774;
#SAMPLELENGTH:12.342000;
#SELECTABLE:YES;
#BPMS:0.000=175.000,
4.000=175.001;
#STOPS:70.000=0.343,
73.000=0.343,
76.000=0.343,
83.000=0.343,
86.000=0.343,
89.000=0.343;
#DELAYS:;
#WARPS:;
#TIMESIGNATURES:0.000=4=4;
#TICKCOUNTS:0.000=4;
#COMBOS:0.000=1;
#SPEEDS:0.000=1.000=0.000=0;
#SCROLLS:0.000=1.000;
#FAKES:;
#LABELS:0.000=Song Start;
#BGCHANGES:;
#KEYSOUNDS:;
#ATTACKS:
;

//---------------dance-single - ----------------
#NOTEDATA:;
#CHARTNAME:;
#STEPSTYPE:dance-single;
#DESCRIPTION:;
#CHARTSTYLE:;
#DIFFICULTY:Hard;
#METER:14;
#RADARVALUES:0.756912,0.884634,0.607731,0.427980,0.564933,619.000000,548.000000,71.000000,50.000000,0.000000,0.000000,0.000000,0.000000,0.000000,0.756912,0.884634,0.607731,0.427980,0.564933,619.000000,548.000000,71.000000,50.000000,0.000000,0.000000,0.000000,0.000000,0.000000;
#CREDIT:TonyAkita;
#NOTES:
0000
0000
0000
0000
,
2001
0000
0000
3020
0000
0000
2030
0000
,
3200
0001
1000
0310
,
1002
0000
0000
0023
0000
0000
0032
0000
,
0203
1000
0001
0310
,
2010
0000
0000
3002
0000
0000
2003
0000
,
3200
0010
1000
0310
,
0012
0000
0000
2003
0000
0000
3002
0000
,
0203
0010
0001
0310
,
1000
0000
0100
0000
0010
0000
0000
0001
0000
1000
0010
0000
0100
0000
0000
0000
,
0001
0000
0100
0000
0010
0000
0000
1000
0000
0001
0010
0000
0100
0000
0000
0000
,
1000
0000
0100
0000
0001
0000
0000
0100
0000
0010
0001
0000
1000
0000
0000
0000
,
0001
0000
0100
0000
1000
0000
0000
0100
0000
0010
1000
0000
0001
0000
0000
0000
,
0010
0000
0100
0000
1000
0000
0000
0001
0000
0100
1000
0000
0100
0000
0000
0000
,
0010
0000
0100
0000
0001
0000
0000
1000
0000
0100
0001
0000
0100
0000
0000
0000
,
1000
0000
0010
0000
0001
0000
0000
0010
0000
0100
0001
0000
1000
0000
0000
0000
,
0001
0000
0010
0000
1000
0000
0000
0010
0000
0100
0001
0000
1000
0000
0000
0000
,
1010
0000
1001
0000
2020
3030
0011
0000
,
1001
0000
0022
0033
0110
0000
1001
0000
,
0220
0330
1010
0000
1000
1001
0000
0001
,
0011
0000
1100
0000
1001
0000
2200
3300
,
0101
0000
1001
0000
0202
0303
0110
0000
,
1001
0000
0220
0330
1100
0000
1000
1001
,
0000
0000
0001
0000
0101
0000
0000
0000
0001
0000
0000
0010
0000
0000
0001
0000
,
1000
0000
0000
0010
0000
0000
1000
0000
0001
0000
0000
0100
0000
0000
0001
0000
,
1000
0000
0000
0100
0000
0000
1000
0000
0001
0000
0000
0010
0000
0000
1000
0000
,
0001
0000
0000
0100
0000
0000
1000
0000
0100
0000
0000
0010
0000
0000
0100
0000
,
1000
0000
0000
0001
0000
0000
1000
0000
0001
0000
1000
0000
0010
0000
1000
0000
,
0001
1000
1010
0000
1000
0001
0010
0001
,
1000
0001
0011
0000
0001
1000
0100
0001
,
0100
0010
0110
0000
2002
0000
0000
0000
,
0000
0000
0000
0000
3003
0000
0000
0000
1000
0000
0001
0000
1000
0010
1000
0010
,
0000
0100
0001
0100
0000
0001
0010
0001
1000
0000
0001
0000
1000
0100
1000
0100
,
0000
0010
0001
0010
0000
0001
0100
0001
1000
0000
0001
0000
0100
0010
0100
0010
,
0000
1000
0010
1000
0000
0001
0010
0001
0010
0000
0001
0100
0001
0100
0001
0000
,
1000
0100
1000
0100
1000
0000
0001
0000
1000
0000
0001
0100
1000
0000
0100
0000
,
0001
0000
1000
0100
0010
0100
1000
0000
0010
0000
1000
0100
0001
0000
0100
0000
,
1000
0000
0001
0100
0010
0100
0001
0000
0010
0000
0100
0010
0100
0000
1000
0000
,
0001
0000
0100
1000
0100
0001
0100
0000
0001
0000
1000
0100
0010
0100
1000
0000
,
0001
0100
0010
0100
0001
0000
0000
0000
2001
0000
0000
0000
0020
0000
3030
0000
,
0110
0000
0001
1000
1002
0000
0020
0033
,
0110
0000
1000
0001
1000
0001
1000
0000
1200
0000
0000
0000
0020
0000
0330
0000
,
0011
0000
0001
0100
0201
0000
0020
0330
,
1010
0000
1000
0001
1000
0001
1000
0000
0001
0000
0010
0000
0001
0000
1000
0000
,
0001
0010
0100
1000
0010
1000
0001
1000
,
0010
0100
0001
1000
0001
0100
1000
0100
,
0001
0010
1000
0010
0200
0000
0000
0000
,
0000
0000
0000
0300
0000
0000
1001
0000
1000
0001
0010
0001
,
0100
0001
0100
0001
0010
0100
1000
0000
0001
1000
0010
1000
,
0100
1000
0100
1000
0010
0100
0001
0000
1000
0001
0010
0001
,
1000
0010
1000
0001
1000
0001
1000
0100
1000
0001
0100
0001
,
0100
0010
0100
0001
1000
0001
1000
0000
0100
0001
0000
0100
,
1000
0000
0001
0100
0010
0100
0001
0000
0100
1000
0000
0100
,
0001
0000
1000
0100
0010
0100
1000
0000
0010
0100
0000
0001
,
1000
0000
0100
0001
0100
1000
1100
0000
0100
0010
0000
0011
,
0000
0000
0000
0000
1000
0000
0001
0000
0000
0000
0000
0000
0012
0000
0000
0000
0000
0000
2000
0000
0000
3003
0000
0000
,
1010
0000
0000
0000
0000
0000
1000
0000
0001
0000
1000
0000
2010
0000
0000
0000
0000
0000
0002
0000
0000
3003
0000
0000
,
0011
0000
0000
0000
0000
0000
0001
0000
1000
0000
0001
0000
0012
0000
0000
0000
0000
0000
2000
0000
0000
3003
0000
0000
,
0110
0000
0000
0000
0000
0000
0000
0000
0000
0000
0000
0000
0001
0000
0000
0000
1000
0000
0000
0000
0001
0000
0000
0000
1000
0000
0000
0000
0000
0000
0000
0000
0000
1000
0000
0000
0000
0000
0000
0000
0000
0000
1000
0000
0000
0000
0000
0000
,
0001
0000
0000
0001
0000
0000
0001
0000
1000
0000
0100
0000
1000
0000
0010
0000
,
1000
0100
0010
0001
0100
0001
0010
0001
,
0100
0010
1000
0001
0010
1000
0010
0001
,
0100
1000
0100
0001
0200
0000
0000
0000
,
0000
0000
0310
0000
1000
0010
1000
0001
,
0010
0001
0100
0010
1010
0000
0011
0000
,
1010
0000
1001
0000
0001
0010
0001
1000
,
0010
1000
0100
0010
0011
0000
1010
0000
,
0011
0000
1001
0000
0001
0010
1000
0001
,
0100
1000
0001
0100
1100
0000
0101
0000
,
0110
0000
1001
0000
1000
0010
0001
1000
,
0100
0001
1000
0100
0101
0000
0001
1000
,
0000
0100
0010
0000
0002
0010
0013
0002
,
1000
1003
0001
0010
0110
0000
1100
0000
,
0101
0000
0110
0000
2000
0010
3010
2000
,
0001
3001
1000
0010
0110
0000
0101
0000
,
1100
0000
0000
0000
0110
0000
0000
0000
0001
0010
0001
0000
1000
0010
1000
0000
,
0010
0100
0010
0100
0010
0000
0100
0000
0001
0100
0001
0000
1000
0100
1000
0000
,
0100
0010
0100
0010
0100
0000
0010
0000
0001
0010
0001
0000
1000
0000
0001
0000
,
1000
0010
1000
0000
0001
0000
1000
0000
0010
1000
0010
0000
0010
0001
0010
0000
,
0100
0010
0100
0010
0100
0000
0000
0000
1001
0000
0000
0000
0000
0000
0000
0000
;

//---------------dance-single - ----------------
#NOTEDATA:;
#CHARTNAME:;
#STEPSTYPE:dance-single;
#DESCRIPTION:;
#CHARTSTYLE:;
#DIFFICULTY:Medium;
#METER:10;
#RADARVALUES:0.557596,0.612439,0.599171,0.291026,0.145513,456.000000,386.000000,70.000000,34.000000,0.000000,0.000000,0.000000,0.000000,0.000000,0.557596,0.612439,0.599171,0.291026,0.145513,456.000000,386.000000,70.000000,34.000000,0.000000,0.000000,0.000000,0.000000,0.000000;
#CREDIT:TonyAkita;
#NOTES:
0000
0000
0000
0000
,
2000
0000
0000
3020
0000
0000
0031
0000
,
0010
1000
0010
0100
,
0002
0000
0000
0023
0000
0000
1030
0000
,
0010
0001
0010
0100
,
2000
0000
0000
3002
0000
0000
1003
0000
,
0010
0100
1000
0100
,
0002
0000
0000
2003
0000
0000
3001
0000
,
0010
0100
0001
0100
,
1000
0100
0010
0000
1001
0000
1000
0000
,
0001
0100
0010
0000
1001
0000
0001
0000
,
1000
0100
0001
0000
0110
0000
1000
0000
,
0001
0100
1000
0000
0110
0000
0001
0000
,
1000
0010
1000
0000
0101
0000
1000
0000
,
0001
0010
0001
0000
1100
0000
0001
0000
,
1000
0010
0001
0000
0110
0000
1000
0000
,
0001
0010
1000
0000
0110
0000
0001
0000
,
1010
0000
0001
0000
2020
3030
0011
0000
,
1000
0000
0022
0033
0110
0000
1001
0000
,
0220
0330
1100
0000
0000
0101
0000
0000
,
1001
0000
0101
0000
1000
0000
0202
0303
,
1100
0000
0001
0000
2200
3300
0110
0000
,
1001
0000
0220
0330
0011
0000
0000
1010
,
0000
0000
0000
0000
1001
0000
0000
0000
1000
0000
0000
1000
0000
0000
1000
0000
,
0010
0000
0000
0010
0000
0000
0010
0000
1000
0000
0000
1000
0000
0000
1000
0000
,
0001
0000
0000
0001
0000
0000
0001
0000
0010
0000
0000
0010
0000
0000
0010
0000
,
0001
0000
0000
0001
0000
0000
0001
0000
1000
0000
0010
0000
0001
0000
0000
0000
,
1000
0100
0001
0000
1000
0100
1000
0100
,
1000
0000
1001
0000
0001
0100
0001
0100
,
0001
0000
1001
0000
1000
0001
1000
0001
,
1000
0110
2002
0000
,
0000
0000
3003
0000
1001
0000
0001
0100
,
0001
0010
0001
0100
0110
0000
1000
0100
,
1000
0010
1000
0100
0110
0000
0001
0100
,
1000
0100
0001
0100
0010
0000
1000
0001
,
1000
0000
1001
0000
1000
0100
0001
0000
,
0100
1000
0001
1000
0001
0100
1000
0000
,
0100
0001
1000
0001
0010
0100
1000
0000
,
0100
0001
0100
1000
0001
0000
0100
0010
,
0100
0110
1010
2000
,
3001
0000
1000
1000
1000
0000
0020
0000
,
0130
1001
0011
0002
,
1003
0000
0001
0001
0001
0000
0010
0100
,
0010
0110
1100
1001
,
1100
0000
0101
1001
,
0101
0000
0110
1001
,
0110
0000
2002
0000
,
0000
0000
0000
3003
0000
0000
1000
0000
0001
0010
0000
0001
,
0100
0000
0001
0010
0000
0000
0110
0000
1000
0010
0000
1000
,
0100
0000
1000
0010
0000
0000
0110
0000
0001
0100
0000
1000
,
0100
0000
0001
0100
0000
0010
1000
0000
1000
0100
0000
0100
,
0010
0000
0010
0001
0000
0000
1000
0000
0100
0001
0000
0000
,
0100
0000
1000
0001
0000
1000
0001
0000
0100
1000
0000
0000
,
0100
0000
0001
1000
0000
0001
1000
0000
0010
0100
0000
0000
,
0001
0000
0100
1000
0000
0100
0001
0000
0000
0100
0000
0010
,
1000
1001
1010
2000
,
3001
0000
0000
1000
0000
1000
0010
0000
0000
0020
0000
0000
,
0130
0000
0000
0001
1000
0001
1000
0000
0000
0002
0000
0000
,
0013
0000
0000
0001
0000
0001
0010
0000
0000
0100
0000
1000
,
0001
1001
1010
1001
,
1010
0000
0011
1001
,
0011
0000
0110
1001
,
0110
0000
2002
0000
,
0000
3003
1000
0100
,
0001
0000
0100
0000
1000
0001
1000
0000
,
0100
0010
0100
0000
1000
0000
0010
0000
,
0001
0000
0010
0000
1000
0001
1000
0000
,
0010
0100
0010
0000
1000
0000
0100
0000
,
0001
0000
0010
0000
1000
0010
1000
0000
,
0001
0010
0001
0000
1000
0000
0010
0000
,
0001
0000
0100
0000
1000
0000
0001
0100
,
0000
1000
0100
0000
0001
0010
0001
0000
,
1000
0010
1000
0000
0200
0000
0001
0000
,
1000
0000
0310
0000
0100
1000
0100
0000
,
0100
0001
0100
0000
0020
0000
1000
0000
,
0001
0000
0130
0000
0001
0100
0001
0100
,
0001
0000
1001
0000
1000
0100
1000
0100
,
1000
0000
1001
0000
0001
0010
0001
0000
,
1000
0010
1000
0000
0010
0100
0010
0100
,
0010
0110
1001
0000
;

//---------------dance-single - ----------------
#NOTEDATA:;
#CHARTNAME:;
#STEPSTYPE:dance-single;
#DESCRIPTION:;
#CHARTSTYLE:;
#DIFFICULTY:Easy;
#METER:6;
#RADARVALUES:0.370508,0.442317,0.410860,0.162632,0.000000,303.000000,255.000000,48.000000,19.000000,0.000000,0.000000,0.000000,0.000000,0.000000,0.370508,0.442317,0.410860,0.162632,0.000000,303.000000,255.000000,48.000000,19.000000,0.000000,0.000000,0.000000,0.000000,0.000000;
#CREDIT:TonyAkita;
#NOTES:
0000
0000
0000
0000
,
2000
0000
0000
3000
,
0001
0100
1000
0100
,
0002
0000
0000
0003
,
1000
0100
0001
0100
,
0020
0000
0000
0030
,
0001
0100
0001
0010
,
0200
0000
0000
0300
,
1000
0010
1000
0100
,
0010
0010
0000
1010
,
0010
0010
0000
0011
,
0001
1000
0000
0110
,
1000
0001
0000
0110
,
0001
0001
0000
1100
,
1000
1000
0000
0101
,
0001
1000
0000
0110
,
1000
0001
0000
0110
,
1000
1000
1010
0001
,
0001
0011
1000
0001
,
1001
0000
0110
0000
0000
1001
0000
0000
,
0110
0001
0001
0101
,
1000
1000
1100
0001
,
1000
0000
1001
0000
0110
0000
0000
1001
,
0000
0110
1000
1000
,
0010
0010
1000
1000
,
0001
0001
0010
0010
,
0001
0001
1000
0100
,
0001
0100
1000
1000
,
1010
0000
0001
0001
,
0011
0000
1000
0001
,
1001
0000
0220
0000
,
0000
0330
1001
1000
,
0010
1000
1001
0001
,
0010
0001
0110
0100
,
0010
0100
1000
1000
,
0001
0001
1000
0100
,
0001
1100
0001
0100
,
1000
0101
0100
0010
,
0100
0110
0001
0001
,
1000
1000
0200
0000
,
0310
1001
0020
0000
,
0130
1001
2000
0000
,
3001
0110
0001
1000
,
0001
0100
0010
0010
,
1010
0000
0010
0010
,
0011
0000
1000
0001
,
1001
0000
0220
0000
,
0000
0330
1000
0010
,
1000
0001
0010
0001
,
0010
0100
1000
0001
,
1000
0010
0100
0010
,
0100
0001
1000
0100
,
0001
0100
1000
0010
,
0001
0010
1000
0100
,
0001
0010
1000
1000
,
0001
0001
0020
0000
,
0130
1001
0200
0000
,
0310
1001
0002
0000
,
1003
0110
0001
0010
,
1000
0010
0100
0100
,
1100
0000
0100
0100
,
0101
0000
1000
0001
,
1001
0000
0220
0000
,
0000
0330
1000
0100
,
0001
0100
0020
0000
,
0000
0030
0001
0100
,
1000
0100
0020
0000
,
0000
0030
1000
0100
,
1000
0010
0200
0000
,
0000
0300
0001
0010
,
0001
0000
0100
0000
0010
0000
0000
1001
,
0000
0110
1000
0100
,
0001
0010
1000
0000
,
1000
0000
0001
0100
,
1000
0010
0001
0000
,
0001
0000
1000
0100
,
0001
0100
1000
0010
,
0001
0010
1000
1000
,
0001
0001
0100
0010
,
0100
0110
1001
0000
;

//---------------dance-single - ----------------
#NOTEDATA:;
#CHARTNAME:;
#STEPSTYPE:dance-single;
#DESCRIPTION:;
#CHARTSTYLE:;
#DIFFICULTY:Beginner;
#METER:4;
#RADARVALUES:0.238446,0.408292,0.248228,0.154073,0.000000,195.000000,166.000000,29.000000,18.000000,0.000000,0.000000,0.000000,0.000000,0.000000,0.238446,0.408292,0.248228,0.154073,0.000000,195.000000,166.000000,29.000000,18.000000,0.000000,0.000000,0.000000,0.000000,0.000000;
#CREDIT:TonyAkita;
#NOTES:
// measure 0
0000
0000
0000
0000
,  // measure 1
2000
0000
0000
0000
,  // measure 2
3000
0000
0000
0000
,  // measure 3
0002
0000
0000
0000
,  // measure 4
0003
0000
0000
0000
,  // measure 5
0200
0000
0000
0000
,  // measure 6
0300
0000
0000
0000
,  // measure 7
0020
0000
0000
0000
,  // measure 8
0030
0000
0000
0000
,  // measure 9
1000
0000
0001
0000
,  // measure 10
1001
0000
0000
0000
,  // measure 11
0010
0000
0100
0000
,  // measure 12
0110
0000
0000
0000
,  // measure 13
0001
0000
1000
0000
,  // measure 14
1001
0000
0000
0000
,  // measure 15
0100
0000
0010
0000
,  // measure 16
0110
0000
0000
0000
,  // measure 17
1000
1000
1000
0001
,  // measure 18
0001
0001
0100
0100
,  // measure 19
0100
0010
0000
0100
,  // measure 20
0000
0001
0001
0001
,  // measure 21
1000
1000
1000
0100
,  // measure 22
0100
0100
0010
0000
,  // measure 23
0100
0000
1000
0000
,  // measure 24
0010
0000
1000
0000
,  // measure 25
0001
0000
0010
0000
,  // measure 26
0001
0000
1001
0000
,  // measure 27
0110
0000
0001
0001
,  // measure 28
0001
0000
1000
1000
,  // measure 29
1000
0000
1001
1001
,  // measure 30
1001
0000
0220
0000
,  // measure 31
0330
0000
1001
0000
,  // measure 32
1000
1000
1000
0000
,  // measure 33
0001
0001
0001
0000
,  // measure 34
0100
0100
0100
0000
,  // measure 35
0010
0000
1000
0000
,  // measure 36
0100
0000
0001
0000
,  // measure 37
0100
0000
1000
0000
,  // measure 38
0010
0000
0100
0100
,  // measure 39
0100
0000
0002
0000
,  // measure 40
0003
0000
2000
0000
,  // measure 41
3000
0000
0220
0000
,  // measure 42
0330
0000
0001
0000
,  // measure 43
1000
0000
0010
0010
,  // measure 44
0010
0000
0100
0100
,  // measure 45
0100
0000
1001
1001
,  // measure 46
1001
0000
0220
0000
,  // measure 47
0330
0000
0000
0001
,  // measure 48
0001
0001
0000
1000
,  // measure 49
1000
1000
0000
0010
,  // measure 50
0010
0010
0000
0100
,  // measure 51
0000
0010
0000
1000
,  // measure 52
0000
0100
0000
0001
,  // measure 53
0000
0100
0000
1000
,  // measure 54
0000
0010
0000
0100
,  // measure 55
0100
0000
0002
0000
,  // measure 56
0003
0000
2000
0000
,  // measure 57
3000
0000
0220
0000
,  // measure 58
0330
0000
0001
0000
,  // measure 59
1000
0000
0010
0010
,  // measure 60
0010
0000
0100
0100
,  // measure 61
0100
0000
1001
1001
,  // measure 62
1001
0000
0220
0000
,  // measure 63
0330
0000
1000
0000
,  // measure 64
0001
0000
0010
0010
,  // measure 65
0010
0000
0001
0000
,  // measure 66
1000
0000
0010
0010
,  // measure 67
0010
0000
1000
0000
,  // measure 68
0001
0000
0100
0100
,  // measure 69
0100
0000
0001
0000
,  // measure 70
1000
0000
1001
0000
,  // measure 71
0110
0000
1000
0000
,  // measure 72
0010
0000
1000
1000
,  // measure 73
1000
0000
0001
0000
,  // measure 74
0010
0000
0001
0001
,  // measure 75
0001
0000
0100
0100
,  // measure 76
0100
0000
0010
0010
,  // measure 77
0010
0000
1001
0000
,  // measure 78
0110
0000
1001
1001
,  // measure 79
1001
0000
0110
0000
;
