#TITLE:Toy;
#SUBTITLE:;
#ARTIST:Netta;
#TITLETRANSLIT:;
#SUBTITLETRANSLIT:;
#ARTISTTRANSLIT:;
#CREDIT:;
#BANNER:;
#BACKGROUND:;
#LYRICSPATH:;
#CDTITLE:;
#MUSIC:Toy.mp3;
#OFFSET:-0.020;
#SAMPLESTART:58.400;
#SAMPLELENGTH:14.760;
#SELECTABLE:YES;
#BPMS:0.000=130.000;
#STOPS:;
#BGCHANGES:;

//---------------dance-single - ----------------
#NOTES:
     dance-single:
     :
     Hard:
     13:
     0.566,0.661,0.314,0.174,0.327: // measure 1
0000
0000
0000
0000
,  // measure 2
0000
0000
0000
0000
,  // measure 3
0000
0000
0000
0000
,  // measure 4
0000
0000
0000
0000
0000
1000
0001
0100
,  // measure 5
0202
0000
0000
0000
0000
0000
0303
0001
,  // measure 6
1001
0000
1000
0100
0010
0000
0001
0000
,  // measure 7
2001
0001
0001
0001
0002
0000
3003
1000
,  // measure 8
1010
0000
0100
0010
1000
0001
0010
0100
,  // measure 9
0010
0000
0001
0100
0001
0000
1000
0010
,  // measure 10
0100
1000
0100
0000
0001
0000
0010
0000
,  // measure 11
0001
0000
1000
0100
0001
0000
0100
1000
,  // measure 12
0001
0100
0001
0000
1000
0000
0001
0000
,  // measure 13
0011
0000
0000
0000
1000
0000
0010
0000
0100
0000
0000
0010
0000
0000
0100
0000
,  // measure 14
0001
0000
0000
0010
0000
0000
0100
0000
1000
0000
0000
0000
1001
0000
0000
0000
,  // measure 15
0001
0000
0000
0100
0000
0000
0001
0000
1100
0000
0000
0000
0000
0000
0200
0000
,  // measure 16
1300
0000
0000
0100
0000
0000
1000
0000
0101
0000
0000
0001
0100
0000
0010
0000
,  // measure 17
2002
0000
0000
3003
0000
1000
0100
1000
0001
0100
0010
1000
,  // measure 18
0020
0000
0000
0030
0000
0100
0001
0100
0001
1000
0100
0010
,  // measure 19
0002
0000
0000
0000
0000
0000
0000
0000
0000
0000
0000
0000
0003
0000
0000
0000
0000
0000
0000
0000
1000
0000
0000
0000
0100
0000
0000
0000
1000
0000
0000
0000
0001
0000
0000
0000
0100
0000
0000
0010
0000
0000
0100
0000
0000
0000
0000
0000
,  // measure 20
0001
0000
0000
0100
0001
0000
1000
0000
0200
0000
0000
0000
0310
0000
0000
0000
,  // measure 21
2002
0000
0000
3003
0000
0100
0001
0100
1000
0100
0010
1000
,  // measure 22
0200
0000
0000
0300
0000
0100
1000
0001
0100
0010
1000
0010
,  // measure 23
0200
0000
0000
0000
0300
0000
0001
0000
1000
0100
0010
0000
0001
0000
1000
0000
,  // measure 24
1001
0000
0000
0001
0200
0000
0010
0000
0301
0000
0000
0010
0000
0000
0100
0000
,  // measure 25
1100
0000
1000
0100
0001
0100
0010
0001
,  // measure 26
0100
0010
0100
0002
0000
0000
0003
0000
,  // measure 27
1001
0000
0001
0100
1000
0001
0010
0100
,  // measure 28
0001
0000
0010
0000
0100
0000
0020
0000
0000
0000
0000
0000
0030
0000
0001
1000
,  // measure 29
0010
1000
0000
0010
1000
0000
0001
0010
0000
0010
0001
0000
1100
0000
0000
0000
,  // measure 30
0001
0100
0000
0010
0100
0000
0010
1000
0000
1000
0001
0000
0100
0000
0010
0000
,  // measure 31
1000
0001
0000
0100
0010
0000
1000
0100
0000
0010
0001
0000
0001
0100
0000
0010
,  // measure 32
1000
0100
1000
0100
0010
0001
0010
0001
0100
0000
0001
0000
0100
0000
0100
0000
,  // measure 33
1001
0000
0000
1000
0100
0000
0010
0000
0001
0000
0100
0000
1000
0000
0100
0000
,  // measure 34
0001
0000
0000
0010
0001
0000
1000
0000
0100
0000
0010
0000
0100
0000
1000
0000
,  // measure 35
1001
0000
0000
0010
0100
0000
0010
0000
1000
0000
0100
0000
0010
0000
0100
0000
,  // measure 36
0010
0000
0000
0001
1000
0000
0001
0000
0100
0000
0010
0000
1000
0000
0100
0000
,  // measure 37
0010
0100
0001
0100
0010
0100
1000
0001
,  // measure 38
0100
1000
0100
0010
0100
0001
1000
0000
,  // measure 39
0001
0100
0010
0010
0010
0000
1000
0100
,  // measure 40
1000
0000
1000
0000
0001
0000
0001
0000
1001
0000
0000
0001
0100
0000
0010
0000
,  // measure 41
1001
0000
0000
1000
0000
0000
0100
0000
1000
0000
0000
0000
0001
0000
0000
0000
,  // measure 42
1000
0000
0001
0100
0001
0000
0100
0001
0100
0000
0000
0010
1000
0000
0001
0000
,  // measure 43
1000
0000
0000
0001
0000
0000
0010
0000
0001
0000
0000
0000
0100
0000
0010
0000
,  // measure 44
1000
0000
0001
0010
0100
0000
0100
0010
0001
0000
0000
1000
0001
0000
0100
0000
,  // measure 45
0101
0000
0000
0001
0000
0000
0100
0000
0010
0000
0000
0010
0000
0000
1000
0000
,  // measure 46
0100
0000
0000
1000
0000
0000
0001
0000
0100
0000
0000
0001
0000
0000
1000
0000
,  // measure 47
2002
0000
0000
0000
,  // measure 48
3003
0000
0000
0000
0000
1000
0001
1000
,  // measure 49
1100
0000
0000
0001
0100
0000
0001
0000
1000
0000
0000
0100
1000
0000
0001
0000
,  // measure 50
0100
0000
0000
0010
1000
0000
0001
0100
0001
0000
1000
0000
0100
0000
0010
0000
,  // measure 51
0011
0000
0000
0100
1000
0000
0010
0000
0100
0000
0000
0010
0100
0000
0001
0000
,  // measure 52
1000
0000
0000
0001
0010
0000
0001
1000
0100
0000
1000
0000
1001
0000
0000
0000
,  // measure 53
0001
0100
1000
0100
0010
0100
0001
0010
,  // measure 54
0100
0001
0100
1000
0001
0100
0010
0000
,  // measure 55
1000
0001
0100
0100
0100
0000
0010
1000
,  // measure 56
1100
0100
0110
0010
0011
0001
1000
0100
,  // measure 57
1001
0000
0000
0001
0100
0000
0010
0000
0200
0000
0000
0000
0310
0000
1000
0000
,  // measure 58
0100
0001
0100
1000
0001
0100
0010
0010
,  // measure 59
1000
0000
0000
0001
0010
0000
0001
0000
2000
0000
0000
0000
3100
0000
1000
0000
,  // measure 60
0001
0100
0010
1000
0001
0010
0100
0010
,  // measure 61
0110
0000
0001
1000
1100
0000
1000
0001
,  // measure 62
0101
0000
0001
1000
1001
0000
0110
0000
,  // measure 63
1001
0001
0100
0010
0101
0000
1000
0100
,  // measure 64
0011
0000
1000
0001
0110
0000
1001
0000
,  // measure 65
0110
0000
0000
0000
;

//---------------dance-single - ----------------
#NOTES:
     dance-single:
     :
     Medium:
     9:
     0.425,0.450,0.207,0.397,0.070:
0000
0000
0000
0000
,
0000
0000
0000
0000
,
0000
0000
0000
0000
,
0000
0000
0000
0000
0000
1000
0100
1000
,
0002
0000
0000
0000
0000
0000
0003
1000
,
0020
0000
0030
0100
0002
0000
0003
0000
,
2002
0000
0000
0000
0000
0000
3003
1000
,
0200
0000
0300
0010
0001
1000
0001
1000
,
0100
0000
0010
0001
1000
0000
0001
1000
,
0001
0100
0010
0000
0100
0000
0001
0000
,
1000
0000
0100
0010
0001
0000
0100
0010
,
1000
0001
1000
0000
0100
0000
1000
0000
,
1001
0000
0000
0000
0001
0000
0100
0000
0001
0000
0000
0100
0000
0000
0010
0000
,
1000
0000
0000
0010
0000
0000
1000
0000
0001
0000
0000
0000
1000
0000
0000
0000
,
0001
0000
0000
0001
0000
0000
0001
0000
0200
0000
0000
0000
0300
0000
0000
0000
,
0001
0000
0000
0001
0000
0000
0001
0000
2000
0000
0000
0000
3000
0000
0000
0000
,
2002
0000
3003
0000
0001
0100
0010
0000
,
0220
0000
0330
0000
0100
0001
1000
0000
,
2002
0000
3003
0000
1000
0100
0010
0100
,
0020
0230
0320
0032
,
2000
0000
3003
0000
0001
0100
0010
1000
,
0200
0000
0300
0000
1000
0100
0010
0001
,
2000
0000
3000
0000
0001
0100
0001
1000
,
0100
1100
2002
3003
,
0002
0000
0010
0000
,
1000
0000
0100
0000
,
2003
0000
0010
0000
,
0001
0000
3100
0000
,
1000
0000
0000
0100
0000
0000
1000
0000
0000
0000
0100
0000
2000
0000
0000
0000
,
3001
0000
0000
0100
0000
0000
0001
0000
0000
0000
1000
0000
0010
0000
0100
0000
,
0010
0000
0000
1000
0000
0000
0001
0000
0000
1000
0000
0000
0100
0000
0000
0010
,
0000
0001
1000
0001
0200
0000
0300
0000
,
0001
0000
0000
0100
0000
0000
0001
0000
1000
0000
0000
0000
1100
0000
0000
0000
,
1000
0000
0000
0001
0000
0000
1000
0000
0001
0000
0100
0000
0001
0000
1000
0000
,
0100
0000
0000
1000
0000
0000
0001
0000
0100
0000
0000
0000
0101
0000
0000
0000
,
0010
0000
0000
1000
0000
0000
0001
0000
1000
0000
0000
0000
0001
0000
0000
0000
,
2000
3200
0302
0203
,
2300
3020
0230
0302
,
1003
0100
1000
0001
0100
0000
0001
0100
,
0001
1000
0100
0100
1000
0000
0001
0100
,
0101
0000
0000
0001
0000
0000
1000
0000
0100
0000
0000
0000
0010
0000
0000
0000
,
0100
0010
0010
0001
0001
0000
1001
0000
,
1000
0000
0000
0010
0000
0000
0100
0000
0010
0000
0000
0000
1000
0000
0000
0000
,
0001
1000
1000
0010
0010
0000
1001
0000
,
2000
0000
3200
0000
,
0320
0000
0032
0000
,
2000
0000
0000
0000
,
3003
0000
0000
0000
0000
0001
0100
0001
,
0100
0000
0000
0001
0000
0000
1000
0000
0100
0000
0000
0000
1100
0000
0000
0000
,
1001
0000
0001
0100
0010
0100
0001
1000
,
0100
0000
0000
1000
0000
0000
0100
0000
1000
0000
0000
0000
1001
0000
0000
0000
,
0001
0100
1000
0100
0001
0000
1000
0000
,
0002
0203
2300
3002
,
0203
2300
3020
0032
,
1003
0010
1000
0001
0010
0000
0001
0010
,
0001
1000
0010
1000
0001
0000
1000
0001
,
1001
0000
1000
0100
1000
0000
0001
0100
,
0001
0100
0010
0000
0110
0000
1001
0000
,
0011
0000
1000
0100
0010
0000
0100
0010
,
0100
1000
0001
0000
0100
0010
1000
0001
,
0100
0000
0010
0100
0010
0000
1000
0001
,
0100
0000
0001
0010
0011
0000
1100
0000
,
1001
0000
0001
0100
1000
0000
1000
0100
,
0001
0000
1000
0100
1100
0000
0011
0000
,
1001
0000
0000
0000
;

//---------------dance-single - ----------------
#NOTES:
     dance-single:
     :
     Easy:
     5:
     0.253,0.317,0.124,0.174,0.000:
0000
0000
0000
0000
,
0000
0000
0000
0000
,
0000
0000
0000
0000
,
0000
0000
0000
0000
,
2002
0000
0000
3003
,
1000
0000
0100
0000
,
2002
0000
0000
3003
,
1000
0000
0010
0000
,
0110
0000
0100
0010
,
1000
0001
1000
1000
,
1001
0000
0001
0010
,
0100
0010
0001
0001
,
0001
0000
0100
0000
,
0010
0100
0001
1000
,
1001
0000
0000
0000
,
0110
0000
0000
0000
,
1001
0000
1000
0100
,
1000
0000
0001
0010
,
0001
0000
0100
0010
,
0100
0001
1000
0100
,
0100
0000
1000
0100
,
0010
0000
0001
0100
,
0010
0000
1000
0001
,
2000
3001
1001
0000
,
0002
0000
0010
0000
,
1000
0000
0100
0000
,
2003
0000
0010
0000
,
0001
0000
3100
0000
,
2002
0000
3003
0000
,
0220
0000
0330
0000
,
0010
1000
0001
0100
,
0001
1000
2002
3003
,
1001
0001
0100
0001
,
2000
0010
0002
3003
,
0001
0010
0001
1000
,
0200
1000
0020
0330
,
0010
0001
0100
1000
,
0100
0001
1000
0001
,
1000
0100
1000
0100
,
1000
0001
1001
0000
,
0001
0100
0001
0100
,
0010
0010
0010
0000
,
0100
0001
1000
0100
,
0010
0010
0010
0000
,
0002
0000
0010
0000
,
1000
0000
0100
0000
,
2000
0000
0000
0000
,
3003
0000
0000
0000
,
1001
0001
0100
0010
,
1000
0000
0001
0001
,
0001
0100
0001
1000
,
0100
0000
0010
0001
,
1000
0100
0001
1000
,
0010
0001
0100
0001
,
2000
0000
0010
0000
,
0001
0001
0002
3003
,
1001
0001
0100
0001
,
1000
0100
1000
1000
,
1000
0010
0100
0001
,
0010
0100
0010
0010
,
0010
0001
1000
0001
,
0100
0010
1000
1000
,
1000
0001
0100
0010
,
1000
0100
0010
0010
,
0010
0000
0000
0000
;

//---------------dance-single - ----------------
#NOTES:
     dance-single:
     :
     Beginner:
     2:
     0.141,0.185,0.141,0.008,0.000:
0000
0000
0000
0000
,
0000
0000
0000
0000
,
0000
0000
0000
0000
,
0000
0000
0000
0000
,
1001
0000
0000
0000
,
0001
0000
1000
0000
,
1001
0000
0000
0000
,
0010
0000
0100
0000
,
0110
0000
0000
0000
,
0010
0000
1000
0000
,
0010
0000
0000
0000
,
0100
0000
0001
0000
,
0100
0000
0000
0000
,
0001
0000
1000
0000
,
0001
0000
0000
0000
,
0001
0000
0000
0000
,
1001
0000
0000
0000
,
1001
0000
0000
0000
,
0110
0000
0000
0000
,
0110
0000
0100
0000
,
1001
0000
0000
0000
,
0110
0000
0000
0000
,
1001
0000
0000
0000
,
0001
0001
0001
0000
,
0100
0000
0000
0000
,
0010
0000
0000
0000
,
1000
0000
0000
0000
,
0001
0000
0000
0000
,
1001
0000
0000
0000
,
1001
0000
0000
0000
,
1000
0000
0001
0000
,
1000
1000
1000
0000
,
1001
0000
0000
0000
,
0001
0000
0100
0000
,
0010
0000
0000
0000
,
0100
0000
0001
0000
,
1000
0000
1000
0000
,
0001
0000
0001
0000
,
1000
0000
0100
0000
,
0010
0010
0010
0000
,
0110
0000
0000
0000
,
0001
0001
0001
0000
,
1001
0000
0000
0000
,
1000
1000
1000
0000
,
0001
0000
0000
0000
,
0100
0000
0010
0000
,
0200
0000
0000
0000
,
0300
0000
0000
0000
,
1001
0000
1000
0000
,
0100
0000
1000
0000
,
0001
0000
0000
0000
,
0100
0000
0001
0000
,
1000
0000
0100
0000
,
1000
0000
0001
0000
,
1000
0000
0010
0000
,
0100
0100
0100
0000
,
0110
0000
0010
0000
,
1000
0000
0001
0000
,
1000
0000
0100
0000
,
0010
0000
0001
0000
,
1000
0000
0001
0000
,
0100
0000
0001
0000
,
1000
0000
0100
0000
,
0010
0010
0010
0010
,
0010
0000
0000
0000
;
