#TITLE:Touch the Sky (tokiwa Remix);
#SUBTITLE:;
#ARTIST:lapix;
#TITLETRANSLIT:;
#SUBTITLETRANSLIT:;
#ARTISTTRANSLIT:;
#GENRE:;
#CREDIT:;
#MUSIC:Touch the Sky (tokiwa Remix).ogg;
#BANNER:Touch the Sky (tokiwa Remix).png;
#BACKGROUND:Touch the Sky (tokiwa Remix)-bg.png;
#CDTITLE:;
#SAMPLESTART:90.358;
#SAMPLELENGTH:15.000;
#SELECTABLE:YES;
#OFFSET:-0.014;
#BPMS:0.000=170.000;
#STOPS:;
#BGCHANGES:;
#FGCHANGES:;

//--------------- dance-single - ----------------
#NOTES:
     dance-single:
     :
     Challenge:
     14:
     0.63569,0.785839,0.463694,0.292859,0.227779,547,490,57,36,0,0,0.63569,0.785839,0.463694,0.292859,0.227779,547,490,57,36,0,0:
0000
0000
0000
0000
,
0000
0000
0000
0000
,
0000
0000
0000
0000
,
0000
0000
0000
0000
,
2000
0000
3100
0000
,
0002
0000
0103
0000
,
2000
0000
3010
0000
,
1100
0101
0011
1010
,
1001
0000
0000
0000
0001
0000
0000
0000
0100
0000
0000
0010
0000
0000
0010
0000
,
0000
0000
1000
0000
0001
0000
0000
0000
1000
0000
0000
0100
0000
0000
0010
0000
,
0001
0100
1000
0100
0001
0000
0000
1000
,
0100
0001
0100
1000
0010
0100
0001
0000
,
0000
1010
0002
0103
,
0000
0011
2000
3100
,
1000
0010
1000
0000
0001
0100
0001
0000
,
0101
0000
0010
0000
1000
0000
0001
0000
1000
0100
1000
0000
0001
0000
0100
0000
,
0010
0000
1000
0000
0100
0000
0010
0100
0000
0000
1000
0000
0000
0000
0000
0000
,
0001
0000
0100
0000
1000
0000
0100
0010
0000
0000
1000
0000
0001
0000
1000
0000
,
0010
0000
1000
0000
0100
0000
0010
0100
0000
0000
1000
0000
0000
0000
0001
0000
,
1000
0000
0010
0001
0000
0010
0000
1000
0000
0000
0000
0000
0000
0000
0000
0000
,
0001
0000
0010
0000
0100
0000
1000
0001
0000
0000
0100
0000
0000
0000
0010
0000
,
1000
0000
0100
0000
0010
0000
0001
1000
0000
0000
0001
0000
0100
0000
0010
0000
,
1000
0010
0100
0001
0100
0010
2000
0002
,
0000
0000
0000
3003
,
1100
1001
1100
1001
,
0101
1001
0101
1001
,
1010
0110
1010
0110
,
0011
0110
0011
0110
,
1100
0100
1000
0000
0101
0100
0001
0000
,
1010
0010
1000
0000
0011
0010
0001
0000
,
1010
0000
0010
0000
0101
0000
0001
0000
0010
0100
0010
0100
0010
0100
0010
0100
,
1000
0101
0011
1100
,
2001
0000
0000
0000
3100
0000
0001
0000
1000
0010
0000
1000
0001
0000
1000
0010
,
1000
0001
0100
0010
2000
0000
3001
0000
,
0012
0000
0000
0000
0103
0000
1000
0000
1000
0010
0000
0100
0001
0000
1000
0100
,
1000
0001
0100
0010
2020
3030
0202
0303
,
0020
0000
0030
0000
1001
0000
1000
0000
0001
0100
0000
0001
1000
0000
0010
0100
,
0010
1000
0010
1000
0002
0000
0103
0010
,
1000
0100
0001
0100
1000
0010
0001
0010
,
1000
1000
0010
0100
0001
0100
0010
0000
,
1001
0000
0000
0000
0001
0000
1000
0000
0010
0100
0000
0010
0100
0000
0001
1000
,
0100
0000
1000
0000
0001
0000
0010
0001
0010
0000
0000
0000
0011
0000
0000
0000
,
2100
0000
0000
0000
3001
0000
0100
0000
0001
1000
0000
0001
0100
0010
0100
0010
,
1000
0000
0001
1000
0001
0000
0010
0000
0022
0000
0033
0000
2200
0000
3300
0000
,
0020
0000
0030
0000
1001
0000
1000
0000
0001
0010
0000
1000
0010
0000
0001
1000
,
0001
0000
1000
0100
1000
0000
0010
1000
0020
0000
0000
0000
0130
0000
0000
0000
,
0001
0010
1000
0010
0001
0100
1000
0100
,
0001
0001
1000
1000
0020
0000
0130
0000
,
0001
1000
0100
0001
0100
1000
0000
0020
,
0000
0031
0010
1000
0100
0000
1100
0000
,
1000
0001
0100
1000
0100
0001
0000
0200
,
0000
0310
1000
0001
0100
0000
0001
1000
,
0001
0100
1000
0100
0001
1000
0000
0200
,
0000
1300
0010
0001
0010
0000
1010
0000
,
1000
0100
0001
0100
1000
0001
0000
0020
,
0000
0031
0100
1000
0001
0010
1000
0100
,
0010
0001
1000
0001
0100
0010
0000
2000
,
0000
3010
0100
0001
1000
0100
0010
0001
,
1000
0100
1000
0001
0100
0010
0000
0200
,
0000
0301
0010
0100
1000
0000
0001
1000
,
0010
0100
0001
0100
0010
1000
0000
0020
,
0000
1030
0100
1000
0001
0010
1000
0010
,
0001
0001
1000
1000
0010
0010
0100
0100
,
0002
0000
0000
0000
,
0013
0000
0001
0000
0100
0000
0010
1000
0000
0000
0010
0000
1010
0000
0000
0000
,
0010
0000
1000
0000
0100
0000
0010
0001
0000
0000
0010
0000
0011
0000
0001
0000
,
0100
0000
0001
0000
0010
0000
0100
1000
0000
0000
0100
0000
1100
0000
0000
0000
,
0100
0000
1000
0001
0000
0100
0000
0010
0000
0000
0000
0000
1001
0000
0000
0000
,
0001
0000
0100
0000
0010
0000
1000
0001
0000
0000
1000
0000
1001
0000
0000
0000
,
1000
0000
0100
0000
0010
0000
0001
1000
0000
0000
0001
0000
1001
0000
0000
0000
,
0001
0010
0001
0100
0010
1000
0100
2000
,
0001
0010
0001
3010
,
0010
0000
1000
0000
0100
0000
0010
0001
0000
0000
0010
0000
0001
0000
0001
0000
,
0010
0000
0001
0000
0100
0000
0010
1000
0000
0000
0010
0000
1000
0000
1000
0000
,
0010
0000
1000
0000
0100
0000
0010
0001
0000
0000
0010
0000
0001
0000
0001
0000
,
0010
0000
0001
1000
0000
0010
0000
0200
0000
0000
0301
0000
0010
0000
0001
0000
,
1000
0000
0100
0000
0010
0000
0001
1000
0000
0001
1000
0000
0100
0000
0010
0000
,
0001
0000
0100
0000
0010
0000
1000
0001
0000
1000
0001
0000
0100
0000
0010
0000
,
1000
0100
0010
0001
0100
0010
1000
0001
,
1001
0110
1100
0101
,
2002
0000
0000
0000
,
0000
0000
0000
0000
,
0000
0000
0000
0000
,
0000
0000
0000
0000
,
3003
0000
0000
0000
;
