#VERSION:0.83;
#TITLE:Toki;
#SUBTITLE:(Club Mix);
#ARTIST:puru;
#TITLETRANSLIT:;
#SUBTITLETRANSLIT:;
#ARTISTTRANSLIT:;
#GENRE:;
#ORIGIN:;
#CREDIT:;
#BANNER:Toki (Club Mix).png;
#BACKGROUND:Toki (Club Mix)-bg.png;
#PREVIEWVID:;
#JACKET:Toki (Club Mix)-jacket.png;
#CDIMAGE:;
#DISCIMAGE:;
#LYRICSPATH:;
#CDTITLE:;
#MUSIC:Toki (Club Mix).ogg;
#OFFSET:1.845000;
#SAMPLESTART:29.525000;
#SAMPLELENGTH:12.000000;
#SELECTABLE:YES;
#BPMS:0.000=130.000;
#STOPS:;
#DELAYS:;
#WARPS:;
#TIMESIGNATURES:0.000=4=4;
#TICKCOUNTS:0.000=4;
#COMBOS:0.000=1;
#SPEEDS:0.000=1.000=0.000=0;
#SCROLLS:0.000=1.000;
#FAKES:;
#LABELS:0.000=Song Start;
#BGCHANGES:4.000=Toki (Club Mix).avi=1.000=1=0=1===CrossFade==,
99999=-nosongbg-=1.000=0=0=0 // don't automatically add -songbackground-
;
#KEYSOUNDS:;
#ATTACKS:
;

//---------------dance-single - OrangeRight----------------
#NOTEDATA:;
#CHARTNAME:OrangeRight;
#STEPSTYPE:dance-single;
#DESCRIPTION:OrangeRight;
#CHARTSTYLE:;
#DIFFICULTY:Beginner;
#METER:2;
#RADARVALUES:0.132841,0.185262,0.007153,0.028612,0.000000,130.000000,129.000000,1.000000,4.000000,0.000000,0.000000,0.000000,0.000000,0.000000,0.132841,0.185262,0.007153,0.028612,0.000000,130.000000,129.000000,1.000000,4.000000,0.000000,0.000000,0.000000,0.000000,0.000000;
#CREDIT:OrangeRight;
#NOTES:
0000
0000
0000
0000
,
0000
0000
0000
0000
,
0000
0000
0000
0000
,
0000
0000
0000
0000
,
0000
0000
0000
0000
,
1000
0000
1000
0000
,
1000
0000
1000
0000
,
1000
1000
1000
1000
,
0001
0000
1000
0000
,
0001
0000
0000
0001
,
1000
0000
0000
1000
,
1000
0000
0000
1000
,
0001
0000
0100
0000
,
0010
0000
0000
0010
,
0100
0000
0000
0100
,
0100
0000
0000
0100
,
0010
0000
0000
0000
,
1000
0000
1000
0000
,
1000
0000
1000
0000
,
0001
0000
0001
0000
,
0001
0000
0001
0000
,
1000
0000
1000
0000
,
1000
0000
1000
0000
,
0001
0000
0001
0000
,
0001
0000
0001
0000
,
0100
0000
0100
0000
,
0100
0000
0100
0000
,
0010
0000
0010
0000
,
0010
0000
0010
0000
,
0100
0000
0100
0000
,
0100
0000
0100
0000
,
0010
0000
0010
0000
,
1000
0000
0001
0000
,
2000
0000
0000
0000
,
3000
0000
0001
0000
,
0002
0000
0000
0000
,
0003
0000
1000
0000
,
2000
0000
0000
0000
,
3000
0000
1000
0000
,
0002
0000
0000
0000
,
0003
0000
0000
0000
,
1000
0000
0000
0000
,
0001
0000
0100
0000
,
0010
0000
0000
0000
,
1000
0000
0100
0000
,
1000
0000
0000
0000
,
0010
0000
0100
0000
,
0001
0000
0001
0000
,
1000
0001
1000
0000
,
1000
0000
1000
0000
,
1000
0000
0100
0000
,
0010
0000
0010
0000
,
0001
0000
0100
0000
,
0010
0000
0010
0000
,
1000
0000
0001
0000
,
1000
0000
1000
0000
,
0001
0000
0001
0000
,
0100
0000
0100
0000
,
0010
0000
1000
0000
,
0001
0000
0001
0000
,
0010
0000
0010
0000
,
0100
0000
1000
0000
,
0001
0000
0100
0000
,
0010
0000
1000
0000
,
0001
0000
0010
0000
,
0100
0000
0100
0000
,
0100
0000
1000
0000
,
0001
0000
0001
0000
,
0010
0000
0100
0000
,
1000
0000
0001
0000
,
1000
0000
0001
0000
,
1000
0000
1000
0000
,
0001
0001
0001
0001
,
0000
0000
0000
0000
,
1001
0000
0000
0000
;

//---------------dance-single - OrangeRight----------------
#NOTEDATA:;
#CHARTNAME:OrangeRight;
#STEPSTYPE:dance-single;
#DESCRIPTION:OrangeRight;
#CHARTSTYLE:;
#DIFFICULTY:Easy;
#METER:6;
#RADARVALUES:0.258529,0.291126,0.121601,0.221742,0.021459,253.000000,236.000000,17.000000,31.000000,0.000000,0.000000,0.000000,0.000000,0.000000,0.258529,0.291126,0.121601,0.221742,0.021459,253.000000,236.000000,17.000000,31.000000,0.000000,0.000000,0.000000,0.000000,0.000000;
#CREDIT:OrangeRight;
#NOTES:
0000
0000
0000
0000
,
0000
0000
0000
0000
,
0000
0000
0000
0000
,
0000
0000
0000
0000
,
0000
0000
0000
0000
,
1000
1000
0001
0001
,
1000
1000
0001
0001
,
1000
0001
1000
0001
,
0200
0310
0010
0010
,
1000
0100
0010
1001
,
0001
0100
0002
1003
,
0001
0010
0100
1001
,
1000
0010
0200
0310
,
1000
0001
0010
1001
,
0010
0100
0002
1003
,
0001
1000
0100
1001
,
2000
0000
3002
0000
,
1003
0100
1000
0010
,
1000
0100
1000
1000
,
0001
0100
0001
0010
,
0001
0100
0001
0001
,
1000
0010
1000
0001
,
1000
0010
1000
1000
,
0001
0010
0001
1000
,
0001
0010
0001
0001
,
1000
0100
1000
0010
,
0100
0010
1000
1000
,
0001
0100
0001
0010
,
0100
0010
0001
0001
,
1000
0100
0010
0100
,
1000
0010
0100
0100
,
0001
0010
0100
0010
,
0001
0100
0010
0100
,
2002
0000
0000
3003
,
0002
0000
0203
0000
,
0320
0000
0000
0000
,
2030
0000
0000
0000
0000
0000
3001
0000
0100
0000
0001
0000
,
0200
0000
0000
0000
,
0302
0000
2003
0000
,
3200
0000
0000
0000
,
2300
0000
0000
0000
0000
0000
0000
3000
,
2002
0000
0000
3003
,
2000
0000
3200
0000
,
0320
0000
0000
0000
,
0032
0000
0000
0000
0000
0000
0003
0000
0100
0000
0010
0000
,
2000
0000
0000
0000
,
3002
0000
0203
0000
,
0310
0000
0110
0000
,
1000
0001
1001
0000
,
1000
0100
0010
1001
,
0001
0100
0100
0010
,
1000
0100
0010
1001
,
0001
0100
0020
0130
,
0001
0100
0010
1001
,
1000
0100
0100
0010
,
0001
0100
0010
1001
,
1000
0100
0020
0130
,
1000
0001
0100
0110
,
0010
0100
0100
0001
,
1000
0001
0010
0110
,
0010
0100
0200
0310
,
0001
1000
0100
0110
,
0010
0100
0100
1000
,
0001
1000
0010
0110
,
0100
0000
0001
0000
0100
0000
0002
0000
0000
1000
0000
0000
,
1003
0100
0001
0100
,
1000
0100
0100
0001
,
0100
1000
0010
0001
,
0010
1000
0002
1003
,
0001
0010
1000
0010
,
0001
0010
0010
1000
,
0010
0001
0100
1000
,
0100
0001
0010
0100
,
0000
0000
0000
0000
,
1001
0000
0000
0000
;

//---------------dance-single - OrangeRight----------------
#NOTEDATA:;
#CHARTNAME:OrangeRight;
#STEPSTYPE:dance-single;
#DESCRIPTION:OrangeRight;
#CHARTSTYLE:;
#DIFFICULTY:Medium;
#METER:9;
#RADARVALUES:0.393414,0.476388,0.100142,0.264660,0.396990,385.000000,371.000000,14.000000,37.000000,0.000000,0.000000,0.000000,0.000000,0.000000,0.393414,0.476388,0.100142,0.264660,0.396990,385.000000,371.000000,14.000000,37.000000,0.000000,0.000000,0.000000,0.000000,0.000000;
#CREDIT:OrangeRight;
#NOTES:
0000
0000
0000
0000
,
0000
0000
0000
0000
,
0000
0000
0000
0000
,
0000
0000
0000
0000
,
0000
0000
0000
0000
,
1000
0001
1000
0001
1000
0001
1000
0001
,
0100
0010
0100
0010
0100
0010
0100
0010
,
2000
3002
2003
3002
,
0203
0000
0310
0000
1000
0001
1000
0001
,
1000
0100
1000
0000
0001
0000
0101
0000
,
1000
0100
1000
0000
0002
0000
0013
0000
,
0001
0010
0001
0000
1000
0000
1010
0000
,
0001
0010
0001
0000
2000
0000
3001
0000
,
1000
0010
1000
0000
0001
0000
0011
0000
,
0001
0010
0001
0000
2000
0000
3010
0000
,
1000
0100
1000
0000
0001
0000
0101
0000
,
2000
0000
3002
0000
,
1003
0100
1000
0000
0001
0100
0001
0000
,
1000
0000
0100
0000
1000
0000
0000
0000
0001
0000
0001
0000
0000
0100
0000
0000
,
0001
0010
0001
0000
1000
0010
1000
0000
,
0001
0000
0010
0000
0001
0000
0000
0000
1000
0000
1000
0000
0000
0010
0000
0000
,
1000
0100
0010
0000
0001
0100
0010
0000
,
1000
0000
0010
0000
0100
0000
0000
0000
0001
0000
0100
0000
0000
0001
0000
0000
,
0001
0010
0100
0000
1000
0010
0100
0000
,
0001
0000
0100
0000
0010
0000
0000
0000
1000
0000
0001
0000
0000
1000
0000
0000
,
0001
0000
0100
0000
0000
0001
0000
0000
0100
0000
0010
0000
0000
0100
0000
0000
,
0010
0000
1000
0000
0000
0010
0000
0000
1000
0000
0100
0000
0000
1000
0000
0000
,
0001
0000
1000
0000
0000
0001
0000
0000
0010
0000
0100
0000
0000
0010
0000
0000
,
0001
0000
1000
0000
0000
0001
0000
0000
0100
0000
0010
0000
0000
1000
0000
0000
,
0010
0000
0100
0000
0000
0001
0000
0000
0010
0000
0100
0000
0000
1000
0000
0000
,
0100
0000
0010
0000
0000
0001
0000
0000
0100
0000
0010
0000
0000
1000
0000
0000
,
0001
0000
1000
0000
0000
0001
0000
0000
0100
0000
0010
0000
0000
0100
0000
0000
,
0001
0000
0010
0000
0000
0100
0000
0000
1000
0000
0010
0000
0000
0100
0000
0000
,
2002
0000
0000
3000
,
0200
0003
0020
0300
,
2000
0000
0000
0030
,
0002
0000
0000
3003
0000
0000
1000
0000
0001
0000
1000
0000
,
2002
0000
0000
0003
,
0200
3000
0020
0300
,
0002
0000
0000
0030
,
0200
0000
0000
0303
,
0001
0000
0001
0000
0001
0000
0001
0000
0001
0000
0001
0000
,
0100
0000
0100
0000
0100
0000
0010
0000
0010
0000
0010
0000
,
1000
0000
1000
0000
1000
0000
1000
0000
1000
0000
1000
0000
,
0100
0000
0100
0000
0100
0000
0100
0000
0010
0000
0001
0000
,
0100
0000
0100
0000
0100
0000
0100
0000
0100
0000
0100
0000
,
0010
0000
0010
0000
0010
0000
0100
0000
0100
0000
0100
0000
,
0001
0000
1000
0000
0001
0000
1000
0000
0001
0000
1000
0000
,
0001
1000
0001
1000
0001
1000
0002
0000
0000
0003
0000
0000
,
1000
0000
1000
0100
0000
0100
0020
0000
0000
0031
0000
0000
,
0001
0000
0001
0100
0000
0100
0020
0000
0000
1030
0000
0000
,
1000
0000
1000
0001
0000
0001
0200
0000
0000
0310
0000
0000
,
0100
0000
0100
0010
0000
0010
0100
0000
0001
0000
1000
0000
,
0001
0000
0001
0100
0000
0100
0020
0000
0000
1030
0000
0000
,
1000
0000
1000
0100
0000
0100
0020
0000
0000
0031
0000
0000
,
0001
0000
0001
1000
0000
1000
0200
0000
0000
0310
0000
0000
,
0100
0000
0100
0010
0000
0010
0200
0000
0000
1300
0000
0000
,
1000
0000
1000
0001
0000
0001
0200
0000
0000
0310
0000
0000
,
0010
0000
0010
1000
0000
1000
0002
0000
0000
0013
0000
0000
,
0100
0000
0100
1000
0000
1000
0002
0000
0000
0103
0000
0000
,
0101
0000
0000
0100
0000
0010
1000
0000
0001
0000
1000
0000
,
0001
0000
0001
1000
0000
1000
0200
0000
0000
0310
0000
0000
,
0010
0000
0010
0001
0000
0001
2000
0000
0000
3010
0000
0000
,
0100
0000
0100
0001
0000
0001
2000
0000
0000
3100
0000
0000
,
1000
0000
0001
0000
1000
0001
2000
0000
0000
3001
0000
0000
,
1000
0001
1000
0001
0000
0000
1000
0000
0000
0101
0000
0000
,
0010
0000
0000
0100
1000
0100
1000
0000
0000
1001
0000
0000
,
0001
1000
0001
1000
0000
0000
0010
0000
0000
1010
0000
0000
,
0100
0000
0000
0001
0000
0000
1000
0000
0001
0000
1000
0000
,
0001
1000
0001
1000
0000
0000
0001
0000
0000
1100
0000
0000
,
0010
0000
0000
0100
0001
0100
0001
0000
0000
1001
0000
0000
,
1000
0001
1000
0001
0000
0000
0010
0000
0000
0011
0000
0000
,
0001
0000
0001
0010
0001
0010
0100
1000
0100
1000
0100
1000
,
0000
0000
0000
0000
,
1001
0000
0000
0000
;

//---------------dance-single - OrangeRight----------------
#NOTEDATA:;
#CHARTNAME:OrangeRight;
#STEPSTYPE:dance-single;
#DESCRIPTION:OrangeRight;
#CHARTSTYLE:;
#DIFFICULTY:Hard;
#METER:14;
#RADARVALUES:0.591653,0.688116,0.193130,0.250354,0.801133,579.000000,552.000000,27.000000,35.000000,0.000000,0.000000,0.000000,0.000000,0.000000,0.591653,0.688116,0.193130,0.250354,0.801133,579.000000,552.000000,27.000000,35.000000,0.000000,0.000000,0.000000,0.000000,0.000000;
#CREDIT:OrangeRight;
#NOTES:
// measure 0
0000
0000
0000
0000
,  // measure 1
0000
0000
0000
0000
,  // measure 2
0000
0000
0000
0000
,  // measure 3
0000
0000
0000
0000
,  // measure 4
0000
0000
0000
0000
,  // measure 5
1000
0100
0010
0001
1000
0100
0010
0001
,  // measure 6
1000
0010
0100
0001
1000
0010
0100
0001
,  // measure 7
1000
0001
1000
0001
1000
0001
1000
0001
1000
0001
1000
0001
1000
0001
1000
0001
,  // measure 8
2000
0000
0000
0000
3001
0000
1000
0000
0100
0000
0010
0000
0001
0000
1000
0001
,  // measure 9
1000
0000
1000
0000
0100
1000
0000
0000
0010
0000
1000
0000
1001
0000
0000
0000
,  // measure 10
0010
0000
0010
0000
0001
0010
0000
0000
0200
0000
1000
0000
1300
0000
0000
0000
,  // measure 11
0001
0000
0001
0000
0100
0001
0000
0000
0010
0000
0001
0000
1001
0000
0000
0000
,  // measure 12
0010
0000
0010
0000
1000
0010
0000
0000
0200
0000
0001
0000
0301
0000
0000
0000
,  // measure 13
0100
0000
0001
0000
0100
0001
0000
0000
1000
0000
0010
0000
1100
0000
0000
0000
,  // measure 14
0100
0000
0010
0000
0100
0010
0000
0000
0200
0000
1000
0000
1300
0000
0000
0000
,  // measure 15
0010
0000
1000
0000
0010
1000
0000
0000
0001
0000
0100
0000
0101
0000
0000
0000
,  // measure 16
2001
0000
0001
0000
0000
0001
0000
0000
3002
0000
1000
0000
0000
1000
0000
0000
,  // measure 17
1003
0000
0100
0000
1000
0100
0000
0000
0010
0000
0001
0000
0010
0001
0000
0000
,  // measure 18
0001
0000
0100
0000
0001
0100
0000
0000
0010
0000
0100
0000
0010
0100
0000
0000
,  // measure 19
0010
0000
1000
0000
0010
1000
0000
0000
1000
0000
0100
0000
1000
0100
0000
0000
,  // measure 20
0010
0000
0001
0000
0010
0001
0000
0000
0100
0000
0010
0000
0100
0010
0000
0000
,  // measure 21
0010
0000
1000
0000
0100
0010
0000
0000
0010
0000
0001
0000
0100
0010
0000
0000
,  // measure 22
0100
0000
0001
0000
0010
0100
0000
0000
0100
0000
1000
0000
0010
0100
0000
0000
,  // measure 23
0001
0000
0010
0000
0100
1000
0000
0000
1000
0000
0010
0000
0100
0001
0000
0000
,  // measure 24
0001
0000
1000
0000
0001
1000
0000
0000
1000
0000
0001
0000
1000
0001
0000
0000
,  // measure 25
1000
0000
0100
1000
0100
0000
0010
0000
0001
0010
0001
0000
0100
0000
0010
0000
,  // measure 26
1000
0000
0010
1000
0010
0000
0100
0000
0001
0100
0001
0000
1000
0000
0001
0000
,  // measure 27
0100
0000
0010
0100
0010
0000
0100
0000
0001
0100
0001
0000
1000
0000
0001
0000
,  // measure 28
0010
0000
0100
0010
0100
0000
0010
0000
0001
0010
0001
0000
0100
0000
0010
0000
,  // measure 29
1000
0000
0100
1000
0100
0000
1000
0000
0001
0100
0001
0000
0100
0000
0001
0000
,  // measure 30
1000
0000
0010
1000
0010
0000
1000
0000
0001
0010
0001
0000
0010
0000
0001
0000
,  // measure 31
1000
0000
0100
0010
0001
0000
0100
0000
0010
1000
0100
0000
0010
0000
0001
0000
,  // measure 32
1000
0000
0001
0000
1000
0001
0000
0000
0001
0000
1000
0000
0001
1000
0000
0000
,  // measure 33
2001
0000
0001
0000
0000
0001
0000
0000
0001
0000
0001
0000
0000
0001
0000
0000
,  // measure 34
3200
0000
0010
0000
0000
0010
0000
0000
0320
0000
0001
0000
0000
0001
0000
0000
,  // measure 35
0032
0000
1000
0000
0000
1000
0000
0000
1000
0000
1000
0000
0000
1000
0000
0000
,  // measure 36
0203
0000
0000
0000
0000
0000
0010
0000
0000
0000
0000
0000
0000
0000
0000
0010
0000
0000
0000
0000
0000
0000
0000
0000
0320
0000
0000
0000
0000
0000
0000
0000
2030
0000
0000
0000
0000
0000
0000
0000
3200
0000
0000
0000
0000
0000
0000
0000
,  // measure 37
2300
0000
0001
0000
0000
0001
0000
0000
0001
0000
0001
0000
0000
0001
0000
0000
,  // measure 38
3002
0000
0100
0000
0000
0100
0000
0000
0203
0000
0010
0000
0000
0010
0000
0000
,  // measure 39
0320
0000
1000
0000
0000
1000
0000
0000
0100
0000
0100
0000
0000
0100
0000
0000
,  // measure 40
2030
0002
0000
3003
,  // measure 41
2001
0000
0100
0000
0010
0000
3002
0000
1000
0000
0100
0000
,  // measure 42
2003
0000
0010
0000
0100
0000
3002
0000
1000
0000
0100
0000
,  // measure 43
0023
0000
0100
0000
0100
0000
0001
0000
0001
0000
0001
0000
,  // measure 44
0230
0000
1000
0000
1000
0000
2300
0000
3002
0000
0203
0000
,  // measure 45
0320
0000
0100
0000
0100
0000
1000
0000
1000
0000
1000
0000
,  // measure 46
2030
0000
0010
0000
0100
0000
3002
0000
0010
0000
0103
0000
,  // measure 47
0101
0000
0110
0000
1010
0000
1001
0000
1100
0000
0110
0000
,  // measure 48
0010
0001
0100
0010
1000
0100
2000
0000
0000
3002
0000
0000
,  // measure 49
1003
0000
0001
0100
0000
0100
0001
1000
0010
1000
0000
0000
,  // measure 50
1000
0000
1000
0100
0010
0100
0010
0000
0000
0011
0000
0000
,  // measure 51
0001
0000
1000
0100
0000
0100
0010
0001
1000
0001
0000
0000
,  // measure 52
0001
0000
0001
0100
0000
0100
0010
0000
1010
0000
0101
0000
,  // measure 53
1000
0000
1000
0001
0000
0001
0100
0010
1000
0001
0000
0000
,  // measure 54
0001
1000
0001
0100
0010
0100
0001
0000
0000
0101
0000
0000
,  // measure 55
0001
0000
0100
0010
0000
0010
1000
0001
1000
0100
0000
0000
,  // measure 56
1000
0100
0010
0001
1000
0100
0010
0000
0000
0110
0000
0000
,  // measure 57
0010
0000
0010
0100
0000
0100
1000
0010
0100
0001
0000
0000
,  // measure 58
0100
0000
0100
0001
0100
0001
0010
0000
0000
0110
0000
0000
,  // measure 59
0100
0000
0100
0010
0000
0010
0001
0100
0010
1000
0000
0000
,  // measure 60
0010
1000
0010
0100
0001
0100
0010
0000
1100
0000
0011
0000
,  // measure 61
0010
0000
0010
0001
0000
0001
0100
0010
0100
0001
0000
0000
,  // measure 62
0001
1000
0001
0100
0010
0100
0001
0000
0000
0101
0000
0000
,  // measure 63
0001
0000
0001
0100
0000
0100
0010
1000
0001
1000
0000
0000
,  // measure 64
1001
0000
0000
0000
1001
0000
0000
0000
0100
0000
0010
0000
0200
0000
0000
0000
0310
0000
1000
0000
0001
1000
0001
0000
,  // measure 65
1000
0100
0010
0001
1000
0010
0100
0001
1000
0100
0010
0001
,  // measure 66
1000
0010
0100
0001
1000
0001
0100
0010
1000
0001
0100
0010
,  // measure 67
1000
0010
0100
0001
1000
0100
0010
0001
1000
0010
0100
0001
,  // measure 68
1000
0100
0010
0001
0100
0010
1000
0000
1010
0000
0101
0000
,  // measure 69
0010
0100
1000
0001
0100
0001
0010
0100
1000
0001
0100
0010
,  // measure 70
0100
0001
0010
0100
0010
0100
0010
0001
0100
0010
1000
0100
,  // measure 71
1000
0001
1000
0100
0010
0001
1000
0010
0100
0001
1000
0100
,  // measure 72
0010
0000
0001
0100
1000
0100
0001
0010
1000
0010
0001
1000
,  // measure 73
0000
0000
0000
0000
,  // measure 74
1001
0000
0000
0000
;

//---------------dance-single - OrangeRight----------------
#NOTEDATA:;
#CHARTNAME:OrangeRight;
#STEPSTYPE:dance-single;
#DESCRIPTION:OrangeRight;
#CHARTSTYLE:;
#DIFFICULTY:Challenge;
#METER:17;
#RADARVALUES:0.810330,0.952776,0.250354,0.321884,1.409136,793.000000,758.000000,35.000000,45.000000,0.000000,0.000000,0.000000,0.000000,0.000000,0.810330,0.952776,0.250354,0.321884,1.409136,793.000000,758.000000,35.000000,45.000000,0.000000,0.000000,0.000000,0.000000,0.000000;
#CREDIT:OrangeRight;
#NOTES:
0000
0000
0000
0000
,
0000
0000
0000
0000
,
0000
0000
0000
0000
,
0000
0000
0000
0000
,
0000
0000
0000
0000
,
1000
0100
0010
0001
0100
0010
1000
0001
,
0010
0100
1000
0010
0100
0001
1000
0001
,
0010
0001
0010
0001
0100
0010
0100
0010
1000
0100
1000
0100
1000
0001
1000
0001
,
0200
0000
0000
0000
0000
0000
0000
0000
0000
0000
0000
0000
0310
0000
0000
0000
0000
0000
1000
0000
0001
0000
1000
0000
0001
0000
0000
0000
0000
0000
0100
0000
0000
0000
0000
0000
0010
0000
0000
0000
0000
0000
1000
0000
0000
0001
0000
0000
,
1000
0000
0100
0000
1000
0100
0000
0000
0010
0000
0001
0000
2002
0000
3003
0000
,
0001
0000
0100
0000
0001
0100
0000
0000
0020
0000
1000
0000
0130
0001
0100
0001
,
1000
0000
0010
0000
1000
0010
0000
0000
0100
0000
0001
0000
2002
0000
3003
0000
,
0001
0000
0010
0000
0001
0010
0000
0000
0200
0000
0010
0000
1300
0010
1000
0010
,
0100
0000
0001
0000
0100
0001
0000
0000
0001
0000
0010
0000
0220
0000
0330
0000
,
0100
0000
1000
0000
0100
1000
0000
0000
0020
0000
1000
0000
0130
0001
0100
0001
,
0010
0000
0001
0000
0010
0001
0000
0000
1000
0000
0001
0000
0220
0000
0330
0000
,
2001
0000
0001
0000
0000
0001
0000
0000
3001
0000
1100
0000
0000
0101
0000
0000
,
1000
0100
1000
0100
1000
0000
0010
0100
0010
0100
0010
0000
0100
0001
0100
0001
,
1000
0010
1000
0010
1000
0000
0100
0010
0100
0010
0100
0000
0010
0001
0010
0001
,
1000
0010
1000
0010
0100
0000
0001
0010
0001
0010
0100
0000
1000
0001
1000
0001
,
1000
0100
1000
0100
0010
0000
0001
0100
0001
0100
0010
0000
0100
0010
0100
0010
,
1000
0100
0010
0001
1000
0000
0001
0100
0010
1000
0001
0000
0100
0010
1000
0001
,
1000
0010
0100
0001
1000
0000
0001
0010
0100
1000
0001
0000
0010
0100
1000
0001
,
0100
0010
1000
0001
0100
0000
0010
0100
0001
1000
0100
0000
0100
1000
0100
1000
,
0010
0100
0001
1000
0100
0000
0010
0100
1000
0001
0100
0000
0100
0001
0100
0001
,
1000
0100
0010
0001
0010
0000
0001
0100
0010
1000
0001
0010
0000
0010
0001
1000
,
0001
0100
0010
1000
0010
0000
1000
0100
0010
0001
1000
0010
0000
0010
1000
0001
,
1000
0100
0010
0100
1000
0000
0001
0100
0010
0100
0001
0010
0000
0010
0001
1000
,
0001
0100
0010
0100
0001
0000
1000
0100
0010
0100
1000
0010
0000
0010
1000
0001
,
1000
0100
0010
0001
1000
0000
0001
0100
0010
1000
0001
1000
0000
0100
0010
0100
,
1000
0010
0100
0001
1000
0000
0001
0010
0100
1000
0001
1000
0000
0010
0100
0010
,
1000
0010
0100
0001
0010
0000
0010
0001
0100
0010
1000
0001
0000
1000
0001
1000
,
0001
0010
0100
1000
0010
0000
0010
1000
0100
0010
0001
1000
0000
0001
1000
0001
,
1002
0000
1000
0000
0000
0010
0000
0000
0203
0000
0001
0000
0000
0010
0000
0000
,
0302
0000
0100
0000
0000
0010
0000
0000
2003
0000
0001
0000
0000
0100
0000
0000
,
3020
0000
1000
0000
0000
0001
0000
0000
0230
0000
0001
0000
0000
1000
0000
0000
,
0302
0000
0000
0000
0000
0000
0010
0000
0000
0000
0000
0000
0000
0000
0000
1000
0000
0000
0003
0000
0000
0000
0000
0000
0101
0000
0000
0000
0000
0000
0000
0000
1100
0000
0000
0000
0000
0000
0000
0000
1010
0000
0000
0000
0000
0000
0000
0000
,
0210
0000
0001
0000
0000
0010
0000
0000
0320
0000
1000
0000
0000
0100
0000
0000
,
0230
0000
0001
0000
0000
1000
0000
0000
0320
0000
1000
0000
0000
0001
0000
0000
,
2030
0000
0001
0000
0000
0100
0000
0000
3002
0000
1000
0000
0000
0100
0000
0000
,
1003
0100
0010
0002
2000
0000
0000
0000
0000
0000
0000
0000
3003
0000
0000
0000
,
2001
0000
0001
0000
0010
0000
3200
0000
1000
0000
0010
0000
,
2300
0000
0000
0000
0100
0000
0000
0000
0010
0000
0000
0000
3002
0000
0000
0000
1000
0000
0000
0000
1003
0000
1000
0100
,
0020
0000
0001
0000
1000
0000
0230
0000
1000
0000
0001
0000
,
2300
0000
0000
0000
0010
0000
0000
0000
0001
3000
0000
0000
1100
0000
0000
0000
0101
0000
0000
0000
0011
0000
0000
0000
,
0210
0000
1000
0000
0010
0000
0320
0000
0001
0000
0100
0000
,
0230
0000
1000
0000
0001
0000
0320
0000
0001
0000
1030
0000
,
1010
0000
0011
0000
0101
0000
0110
0000
1010
0000
1100
0000
,
1000
0100
0010
0001
0100
0010
2000
0000
0000
3002
0000
0000
,
1003
0000
0100
0000
0010
0000
0001
0000
1000
0000
0100
0000
0010
0000
0001
0100
0010
1000
0001
0000
0100
0000
0010
0000
,
1000
0000
0100
0000
0010
0000
0001
0100
0010
0000
1000
0000
0001
0000
1000
0000
0100
0000
0010
0000
0001
0010
0100
1000
,
0001
0000
0100
0000
0010
0000
1000
0000
0001
0000
0100
0000
0010
0000
1000
0100
0010
0001
1000
0000
0100
0000
0010
0000
,
0001
0000
0100
0000
0010
0000
1000
0100
0010
0000
0001
0000
1001
0000
0000
0000
1100
0000
0000
0000
0101
0000
0000
0000
,
0001
0000
0100
0000
0010
0000
1000
0000
0001
0000
0100
0000
0010
0000
1000
0100
1000
0010
0100
0000
0001
0000
0010
0000
,
0100
0000
1000
0001
0100
0010
1000
0001
0010
0000
0100
0000
2000
0000
0000
3001
0000
0000
1000
0100
0010
0001
1000
0000
,
0001
0000
0010
0000
0100
0000
1000
0000
0001
0000
0010
0000
0100
0000
1000
0010
0100
0001
0010
0000
0100
0000
1000
0000
,
0010
0000
0100
0001
0010
0100
1000
0001
0100
0000
0010
0000
2000
0000
0000
0000
0000
0000
3001
0100
0010
1000
0100
0010
,
0001
0000
0100
0000
0010
0000
1000
0000
0001
0000
0010
0000
0100
0000
1000
0001
0100
0001
1000
0000
0010
0000
0100
0000
,
0001
0000
0010
0000
0100
0000
1000
0010
0100
0000
0001
0000
0010
0000
0100
0000
1000
0000
0100
0000
1000
0100
0010
0001
,
1000
0000
0010
0000
0100
0000
0001
0000
1000
0000
0100
0000
0010
0000
0001
0010
0100
1000
0001
0000
0010
0000
0100
0000
,
1000
0000
0010
0000
0100
0000
0001
0010
0100
0000
1000
0000
1001
0000
0000
0000
0011
0000
0000
0000
1010
0000
0000
0000
,
1000
0000
0010
0000
0100
0000
0001
0000
1000
0000
0010
0000
0100
0000
0001
0010
0001
0100
0010
0000
1000
0000
0100
0000
,
0010
0000
0001
0010
0100
0010
0001
1000
0010
0000
0100
0000
0002
0000
0000
1003
0000
0000
0001
0010
0100
1000
0001
0000
,
1000
0000
0100
0000
0010
0000
0001
0000
1000
0000
0100
0000
0010
0000
0001
0100
0010
1000
0100
0000
0010
0000
0001
0000
,
0101
0000
0000
0000
0110
0000
0000
0000
0010
0000
1000
0000
1020
0000
0000
0000
0100
0000
0130
0000
0001
0100
0010
1000
,
0001
0100
1000
0100
0001
0100
0010
1000
0010
0100
0010
0001
,
0010
0000
1000
0000
0100
0000
1000
0000
0100
0000
1000
0000
0001
0000
0100
0000
1000
0000
0100
0000
0001
0000
0010
0100
,
1000
0100
0001
0100
1000
0100
0010
0001
0010
0100
0010
1000
,
0010
0001
0100
1000
0100
0001
1000
0100
1100
0000
0101
0000
,
1000
0100
0001
0100
1000
0100
0010
0001
0010
0100
0010
1000
,
0010
0001
0100
0001
0100
0001
1000
0100
0001
0100
1000
0100
,
0010
0001
0100
1000
0100
0001
0010
0100
1000
0010
0001
0010
,
1000
0001
0100
0010
1000
0100
1000
0010
1000
0001
0100
0010
0100
0001
0010
0100
0010
0001
0100
0010
1000
0100
0010
0001
,
0000
0000
0000
0000
,
1001
0000
0000
0000
;
