#VERSION:0.83;
#TITLE:The Wolf;
#SUBTITLE:;
#ARTIST:SIAMÉS;
#TITLETRANSLIT:;
#SUBTITLETRANSLIT:;
#ARTISTTRANSLIT:;
#GENRE:;
#CREDIT:;
#MUSIC:The Wolf.ogg;
#BANNER:The Wolf.png;
#BACKGROUND:The Wolf-bg.png;
#CDTITLE:;
#SAMPLESTART:60.018;
#SAMPLELENGTH:12.000;
#SELECTABLE:YES;
#OFFSET:2.482;
#BPMS:0.000=96.000;
#STOPS:;
#SPEEDS:0.000=1.000=0.000=0;
#SCROLLS:0.000=1.000;
#TICKCOUNTS:0.000=4;
#TIMESIGNATURES:0.000=4=4;
#LABELS:0.000=Song Start;
#COMBOS:0.000=1;
#ORIGIN:;
#PREVIEWVID:;
#JACKET:The Wolf-jacket.png;
#CDIMAGE:;
#DISCIMAGE:;
#BGCHANGES:3.625=The Wolf.avi=1.000=0=0=0=StretchNoLoop====,
99999.000=-nosongbg-=1.000=0=0=0=StretchNoLoop====
;
#FGCHANGES:;

//--------------- dance-single - Talkion ----------------
#NOTEDATA:;
#STEPSTYPE:dance-single;
#DESCRIPTION:Talkion;
#DIFFICULTY:Beginner;
#METER:1;
#RADARVALUES:0,0,0,0,0;
#NOTES:
0000
0000
0000
0000
,
0000
0000
0000
0000
,
0000
0000
0000
0000
,
1000
0000
1000
0000
,
0001
0000
0001
0000
,
1000
0000
1000
0000
,
0001
0000
0001
0000
,
1000
0000
1000
0000
,
0001
0000
0001
0000
,
1000
0000
1000
0000
,
0001
0000
0001
0000
,
0200
0000
0000
0300
,
0000
0001
0000
0001
,
0000
1000
0000
1000
,
0000
0001
0000
0001
,
0002
0000
0000
0003
,
0000
0010
0000
0010
,
0000
0100
0000
0100
,
0000
0010
0000
0010
,
0020
0000
0000
0030
,
0001
1000
0000
1000
,
0000
1000
0000
1000
,
0001
0000
0000
0001
0000
0000
0000
0000
,
1000
0000
0000
1000
0000
0000
0000
0000
,
1000
0001
0000
0001
,
0000
0001
0000
0001
,
1000
0000
0000
1000
0000
0000
0000
0000
,
0001
0000
0000
0001
0000
0000
0000
0000
,
0002
0000
0000
0003
,
1000
0000
1000
0000
,
0010
0000
0010
0000
,
0100
0000
0100
0000
,
0001
0000
0001
0000
,
0010
0000
0010
0000
,
0100
0000
0100
0000
,
1000
0000
1000
0000
,
0001
0100
0000
0100
,
0000
0100
0000
0100
,
0010
0000
0000
0010
0000
0000
0000
0000
,
1000
0000
0000
1000
0000
0000
0000
0000
,
1000
0100
0000
0100
,
0000
0100
0000
0100
,
0010
0000
0000
0010
0000
0000
0000
0000
,
0001
0000
0000
0001
0000
0000
0000
0000
,
0002
0000
0000
0000
,
0000
0000
0000
0000
,
1003
0000
0000
0000
;

//--------------- dance-single - Talkion ----------------
#NOTEDATA:;
#STEPSTYPE:dance-single;
#DESCRIPTION:Talkion;
#DIFFICULTY:Easy;
#METER:4;
#RADARVALUES:0,0,0,0,0;
#NOTES:
0000
0000
0000
0000
,
0000
0000
0000
0000
,
0000
0000
0000
0000
,
1000
0001
1000
0001
,
0100
0001
0100
0010
,
1000
0001
1000
0001
,
0010
0001
0010
0100
,
1000
0001
1000
0001
,
0100
0010
0001
0010
,
1000
0001
1000
0001
,
0010
0100
0001
0100
,
2000
0010
0000
0010
,
0000
0001
0000
3100
,
0002
0010
0000
0010
,
0000
1000
0000
0103
,
0020
0100
0000
0100
,
0000
0001
0000
1030
,
0200
0010
0000
0010
,
0000
0001
0000
1300
,
0000
0000
0000
0000
,
0001
0000
0100
0001
0000
0000
0100
0010
,
0000
0000
0100
1000
0000
0000
0100
0000
,
0001
1000
0200
0300
,
1000
0001
0200
0300
,
0001
0000
0010
0001
0000
0000
0010
0100
,
0000
0000
0010
1000
0000
0000
0010
0000
,
0001
1000
0020
0030
,
1000
0001
0020
0030
,
0000
0000
0000
0000
,
0001
1000
0001
1000
,
0010
0010
0100
0100
,
0001
1000
0001
1000
,
0100
0100
0010
0010
,
0001
1000
0001
1000
,
0010
0010
0100
0100
,
0001
1000
0001
1000
,
0100
0000
0001
0100
0000
0000
1000
0010
,
0000
0000
0001
0010
0000
0000
1000
0000
,
0001
0010
2000
3000
,
0001
0100
2000
3000
,
0001
0000
0100
1000
0000
0000
0100
0001
,
0000
0000
0010
1000
0000
0000
0010
0000
,
0001
0100
2000
3000
,
0001
0010
2000
3000
,
0002
0000
0000
0000
,
0100
0100
0100
0100
,
1003
0000
0000
0000
;

//--------------- dance-single - Talkion ----------------
#NOTEDATA:;
#STEPSTYPE:dance-single;
#DESCRIPTION:Talkion;
#DIFFICULTY:Medium;
#METER:7;
#RADARVALUES:0,0,0,0,0;
#NOTES:
0000
0000
0000
0000
,
0000
0000
0000
0000
,
0000
0000
0000
0000
,
2000
0000
0100
0000
3001
0100
0001
0200
,
0000
0000
0000
0000
0310
1000
0010
0002
,
0000
0000
0000
0000
0013
1000
0010
0200
,
0000
0000
0000
0000
0000
0000
0000
0000
0301
0000
0000
0100
0001
0000
1000
0000
,
0200
0000
0010
0000
1300
0001
1000
0002
,
0000
0000
0000
0000
0103
0001
0100
2000
,
0000
0000
0000
0000
3100
0001
0100
0020
,
0000
0000
0000
0000
0000
0000
0000
0000
1030
0000
0000
0010
1000
0000
0001
0000
,
0010
0000
0000
0001
1000
0000
0010
2000
0000
0000
0000
0000
0000
0000
0000
0000
,
3000
0000
1000
0000
0001
0000
0010
0002
0000
0000
0000
0000
0100
0000
0000
0000
,
0003
0000
0001
1000
0001
0000
0010
0002
0000
0000
0000
0000
0000
0000
0000
0000
,
0003
0100
0001
1000
0000
0100
1000
0001
,
0100
0000
0010
0100
0010
0000
1000
0020
0000
0000
0000
0000
0000
0000
0000
0000
,
0030
0000
0010
0000
0100
0000
0010
2000
0000
0000
0000
0000
0010
0000
0000
0000
,
3000
0000
1000
0001
1000
0000
0100
2000
0000
0000
0000
0000
0000
0000
0000
0000
,
3000
0010
1000
0001
0000
0010
0000
0002
,
0200
0000
0000
0303
,
0001
0010
1000
0001
0000
1000
0010
0011
,
0000
1000
0010
0011
0000
0010
1000
0100
,
0010
0010
0001
0020
0000
0230
0000
0000
,
1300
1000
0001
0100
0010
0200
0000
0000
,
0301
0100
1000
0001
0000
1000
0100
0101
,
0000
1000
0100
0101
0000
0100
1000
0010
,
0100
0100
0001
0200
0000
0310
0100
0020
,
0000
2030
0000
3002
0000
0023
0000
0230
,
1000
0000
0000
0000
,
1300
0001
0100
0001
1000
0001
0010
0000
,
0001
0100
1000
0100
0001
0001
1000
0000
,
0001
1000
0010
1000
0001
1000
0100
0000
,
1000
0010
0001
0010
1000
1000
0001
0000
,
1000
0100
0010
0100
1000
0010
0100
0000
,
0001
1000
0100
0001
0100
0100
0010
0000
,
0001
0000
0100
0000
0010
0000
0100
0000
0001
0000
0000
1000
0001
0000
0010
0000
,
0100
1000
0010
0001
0000
0010
1000
1100
,
0000
0010
0001
0101
0000
0010
1000
0001
,
0010
0010
0100
2000
0000
3002
0000
0000
,
0103
0100
0001
1000
0100
2000
0000
0000
,
3010
1000
0100
0001
0000
0100
1000
1010
,
0000
0100
0001
0011
0000
0100
1000
0001
,
0100
0100
0010
2000
0000
3001
1000
0200
,
0000
0320
0000
0032
0000
2003
0000
3020
,
0100
0100
0100
0100
,
0230
0010
0010
0010
,
0301
0000
0000
0000
;

//--------------- dance-single - Talkion ----------------
#NOTEDATA:;
#STEPSTYPE:dance-single;
#DESCRIPTION:Talkion;
#DIFFICULTY:Hard;
#METER:11;
#RADARVALUES:0.460629,0.521133,0.409586,0.64488,0.191721,370,323,47,74,0,0,0,0,0,0.460629,0.521133,0.409586,0.64488,0.191721,370,323,47,74,0,0,0,0,0;
#CHARTNAME:;
#CHARTSTYLE:;
#CREDIT:;
#NOTES:
0000
0000
0000
0000
,
0000
0000
0000
0000
,
0000
0000
0000
0000
,
2000
0000
0100
0000
3010
0100
0001
0200
,
0010
0000
1000
0000
0301
0100
0001
2000
,
0100
0000
0010
0000
3100
1000
0100
0020
,
0001
0000
0000
0000
1000
0000
0000
0000
0130
0000
0010
0001
1000
0000
0001
0000
,
1002
0000
0100
0000
0013
0100
1000
0200
,
0010
0000
0001
0000
1300
0100
1000
0002
,
0100
0000
0010
0000
0103
0001
0100
0020
,
1000
0000
0000
0000
0001
0000
0000
0000
0130
0000
0010
1000
0001
0000
0010
0100
,
1000
0000
0001
1000
0001
0000
0100
0010
0200
0000
0000
0000
0001
0000
0000
0000
,
0310
0000
1000
0010
0100
0000
0001
1000
0002
0000
0000
0000
0010
0000
0000
0000
,
0103
0000
0001
1000
0001
0000
0010
0100
0020
0000
0000
0000
0001
0000
0000
0000
,
0130
0000
1100
0000
1000
0000
1002
0000
0000
0000
0103
0001
1000
0000
0001
0000
,
0011
0000
0100
1000
0100
0000
1000
0001
2000
0000
0000
0000
0010
0000
0000
0000
,
3001
0000
0010
0001
1000
0000
0010
0100
0020
0000
0000
0000
0001
0000
0000
0000
,
0130
0000
0010
1000
0010
0000
1000
0001
2000
0000
0000
0000
0100
0000
0000
0000
,
3001
0011
0010
0210
0000
2300
0000
3002
,
0100
0000
0000
0000
0000
0000
0000
0000
0000
0000
0000
0000
0000
0003
1000
0000
,
2010
3100
0011
2002
3003
1010
0011
2002
,
3003
0101
1100
2002
3003
0101
0100
0010
,
1000
1000
0100
0020
1000
0032
0100
0000
,
1003
0000
1000
0000
0010
0000
0200
0000
0001
0000
0310
1000
0001
0000
1000
0000
,
2100
3010
0101
2002
3003
1100
0101
2002
,
3003
0011
1010
2002
3003
0011
0010
0100
,
1000
1000
0001
0200
1000
0320
0001
0230
,
0010
0000
0302
0000
0100
0000
2003
0000
0001
0000
3100
1000
0001
0000
0100
0000
,
0220
0000
0000
0330
,
2000
0000
3100
1000
0002
0000
0103
0001
1000
0100
1000
0100
0010
0000
0001
1000
,
0020
0000
0130
0000
0002
0000
0013
0000
0100
0000
1000
0001
0100
0000
0010
1000
,
0001
0000
0010
0100
1000
0000
0010
0100
0001
1000
0001
1000
0100
0000
0010
0001
,
0200
0000
0310
0000
2000
0000
3001
0000
0010
0000
0100
0010
0001
0000
1000
0001
,
0100
0000
1000
0100
0010
0000
0100
0010
0001
0010
0001
0010
1000
0000
0001
1000
,
0200
0000
0310
0000
0002
0000
1003
0000
0010
0000
0100
0010
1000
0000
0001
1000
,
0100
0000
0001
0100
0010
0000
1000
0010
0001
0000
1000
0010
0100
0000
0001
0000
,
2001
3100
0011
0202
0303
1010
0011
2200
,
3300
0011
1010
0202
0303
0110
0010
1000
,
0001
0001
0010
0200
0001
2300
0010
0000
,
3001
0000
0001
0000
0100
0000
0020
0000
1000
0000
0130
0001
1000
0000
0001
0000
,
1002
0013
1100
2020
3030
0101
1100
0022
,
0033
1010
0011
2200
3300
1010
0010
0100
,
0001
0001
1000
0200
0001
0320
1000
0230
,
0010
0000
2300
0000
0100
0000
3002
0000
1000
0000
0103
0001
1000
0000
0100
0000
,
0020
0001
0100
1000
,
0032
0010
1000
0100
,
1003
0000
0000
0000
;

//--------------- dance-single - Talkion ----------------
#NOTEDATA:;
#STEPSTYPE:dance-single;
#DESCRIPTION:Talkion;
#DIFFICULTY:Challenge;
#METER:12;
#RADARVALUES:0.532835,0.541176,0.522876,0.862745,0.291939,428,368,60,99,27,0,0,0,0,0.532835,0.541176,0.522876,0.862745,0.291939,428,368,60,99,27,0,0,0,0;
#CHARTNAME:;
#CHARTSTYLE:;
#CREDIT:;
#NOTES:
0000
0000
0000
0000
,
0000
0000
0000
0000
,
0000
0000
0000
0000
,
2100
3010
0102
0013
2000
3010
0002
0013
,
0210
0000
1300
0000
0120
0000
0031
1000
0010
0010
0200
0000
0310
0000
1000
0000
,
2010
3100
0012
0103
2000
3100
0002
0103
,
0120
0000
1030
0000
0210
0000
0301
1000
0200
0000
0310
0M10
1000
0000
0001
0000
,
0201
0310
1200
0310
0002
0103
2000
3100
,
0120
0000
1030
0000
0210
0000
0301
1000
0100
0100
0020
0000
0031
0000
1000
0000
,
1020
0130
0021
0130
2000
3010
0002
0013
,
0210
0000
0301
0000
2001
0000
3100
0010
0002
0000
0103
010M
1000
0000
0001
0010
,
0210
0000
1300
0100
0010
0000
0001
1000
0020
0000
0000
0000
0100
0000
0000
0000
,
1030
0000
0001
1000
0100
0000
0010
0001
2000
0000
0000
0000
0100
0000
0000
0000
,
3010
0000
1000
0010
0100
0000
0001
1000
0200
0000
0000
0000
0010
0000
0000
0000
,
1300
0000
0101
0000
0110
0000
2010
0000
3001
0000
0100
010M
2000
0000
3001
0000
,
2001
0000
3100
0010
0001
0000
0100
0010
2000
0000
0000
0000
0100
0000
0000
0000
,
3010
0000
0100
0001
0010
0000
0100
1000
0020
0000
0000
0000
0001
0000
0000
0000
,
0130
0000
0010
0100
0001
0000
0010
0100
2000
0000
0000
0000
0010
0000
0000
0000
,
3100
1001
0101
1020
0100
2030
0100
3002
,
0203
00M0
00M0
M000
000M
000M
03M0
0100
,
1001
0000
1000
0100
0110
0000
0012
0000
0003
0000
0001
0100
0110
0000
2010
0000
,
3000
0000
1000
0001
0011
0000
0210
0000
0300
0000
0100
0000
1001
0000
0001
0000
,
0201
2300
3002
0023
1000
0230
0010
0000
,
0302
0000
2003
0000
3200
0000
0302
0000
0203
0000
0310
0M10
1000
0000
0001
0000
,
0101
0000
0100
0010
1010
0000
2001
0000
3000
0000
0100
1000
1001
0000
0102
0000
,
0003
0000
0100
0001
1001
0000
2100
0000
3000
0000
0100
0000
1001
0000
1000
0000
,
1020
0032
2003
3200
0001
0320
2030
3200
,
0001
0000
0320
0000
1000
0000
0230
0000
0001
0000
0310
0M10
1000
0000
0002
0000
,
0100
0M00
0M00
M000
00M0
00M0
0M00
0000
,
0013
0000
0001
0100
0010
0000
00M1
0100
0010
0M10
0001
1000
0001
0000
0010
0100
,
2000
0000
0010
0000
3001
0000
0010
0001
1000
0000
0010
1000
0001
0000
0010
0001
,
0100
0000
0001
0010
0100
0000
0M01
0010
0100
01M0
0001
1000
0001
0000
1000
0010
,
0120
0000
0001
0000
0130
0000
1000
0100
0010
0000
0100
0001
0010
0000
0100
1000
,
0010
0000
1000
0010
0100
0000
1M00
0010
0100
01M0
1000
0001
1000
0000
0001
0010
,
0200
0000
0001
0000
0310
0000
1000
0010
0100
0000
0010
0001
0100
0000
0010
1000
,
0100
0000
1000
0100
0010
0000
10M0
0100
0020
0000
0130
01M0
0001
0000
1000
0000
,
1010
0000
0010
0001
0011
0000
2010
0000
3000
0000
1000
0100
0101
0000
2100
0000
,
3000
0000
1000
0010
0011
0000
2010
0000
0000
0000
0100
3100
0010
0000
0001
0000
,
0201
2300
3002
0023
1000
0230
0001
0000
,
0320
0000
2030
0000
3200
0000
0302
0000
0203
0000
0310
0M10
1000
0000
0001
0000
,
0101
0000
0100
1000
1100
0000
0102
0000
0003
0000
0001
0010
1010
0000
0120
0000
,
0030
0000
0001
0100
1100
0000
0210
0000
0000
0000
0001
0301
1000
0000
0100
0000
,
0120
0032
2003
3020
0001
0230
0302
0023
,
1000
0000
0230
0000
0001
0000
0320
0000
1000
0000
0130
01M0
0001
0000
1000
0000
,
1020
0001
1000
0001
,
0230
0010
0010
1000
0001
0001
0010
0000
,
0301
0000
0000
0000
;

//--------------- dance-double - Talkion ----------------
#NOTEDATA:;
#STEPSTYPE:dance-double;
#DESCRIPTION:Talkion;
#DIFFICULTY:Edit;
#METER:12;
#RADARVALUES:0,0,0,0,0;
#NOTES:
00000000
00000000
00000000
00000000
,
00000000
00000000
00000000
00000000
,
00000000
00000000
00000000
00000000
,
21000000
30100000
01020000
00130000
00002000
00003010
00000002
00000013
,
00000210
00000000
00010300
00000000
00021000
00000000
00030010
00001000
00000010
00000010
00000200
00000000
00000301
00000000
00000010
00000000
,
00000012
00000103
00002010
00003100
00020000
01030000
20000000
31000000
,
01200000
00000000
00301000
00000000
00012000
00000000
01003000
00001000
00020000
00000000
01030000
010M0000
00100000
00000000
10000000
00000000
,
10020000
00130000
00021000
00030100
00000002
00000103
00002000
00003001
,
00000201
00000000
00000310
00000000
00002010
00000000
00003100
00010000
00000100
00000100
00000010
00000000
00000001
00000000
00001000
00000000
,
00002001
00003100
00012000
00103000
20000000
30100000
00020000
10030000
,
10200000
00000000
01300000
00000000
01002000
00000000
00103000
00001000
00020000
00000000
00130000
001M0000
01000000
00000000
00010000
00001000
,
00021000
00000000
00030100
00001000
00000001
00000000
00000100
00000010
00002000
00000000
00000000
00000000
00010000
00000000
00000000
00000000
,
00003010
00000000
00010000
00001000
00100000
00000000
00010000
00100000
02000000
00000000
00000000
00000000
00010000
00000000
00000000
00000000
,
13000000
00000000
00100000
10000000
00010000
00000000
00100000
00001000
00020000
00000000
00000000
00000000
01000000
00000000
00000000
00000000
,
00031000
00000000
00010100
00000000
00000110
00000000
00000012
00000000
00001003
00000000
00000010
0000M010
00000001
00000000
00000100
00000000
,
00000120
00000000
00010030
00000010
00001000
00000000
00000100
00010000
00002000
00000000
00000000
00000000
00100000
00000000
00000000
00000000
,
00003010
00000000
00001000
00010000
00000100
00000000
00010000
00001000
02000000
00000000
00000000
00000000
10000000
00000000
00000000
00000000
,
03001000
00000000
00010000
00000100
00001000
00000000
00000010
00010000
00002000
00000000
00000000
00000000
01000000
00000000
00000000
00000000
,
00003100
00000110
00001001
00001200
00000010
00020300
00100000
00032000
,
00000010
000000M0
000000M0
0000000M
00000M00
00000M00
000030M0
00001000
,
00011000
00000000
00010000
00001000
01001000
00000000
01200000
00000000
00300000
00000000
10000000
01000000
01100000
00000000
00102000
00000000
,
00003000
00000000
00010000
00000100
00000110
00000000
00000012
00000000
00000003
00000000
00000001
00000000
00000110
00000000
00001000
00000000
,
00020000
20030000
30020000
00032000
00000000
00003002
00000000
00000000
,
00000023
00000000
00002030
00000000
00203000
00000000
00320000
00000000
00030020
00000000
00000130
000001M0
00000001
00000000
00001000
00000000
,
00001100
00000000
00000100
00010000
00011000
00000000
00201000
00000000
00300000
00000000
01000000
10000000
10010000
00000000
00102000
00000000
,
00003000
00000000
00000010
00000001
00001001
00000000
00010200
00000000
00000300
00000000
00010000
00000000
00101000
00000000
00010000
00000000
,
20000000
30020000
00032000
00003002
00000000
00000023
00002030
02003000
,
00000000
00000000
03002000
00000000
00000000
00000000
00003020
00000000
00000000
00000000
00000130
000001M0
00000001
00000000
00001000
00000000
,
00000200
000M0000
000M0000
000000M0
0000M000
0000M000
000M0000
00000000
,
00010300
00000000
00001000
01000000
00100000
00000000
00M01000
01000000
00100000
0M100000
00010000
10000000
00010000
00000000
00100000
00001000
,
00020000
00000100
00000100
00000010
00001000
00001000
00030200
00000000
,
00000301
00000000
00000100
00000010
00000001
00000000
0000010M
00000010
00000100
000001M0
00000001
00001000
00000100
00000000
00010000
00001000
,
00012000
01000000
01000000
00100000
00010000
00010000
02003000
00000000
,
13000000
00000000
01000000
00100000
10000000
00000000
M1000000
00100000
01000000
01M00000
10000000
00010000
01000000
00000000
00001000
00010000
,
00000200
00000001
00000001
00001000
00000010
00000010
00000302
00000000
,
00001003
00000000
00000010
00000100
00001000
00000000
0000M010
00000100
00010000
00010M00
01000000
00001000
00010000
00000000
00001000
00000000
,
01001000
00000000
01000000
00100000
10100000
00000000
12000000
00000000
03000000
00000000
00100000
00001000
00011000
00000000
00001020
00000000
,
00000030
00000000
00000010
00001000
00011000
00000000
00210000
00000000
00300000
00000000
00100000
00000000
10010000
00000000
01000000
00000000
,
00002000
00003200
00000302
00002003
00000000
00023000
00000000
00000000
,
02030000
00000000
03002000
00000000
00003200
00000000
00020300
00000000
02030000
00000000
03100000
0M100000
00010000
00000000
00100000
00000000
,
00101000
00000000
00001000
00010000
00010100
00000000
00000120
00000000
00000030
00000000
00000001
00000100
00001100
00000000
00021000
00000000
,
00030000
00000000
00001000
00010000
01010000
00000000
21000000
00000000
30000000
00000000
00010000
00000000
01001000
00000000
00010000
00000000
,
00002000
00003002
00002003
00023000
00000000
02030000
03002000
00003020
,
00000000
00000000
00002030
00000000
00000000
00000000
02003000
00000000
00000000
00000000
03100000
0M100000
10000000
00000000
00010000
00000000
,
02000000
00001000
00100000
00001000
,
03020000
00000100
01000000
00000100
,
00031000
00000000
00000000
00000000
;
