#TITLE:The Servant Of Evil;
#SUBTITLE:(feat. Tarian);
#ARTIST:Hyun VS Sctl;
#TITLETRANSLIT:;
#SUBTITLETRANSLIT:;
#ARTISTTRANSLIT:;
#GENRE:;
#CREDIT:;
#MUSIC:tsoe.mp3;
#BANNER:;
#BACKGROUND:;
#CDTITLE:;
#SAMPLESTART:26.215;
#SAMPLELENGTH:12.000;
#SELECTABLE:YES;
#OFFSET:-1.488;
#BPMS:0.000=165.000;
#STOPS:;
#BGCHANGES:;
#FGCHANGES:;

//--------------- dance-single - ----------------
#NOTES:
     dance-single:
     :
     Challenge:
     17:
     0,0,0,0,0:
0000
0000
0000
0000
,
0000
0000
0000
0000
,
0000
0000
0000
0000
,
0000
0000
0000
0000
,
0000
0000
0000
0000
,
0002
0000
0000
0100
0103
0000
0001
1000
,
0100
1100
0011
0010
,
0002
0000
0000
0000
0000
0000
1003
0000
0010
0000
0000
0010
0000
0000
0100
0000
,
0002
0000
1003
0100
1000
0000
0010
0100
,
1001
0000
0000
0001
0100
0000
0010
0000
1000
0000
0001
0010
0001
0000
1000
0000
,
0001
0000
1000
0100
0000
0001
0100
0000
0010
0001
0010
0000
0001
0100
0001
0000
,
1000
0100
0000
0100
1000
0000
0010
0000
0100
0000
0001
1000
0001
0000
0010
0000
,
0001
0000
1000
0010
0000
0100
0001
0000
1000
0010
1000
0000
0001
0100
0001
0000
,
1001
0000
0001
0100
0010
0100
0001
0100
0010
1000
0100
0010
0001
0000
1000
0000
,
1001
0000
0001
1000
0100
1000
0001
0000
1000
0000
0010
0000
0100
0000
0001
0000
,
1000
0010
1000
0000
0010
1000
0010
0000
0100
0001
0100
0000
0001
0100
0001
0000
,
1000
0010
1000
0010
1000
0010
1000
0010
0100
0001
0100
0001
0100
0001
0100
0001
,
1000
0100
0010
0001
1000
0010
0100
0001
1000
0010
1000
0001
0100
0010
1000
0001
,
0100
0001
1000
0100
1000
0001
0100
0001
2000
0000
3020
0000
0230
0000
0302
0000
,
1003
0100
1000
0001
1000
0001
0100
0010
1000
0010
0100
0001
0100
0010
1000
0001
,
1000
0100
0010
0001
1000
0100
0010
0100
2000
0000
3200
0000
0320
0000
0032
0000
,
1003
0001
1000
0010
0100
0001
1000
0100
0010
0100
1000
0010
0100
0001
0100
0010
,
1000
0100
0010
0001
0100
0010
1000
0001
2000
0000
3002
0000
0203
0000
0320
0000
,
1030
0100
1000
0001
0100
0010
0100
0001
1000
0001
0010
0001
1000
0010
0100
0001
,
0010
0100
1000
0001
1000
0010
0100
0001
2000
0000
3002
0000
0023
0000
0230
0000
,
2300
0000
0000
0000
3001
0000
1000
0000
0001
0010
0100
1000
0001
0100
0010
1000
,
0001
0000
1000
0000
0010
0000
0100
0000
0001
0010
0001
0100
0010
1000
0100
1000
,
0001
0000
0010
0001
1000
0000
0010
1000
0001
0000
0010
0001
1000
0000
0010
0000
,
0100
0000
0001
1000
0100
0000
1000
0001
0100
0000
0001
1000
0100
0000
0010
0000
,
0001
0100
0001
0010
0001
0100
0002
0000
1003
0010
1000
0100
1000
0010
2000
0000
,
3010
0100
0001
1000
0100
0010
0001
1000
0001
0100
0010
1000
0001
0100
0020
0000
,
1030
0100
1000
0100
1000
0000
0001
0000
1000
0010
1000
0010
1000
0000
0001
0000
,
1000
0100
0010
0001
0100
0010
1000
0001
0010
0100
1000
0010
0100
0001
1000
0001
,
1000
0000
0100
0020
0000
0001
0000
0031
,
1000
0101
1100
0101
,
0001
0000
0100
0020
0000
1000
0000
1030
,
0001
0000
1001
0000
1000
0001
0100
0010
,
1000
0000
1000
0020
0000
0100
0000
0130
,
0001
0011
1010
0011
,
0001
0000
0001
0200
0000
0010
0000
0310
,
1000
0000
0010
1010
0000
1000
1001
0000
,
0001
0000
0001
0020
0000
0130
0100
1000
,
0001
0000
0001
0200
0000
0310
1000
1000
,
0001
0000
1001
0000
0001
1000
0100
0001
,
0100
0000
0110
0000
0010
0001
0100
0010
,
1000
0010
1000
0010
1000
0010
1000
0000
0001
0100
0001
0100
0001
0100
0001
0000
,
1000
0100
1000
0100
1000
0100
1000
0000
0001
0010
0001
0010
0001
0010
0001
0000
,
1000
0001
1000
0001
1000
0001
1000
0001
0100
0010
0100
0010
0100
0010
0100
0010
,
2000
0000
3001
0000
0001
0100
1000
0100
,
0001
0000
0010
0001
0100
0000
0001
0000
1000
0000
0010
1000
0100
0000
0010
0000
,
0001
0000
1000
0001
0100
0000
0010
0000
1000
0000
0010
1000
0100
0000
0100
0000
,
1000
0000
0010
1000
0001
0000
0100
0000
0010
0000
1000
0010
0100
0000
0001
0000
,
1000
0000
0001
1000
0100
0000
0010
0000
0001
0000
0100
0010
1000
0000
1000
0000
,
0010
0000
0100
0001
1000
0000
0001
0000
1000
0000
0100
1000
0010
0000
0100
0000
,
0001
0000
0010
0001
1000
0000
0001
1000
0001
1000
0100
0010
0001
0000
0001
0000
,
1000
0000
0010
0100
0001
0000
1000
0000
0010
0000
0100
1000
0100
0000
0010
0000
,
0100
0000
0001
0010
0001
0000
1000
0100
0010
0100
1000
0010
2000
0000
0000
0000
,
3001
0010
0001
0010
0100
1000
0100
1000
0001
0000
0100
0000
0010
0000
1000
0000
,
0001
0100
0001
0100
0010
1000
0010
1000
0001
0000
0010
0000
0100
0000
1000
0000
,
0001
1000
0001
1000
0010
0100
0010
0100
0001
0000
1000
0000
0100
0000
0010
0000
,
0001
1000
0001
1000
0100
1000
0100
1000
0010
0100
0010
0100
0001
0010
0001
0010
,
0001
0001
1000
1000
0010
0010
0100
0100
,
0001
0001
0010
0010
0100
0100
1000
1000
,
0001
0001
1000
1000
0100
0100
1000
1000
,
0010
0010
1000
1000
0100
0100
0010
0010
,
1001
0000
0000
0000
0001
0100
0001
1000
0100
0010
0001
1000
0010
0000
0100
0000
,
0001
0010
0001
0100
0010
1000
0100
1000
0001
0000
1000
0000
0100
0000
0010
0000
,
0001
1000
0001
1000
0010
0100
0010
0100
0001
0000
0010
0000
0100
0000
1000
0000
,
0010
0100
0001
0010
0001
0100
0010
1000
0001
1000
0100
0010
0001
1000
0010
0000
,
0100
0001
0100
0001
1000
0100
0010
0001
1000
0000
0100
0000
1000
0000
0001
0000
,
0100
0001
0100
0010
1000
0000
0001
0000
1000
0010
0100
0001
0100
0000
0001
0000
,
1000
0100
0010
0001
1000
0010
0100
0001
1000
0100
1000
0100
0010
0001
0010
0001
,
1000
0010
0100
0001
1000
0100
1000
0001
0010
0100
1000
0010
0100
0001
1000
0010
,
0200
0000
0000
0000
0301
0010
0001
1000
0001
0100
0010
1000
0001
0010
0100
1000
,
0010
1000
0001
1000
0100
0010
0100
1000
0010
0100
0001
1000
0001
0100
0010
1000
,
0001
0010
0100
1000
0001
0010
0001
1000
0001
0100
0001
1000
0010
0100
0010
1000
,
0001
0010
0100
1000
0010
0100
0001
1000
0100
0010
0100
1000
0010
0100
0001
1000
,
0001
0010
0001
0010
0002
0000
1000
0000
1003
0100
1000
0100
2000
0000
0010
0000
,
3010
0100
0001
1000
0100
0010
0001
1000
0001
0100
0001
1000
0100
0010
0100
1000
,
0010
0100
0010
0100
0001
1000
0001
1000
0100
0010
0100
0010
0001
1000
0001
1000
,
0001
0010
0001
0100
0010
1000
0100
1000
0010
0100
0001
0010
0001
0100
0010
1000
,
0002
0000
0000
0000
,
0000
0000
0000
0000
,
0000
0000
0000
0000
,
0003
0000
0000
0000
;
