#TITLE:The Quick Brown Fox...;
#SUBTITLE:;
#ARTIST:Doin;
#TITLETRANSLIT:;
#SUBTITLETRANSLIT:;
#ARTISTTRANSLIT:;
#GENRE:;
#CREDIT:;
#MUSIC:The Quick Brown Fox.ogg;
#BANNER:The Quick Brown Fox.png;
#BACKGROUND:The Quick Brown Fox-bg.png;
#CDTITLE:;
#SAMPLESTART:45.645;
#SAMPLELENGTH:22.069;
#SELECTABLE:YES;
#OFFSET:-0.135;
#BPMS:0.000=174.000;
#STOPS:4.000=0.173
,4.500=0.345
,5.000=0.173
,5.500=0.086
,5.750=0.173
,6.250=0.345
,6.750=0.173
,7.250=0.086
,7.500=0.173
,8.000=0.345
,8.500=0.173
,9.000=0.173
,9.500=0.086
,9.750=0.173
,10.250=0.173
,10.750=0.086
,11.000=0.086
,11.250=0.173
,11.750=0.345
,12.250=0.173
,12.750=0.086
,13.000=0.173
,13.500=0.345
,14.000=0.173
,14.500=0.086
,14.750=0.173
,15.250=0.345
,15.750=0.173
,16.250=0.086
,16.500=0.086
,16.750=0.086
,17.000=0.086
,17.250=0.086
,17.500=0.086
,17.750=0.086
,18.000=0.086
,18.250=0.086
,18.500=0.173
,19.000=0.345
,19.500=0.173
,20.000=0.086
,20.250=0.173
,20.750=0.345
,21.250=0.173
,21.750=0.086
,22.000=0.173
,22.500=0.345
,23.000=0.173
,23.500=0.173
,24.000=0.086
,24.250=0.173
,24.750=0.173
,25.250=0.086
,25.500=0.086
,25.750=0.173
,26.250=0.345
,26.750=0.173
,27.250=0.086
,27.500=0.173
,28.000=0.345
,28.500=0.173
,29.000=0.086
,29.250=0.173
,29.750=0.345
,30.250=0.173
,30.750=0.086
,31.000=0.086
,31.250=0.086
,31.500=0.086
,31.750=0.086
,32.000=0.086
,32.250=0.086
,32.500=0.086
,32.750=0.086
,33.000=0.172
,33.500=0.345
,34.000=0.172
,34.500=0.172
,35.000=0.086
,35.250=0.172
,35.750=0.172
,36.250=0.086
,36.500=0.086
,36.750=0.172
,37.250=0.345
,37.750=0.172
,38.250=0.172
,38.750=0.086
,39.000=0.172
,39.500=0.086
,39.750=0.172
,40.250=0.086
,40.500=0.172
,41.000=0.345
,41.500=0.172
,42.000=0.172
,42.500=0.086
,42.750=0.172
,43.250=0.172
,43.750=0.086
,44.000=0.086
,44.250=0.172
,44.750=0.345
,45.250=0.172
,45.750=0.172
,46.250=0.086
,46.500=0.172
,47.000=0.086
,47.250=0.172
,47.750=0.086
,48.000=0.172
,48.500=0.345
,49.000=0.172
,49.500=0.172
,50.000=0.086
,50.250=0.172
,50.750=0.172
,51.250=0.086
,51.500=0.086
,51.750=0.172
,52.250=0.345
,52.750=0.172
,53.250=0.172
,53.750=0.086
,54.000=0.172
,54.500=0.086
,54.750=0.172
,55.250=0.086
,55.500=0.172
,56.000=0.345
,56.500=0.172
,57.000=0.172
,57.500=0.086
,57.750=0.172
,58.250=0.172
,58.750=0.086
,59.000=0.086
,59.250=0.172
,59.750=0.345
,60.250=0.172
,60.750=0.172
,61.250=0.086
,61.500=0.172
,62.000=0.086
,62.250=0.172
,62.750=0.086
;
#BGCHANGES:;
#FGCHANGES:;

//--------------- dance-single - ----------------
#NOTES:
     dance-single:
     :
     Beginner:
     4:
     0,0,0,0,0:
0000
0000
0000
0000
,
1000
0000
0000
0000
0000
0000
0000
1000
0000
0000
0000
0000
0000
0000
1000
0000
,
0000
0000
0000
0000
0000
0000
0000
0000
0000
0000
0000
0000
0000
1000
0000
0000
,
0000
0000
0000
0000
1000
0000
0000
0000
0000
0000
0000
1000
0000
0000
0000
0000
,
0000
1000
0000
0000
0000
0001
0000
0000
,
0000
0001
0000
0000
0000
0000
0000
0000
0001
0000
0000
0000
0000
0000
0000
0000
,
0000
0000
0000
0000
0000
0000
0000
0001
0000
0000
0000
0000
0000
0000
0001
0000
,
0000
0000
0000
0000
0000
0001
0000
0000
0000
0000
0000
0000
0001
0000
0000
0000
,
0000
0100
0000
0000
,
0000
0000
0000
0100
0000
0000
0000
0000
0000
0000
0000
0000
0000
0000
0000
0000
,
0000
0100
0000
0000
0000
0000
0000
0000
,
0000
0100
0000
0000
0000
0000
0000
0000
0000
0000
0000
0000
0000
0000
0000
0000
,
0010
0000
0000
0000
0000
0000
0000
0000
0000
0000
0000
0000
0000
0000
0000
0010
,
0000
0000
0000
0000
0000
0000
0000
0010
,
0000
0000
0000
0000
0000
0000
0000
0000
0000
0000
0000
0000
0000
0010
0000
0000
,
0000
0000
0000
1000
,
0100
1000
0000
0001
,
0100
0001
0000
0010
,
0001
1000
0000
0010
,
0100
0001
0010
0001
,
0100
0001
0000
1000
,
0100
1000
0000
0010
,
0100
0001
0000
1000
,
0100
0010
0001
1000
,
0010
1000
0000
0001
,
0010
0001
0000
0100
,
0010
1000
0000
0001
,
0010
0100
1000
0001
,
0010
0001
0000
1000
,
0010
1000
0000
0100
,
1000
0001
0000
0100
,
0010
1000
0100
1000
,
0010
0100
0000
0010
,
1000
0001
0000
0010
,
0001
0100
0000
0010
,
1000
0001
0010
0001
,
0100
0010
0000
0100
,
0001
1000
0000
0100
,
1000
0010
0000
0100
,
0001
1000
0100
1000
,
0100
0010
0000
0100
,
1000
0001
0000
0100
,
0001
0010
0000
0001
,
1000
0010
0100
0001
,
0010
0100
0000
0010
,
0001
1000
0000
0010
,
1000
0100
0000
1000
,
0001
0100
0010
0000
;

//--------------- dance-single - ----------------
#NOTES:
     dance-single:
     :
     Easy:
     7:
     0,0,0,0,0:
0000
0000
0000
0000
,
1000
0000
0100
0000
0000
0000
0000
1000
0000
0010
0000
0000
0000
0000
0100
0000
,
0001
0000
0000
0000
0000
0000
0000
0000
0000
0000
0000
0000
0000
0010
0000
0001
,
0000
0000
0000
0000
0100
0000
0010
0000
0000
0000
0000
1000
0000
0100
0000
0000
,
0000
1000
0000
0000
0000
0001
0100
0000
,
0000
0001
0000
0010
0000
0000
0000
0000
0100
0000
1000
0000
0000
0000
0000
0000
,
0000
0000
0000
0000
0000
0000
0000
0010
0000
1000
0000
0000
0000
0000
0100
0010
,
0000
0000
0000
0000
0000
0001
0000
0100
0000
0000
0000
0000
0001
0000
0000
0000
,
0000
0000
1000
0010
0000
0000
0000
0000
,
0000
0000
0000
1000
0000
0100
0000
0000
0000
0000
0000
0000
0000
0000
0000
0000
,
0000
0010
0001
0000
0000
0000
0000
0000
,
0000
0100
0000
0001
0000
0000
0000
0000
0000
0000
0000
0000
0000
0000
0000
0000
,
0010
0000
0100
0000
0000
0000
0000
0000
0000
0000
0000
0000
0000
0000
0000
1000
,
0000
0010
0000
0000
0000
0000
0000
0000
0000
0000
0000
0000
0000
0000
1000
0000
,
0100
0000
0000
0000
0000
0000
0000
0000
0000
0000
0000
0000
0000
0010
0000
0001
,
0000
0000
0000
1000
,
0100
1000
0010
0100
,
0001
0010
0100
1000
,
0100
0010
0001
0100
,
0010
0000
1000
0100
1000
0000
0001
0000
,
0100
0001
0010
0100
,
1000
0010
0100
0001
,
0100
0010
1000
0100
,
0010
0000
0001
0100
0001
1000
0001
0000
,
0010
0001
0100
0010
,
1000
0100
0010
0001
,
0010
0100
1000
0010
,
0100
0000
0001
0010
0001
0000
1000
0000
,
0010
1000
0100
0010
,
0001
0100
0010
1000
,
0010
0100
0001
0010
,
0100
0000
1000
0010
1000
0001
1000
0000
,
0100
0010
0100
1000
,
0001
0100
0001
0010
,
0001
1000
0010
0100
,
0001
0000
0010
0001
1000
0000
0001
0000
,
0100
0010
0100
0001
,
1000
0100
1000
0010
,
0100
0001
1000
0100
,
0010
0000
0100
1000
0010
0100
0001
0000
,
0010
0100
0010
0001
,
1000
0010
1000
0100
,
1000
0001
0100
0010
,
1000
0000
0100
1000
0001
0000
1000
0000
,
0010
0100
0010
1000
,
0001
0010
0001
0100
,
0010
1000
0001
0010
,
0100
0000
0010
0001
0100
0010
0000
0000
;

//--------------- dance-single - ----------------
#NOTES:
     dance-single:
     :
     Medium:
     11:
     0,0,0,0,0:
0000
0000
0000
0000
,
1000
0000
0100
0000
1000
0000
0000
0010
0000
0100
0000
0001
0000
0000
0010
0000
,
0001
0000
0100
0000
0010
0000
0000
1000
0000
0100
0000
0000
0000
1000
0000
0010
,
0000
1000
0000
0000
0100
0000
0010
0000
0001
0000
0000
0100
0000
0001
0000
0010
,
0000
0100
1000
0010
1000
0001
0010
0001
,
0000
0100
0000
0010
0000
1000
0000
0000
0100
0000
1000
0000
0010
0000
0100
0000
,
0000
0001
0000
0010
0000
0000
0000
0001
0000
0100
0000
0001
0000
0000
0010
0000
,
0100
0000
1000
0000
0000
0010
0000
1000
0000
0100
0000
0000
0010
0000
0001
0000
,
0100
0000
0001
0000
1000
0000
0100
0000
0010
0000
0100
0000
0000
1000
0000
0010
,
0000
0000
0000
0100
0000
0001
0000
0010
0000
0100
0000
0000
0010
0000
0000
0100
,
0000
0000
1000
0000
0010
0000
0100
0000
0010
0000
0000
1000
0000
0100
0000
0000
,
0000
0010
0000
0001
0000
0100
0000
0010
0000
0000
0100
0000
0000
0010
0000
0000
,
1000
0000
0100
0000
0010
0000
0100
0000
0000
1000
0000
0010
0000
0000
0000
0100
,
0000
0010
0000
0100
0000
0001
0000
0000
0010
0000
0000
0100
0000
0000
1000
0000
,
0010
0000
0100
0000
0010
0000
0000
1000
0000
0100
0000
0000
0000
0010
0000
0100
,
0000
0010
0000
0001
0000
0000
0100
0000
0000
0010
0000
0000
1000
0000
0100
0000
,
1000
0000
0010
0100
0001
0000
0010
0100
,
1000
0000
0100
0010
0001
0000
0100
0010
,
1000
0000
0100
1000
0001
0000
0100
0010
,
0001
0010
1000
0100
0010
0001
1000
0010
,
1000
0000
0100
0010
0001
0000
0100
0010
,
1000
0000
0010
0100
0001
0000
0010
0100
,
1000
0000
0010
1000
0001
0000
0010
0100
,
0001
0000
0100
1000
0010
0100
0001
0010
,
0001
0000
0100
0010
1000
0000
0100
0010
,
0001
0000
0010
0100
1000
0000
0010
0100
,
0001
0000
0010
0001
1000
0000
0010
0100
,
1000
0100
0001
0010
0100
1000
0001
0100
,
0001
0000
0010
0100
1000
0000
0010
0100
,
0001
0000
0100
0010
1000
0000
0100
0010
,
0001
0000
0100
0001
1000
0000
0100
0010
,
1000
0000
0010
0001
0100
0010
1000
0010
,
1000
0000
0100
0010
0001
0000
0100
0010
,
1000
0000
0010
0100
0001
0000
0010
0100
,
1000
0000
0010
1000
0001
0000
0010
0100
,
0001
0100
1000
0010
0100
0001
1000
0100
,
1000
0000
0010
0100
0001
0000
0010
0100
,
1000
0000
0100
0010
0001
0000
0100
0010
,
1000
0000
0100
1000
0001
0000
0100
0010
,
0001
0000
0010
1000
0100
0010
0001
0100
,
0001
0000
0010
0100
1000
0000
0010
0100
,
0001
0000
0100
0010
1000
0000
0100
0010
,
0001
0000
0100
0001
1000
0000
0100
0010
,
1000
0010
0001
0100
0010
1000
0001
0010
,
0001
0000
0100
0010
1000
0000
0100
0010
,
0001
0000
0010
0100
1000
0000
0010
0100
,
0001
0000
0010
0001
1000
0000
0010
0100
,
1000
0000
0100
0001
0010
0100
0000
0000
;

//--------------- dance-single - ----------------
#NOTES:
     dance-single:
     :
     Hard:
     13:
     0,0,0,0,0:
0000
0000
0000
0000
,
0001
0000
0100
0000
0001
0000
0010
0100
0000
1000
0000
0010
0000
1000
0100
0000
,
0010
0000
0001
0000
0100
0000
0001
0010
0000
1000
0000
0010
0001
1000
0000
0010
,
0000
1000
0000
0100
0010
0000
0001
0000
0100
0000
0001
0010
0000
0100
0000
1000
,
0000
0010
1000
0100
0010
0001
1000
0010
0100
0001
1000
0000
0100
0000
1000
0000
,
0010
0100
0000
0001
0000
0010
0000
0001
0100
0000
0010
0000
1000
0000
0100
0000
,
1000
0010
0000
0001
0000
0010
1000
0001
0000
0010
0000
0001
0000
0100
0010
0000
,
1000
0000
0100
0000
1000
0010
0000
0100
0000
0001
0000
0010
0001
0100
0010
1000
,
0001
0010
0100
1000
0001
0000
0100
0000
0010
0000
0001
0000
0010
1000
0000
0100
,
0000
0010
0001
1000
0000
0010
0000
0100
0000
1000
0000
0100
0001
0000
0010
0100
,
0000
1000
0001
0000
0010
0000
0100
0000
0001
0000
0100
1000
0000
0010
0000
0100
,
0001
1000
0000
0100
0000
0010
0000
1000
0000
0010
0001
0000
0100
0010
0000
1000
,
0001
0000
0100
0000
1000
0000
0100
0000
0010
1000
0000
0100
0000
0010
0001
1000
,
0000
0010
0000
0001
0000
0010
0000
0100
0001
0000
0010
0100
0000
1000
0001
0000
,
0010
0000
1000
0000
0010
0000
0100
1000
0000
0010
0000
0100
0001
1000
0000
0100
,
0000
0001
0000
0100
0000
0010
0001
0000
0100
0010
0000
1000
0001
0000
0010
0000
,
0100
0010
0000
0001
0000
1000
0010
0100
,
0010
1000
0000
0100
0000
0000
1000
0001
,
0100
0010
0000
1000
0000
0100
1000
0010
,
1000
0000
0100
0000
0010
0001
0100
0000
0001
0000
0010
0000
0100
0000
1000
0000
,
0001
0100
0000
0010
0000
1000
0001
0010
,
0001
0100
0000
0010
0000
0000
1000
0100
,
1000
0000
0010
0000
0000
0000
0100
0001
0010
0000
0001
0000
0100
0000
0010
0000
,
0000
0000
1000
0000
0001
0100
0010
1000
0001
0010
0100
1000
0001
0000
0100
0000
,
0010
0100
0000
0001
0000
1000
0100
0010
,
0100
1000
0000
0010
0000
0000
0100
0001
,
1000
0100
0000
1000
0000
0001
1000
0100
,
1000
0000
0010
0000
0100
0001
0010
0000
0001
0000
0100
0000
0010
0000
1000
0000
,
0001
0010
0000
0100
0000
0010
0001
0100
,
0001
0010
0000
0100
0000
0000
1000
0010
,
1000
0000
0100
0000
0000
0000
0010
0001
0100
0000
0001
0000
0010
0000
0100
0000
,
0000
0000
1000
0000
0001
0010
0100
1000
0001
0100
0010
1000
0001
0000
0010
0000
,
0001
0100
0010
1000
0100
0000
1000
0010
,
0100
0001
0010
0001
1000
0000
0001
0010
,
0100
0010
0001
1000
0010
1000
0100
1000
,
0001
0000
0100
0000
0010
1000
0100
0000
0010
0000
0100
0000
1000
0000
0010
0000
,
1000
0100
0010
0001
0100
0000
0001
0010
,
0100
1000
0010
1000
0001
0000
1000
0100
,
0010
0000
1000
0000
0000
0000
0010
0001
1000
0000
0010
0000
0001
0000
0000
0000
,
0010
0000
0100
0000
0001
0010
0100
1000
0001
0100
0010
1000
0001
0000
0100
0000
,
0001
0010
0100
1000
0010
0000
1000
0100
,
0010
0001
0100
0001
1000
0000
0001
0100
,
0010
0100
0001
1000
0100
1000
0010
0100
,
0001
0000
1000
0000
0100
0010
0100
0000
1000
0000
0010
0000
1000
0000
0100
0000
,
1000
0010
0100
0001
0010
0000
0001
0100
,
0010
1000
0100
1000
0001
0000
1000
0010
,
0100
0000
1000
0000
0000
0000
0100
0001
1000
0000
0100
0000
0001
0000
0000
0000
,
0100
0000
0010
0000
0001
0100
0010
1000
0001
0010
0100
1000
0000
0000
0000
0000
;

//--------------- dance-single - ----------------
#NOTES:
     dance-single:
     :
     Challenge:
     15:
     0,0,0,0,0:
0000
0000
0000
0000
,
1000
0000
0100
0000
1000
0000
0010
0100
0000
0001
0000
0010
0000
0001
0100
0000
,
0010
0000
1000
0000
0100
0000
1000
0010
0000
0001
0000
0010
1000
0001
0000
0010
,
0000
0001
0000
0100
0010
0000
1000
0000
0100
0000
1000
0010
0000
0100
0000
0001
,
0000
0010
0001
0100
0010
1000
0001
0010
0100
1000
0001
0000
0100
0000
0001
0000
,
0010
0100
0000
1000
0000
0010
0000
1000
0100
0000
0010
0000
0001
0000
0100
0000
,
0001
0010
0000
1000
0000
0010
0001
1000
0000
0010
0000
1000
0000
0100
0010
0000
,
0001
0000
0100
0000
0001
0010
0000
0100
0000
1000
0000
0010
1000
0100
0010
0001
,
1000
0010
0100
0001
1000
0000
0100
0000
0010
0000
1000
0000
0010
0001
0000
0100
,
0000
0010
1000
0001
0000
0010
0000
0100
0000
0001
0000
0100
1000
0000
0010
0100
,
0000
0001
1000
0000
0010
0000
0100
0000
1000
0000
0100
0001
0000
0010
0000
0100
,
1000
0001
0000
0100
0000
0010
0000
0001
0000
0010
1000
0000
0100
0010
0000
0001
,
1000
0000
0100
0000
0001
0000
0100
0000
0010
0001
0000
0100
0000
0010
1000
0001
,
0000
0010
0000
1000
0000
0010
0000
0100
1000
0000
0010
0100
0000
0001
1000
0000
,
0010
0000
0001
0000
0010
0000
0100
0001
0000
0010
0000
0100
1000
0001
0000
0100
,
0000
1000
0000
0100
0000
0010
1000
0000
0100
0010
0000
0001
1000
0000
0100
0000
,
0010
0000
0100
1000
0001
0100
0001
0000
0010
0000
0001
1000
0010
0000
0100
0000
,
0001
0000
0010
0001
1000
0010
1000
0000
0100
0000
0010
0001
0100
0000
0010
0000
,
1000
0000
0010
0100
0001
0010
0100
0000
1000
0000
0010
1000
0001
0000
0010
0000
,
0001
0000
0100
0010
1000
0100
1000
0000
0010
0000
0100
0001
1000
0000
0100
0000
,
1000
0000
0001
0100
0010
0100
0001
0000
0010
0000
0001
1000
0010
0000
0100
0000
,
0001
0000
1000
0100
0010
0100
1000
0000
0001
0000
0010
0001
0100
0000
0010
0000
,
1000
0000
0100
1000
0010
0100
0001
0000
0010
0000
0001
1000
0010
0000
0100
0000
,
0001
0000
0010
0100
1000
0010
0100
0001
1000
0100
0010
0001
1000
0000
0010
0000
,
0100
0000
0010
1000
0001
0010
0001
0000
0100
0000
0010
1000
0001
0000
0010
0000
,
0100
0000
0010
0001
1000
0100
1000
0000
0010
0000
0100
0001
0010
0000
0100
0000
,
1000
0000
0100
0010
0001
0100
0010
0000
1000
0000
0100
1000
0001
0000
0100
0000
,
0001
0000
0010
0100
1000
0010
1000
0000
0100
0000
0010
0001
1000
0000
0010
0000
,
1000
0000
0001
0010
0100
0010
0001
0000
0100
0000
0001
1000
0100
0000
1000
0000
,
0001
0000
0100
0010
1000
0100
1000
0000
0001
0000
0100
0001
0010
0000
0100
0000
,
1000
0000
0010
1000
0100
0010
0001
0000
0100
0000
0001
1000
0100
0000
0010
0000
,
0001
0000
0100
0010
1000
0100
0010
0001
1000
0010
0100
0001
1000
0000
0100
0000
,
0010
0000
0100
1000
0001
0100
0001
0000
0010
0000
0001
1000
0010
0000
0100
0000
,
0001
0000
1000
0100
0010
0100
1000
0000
0001
0000
0010
0001
0100
0000
0010
0000
,
1000
0000
0100
0010
0001
0010
0100
0000
1000
0000
0010
0100
0001
0000
0010
0000
,
0001
0000
1000
0010
1000
0100
0010
0000
0001
0000
0100
0001
1000
0000
0010
0000
,
1000
0000
0001
0010
0100
0010
0001
0000
0100
0000
0010
1000
0001
0000
0010
0000
,
0100
0000
0010
0001
1000
0010
1000
0000
0100
0000
0010
0001
0100
0000
0001
0000
,
0010
0000
0100
1000
0010
1000
0001
0000
0010
0000
0001
0100
0010
0000
1000
0000
,
0100
0000
1000
0001
1000
0010
0100
0001
1000
0100
0010
0001
1000
0000
0010
0000
,
0100
0000
0010
1000
0001
0010
0001
0000
0100
0000
0001
1000
0100
0000
1000
0000
,
0001
0000
0100
0010
1000
0100
1000
0000
0001
0000
0100
0001
0010
0000
0100
0000
,
1000
0000
0010
0100
0001
0100
0010
0000
1000
0000
0100
0010
0001
0000
0100
0000
,
0001
0000
1000
0100
1000
0010
0100
0000
0001
0000
0010
0001
1000
0000
0100
0000
,
1000
0000
0001
0100
0010
0100
0001
0000
0010
0000
0001
1000
0010
0000
0100
0000
,
0001
0000
0010
0001
1000
0100
1000
0000
0010
0000
0100
0001
0010
0000
0001
0000
,
0100
0000
0010
1000
0100
1000
0001
0000
0100
0000
0001
0010
0100
0000
1000
0000
,
0010
0000
1000
0001
1000
0100
0010
0001
1000
0010
0100
0001
0000
0000
0000
0000
;
