#VERSION:0.83;
#TITLE:The Palace That Was Found;
#SUBTITLE:;
#ARTIST:Kenichi Tokoi;
#TITLETRANSLIT:;
#SUBTITLETRANSLIT:;
#ARTISTTRANSLIT:;
#GENRE:ARABIAN ROCK;
#ORIGIN:;
#CREDIT:;
#BANNER:thepalacethatwasfound-bn.png;
#BACKGROUND:thepalacethatwasfound-bg.png;
#PREVIEWVID:;
#JACKET:thepalacethatwasfound-jacket.png;
#CDIMAGE:;
#DISCIMAGE:;
#LYRICSPATH:;
#CDTITLE:cdtitle.png;
#MUSIC:thepalacethatwasfound.ogg;
#OFFSET:-0.432108;
#SAMPLESTART:7.289085;
#SAMPLELENGTH:13.714000;
#SELECTABLE:YES;
#BPMS:0.000=140.003;
#STOPS:;
#DELAYS:;
#WARPS:;
#TIMESIGNATURES:0.000=4=4;
#TICKCOUNTS:0.000=4;
#COMBOS:0.000=1;
#SPEEDS:0.000=1.000=0.000=0;
#SCROLLS:0.000=1.000;
#FAKES:;
#LABELS:0.000=Song Start;
#BGCHANGES:;
#KEYSOUNDS:;
#ATTACKS:
;

//---------------dance-single - ----------------
#NOTEDATA:;
#CHARTNAME:;
#STEPSTYPE:dance-single;
#DESCRIPTION:;
#CHARTSTYLE:;
#DIFFICULTY:Challenge;
#METER:14;
#RADARVALUES:0.649667,0.713117,0.070781,0.097324,0.513161,514.000000,506.000000,8.000000,11.000000,0.000000,0.000000,0.000000,0.000000,0.000000,0.649667,0.713117,0.070781,0.097324,0.513161,514.000000,506.000000,8.000000,11.000000,0.000000,0.000000,0.000000,0.000000,0.000000;
#CREDIT:TonyAkita;
#NOTES:
// measure 0
0000
0000
0000
0000
,  // measure 1
0000
0000
0000
0000
,  // measure 2
1000
0000
0000
0010
0000
0100
0000
0000
0010
0000
0000
1000
0000
0001
0000
0000
,  // measure 3
0010
0000
0000
0100
0000
0010
0000
0000
0001
0000
1000
0000
1001
0000
0000
0000
,  // measure 4
0001
0000
0010
0000
0100
0000
1000
0000
0001
0000
0001
0000
1000
0010
1000
0000
,  // measure 5
0001
0000
0001
0000
1000
0100
1000
0000
0001
0000
0010
0000
0100
0000
0000
0000
,  // measure 6
1000
0000
0010
0000
0100
0000
0001
0000
1000
0000
1000
0000
0001
0010
0001
0000
,  // measure 7
1000
0000
1000
0000
0001
0100
0001
0000
1000
0000
0010
0000
0100
0000
0000
0000
,  // measure 8
0001
0000
0100
0000
1000
0000
0100
0000
0001
0000
1000
0000
0100
0010
0100
0000
,  // measure 9
1000
0000
0001
0000
0100
0010
0100
0000
0010
0000
1000
0000
0001
0000
0000
0000
,  // measure 10
1000
0000
0010
0000
0001
0000
0010
0000
1000
0000
0001
0000
0010
0100
0010
0000
,  // measure 11
0001
0010
0001
0010
0100
0000
1000
0010
1000
0010
0100
0000
0110
0000
0000
0000
,  // measure 12
0001
0010
0001
0010
0001
0000
1000
0001
0100
0000
1000
0000
0100
0000
0001
0000
,  // measure 13
1000
0010
1000
0010
1000
0000
0001
1000
0100
0000
0001
0000
0100
0000
1000
0000
,  // measure 14
0100
0010
0100
0010
0100
0000
1000
0001
0100
0000
1000
0000
0100
0000
0001
0000
,  // measure 15
0100
0010
0100
0010
0100
0000
0001
1000
0100
0000
0001
0000
0100
0000
1000
0000
,  // measure 16
0001
0100
0001
0100
0010
0000
1000
0010
0001
0000
0010
0000
1000
0000
0001
0000
,  // measure 17
1000
0100
1000
0100
0010
0000
0001
0010
1000
0000
0010
0000
0001
0000
1000
0000
,  // measure 18
0001
0100
0010
0100
0001
0000
0100
0010
1000
0000
0010
0000
0100
0000
0001
0000
,  // measure 19
1000
0100
1000
0100
0010
0000
0001
0100
0001
0100
0010
0000
0110
0000
0000
0000
,  // measure 20
1000
0000
0000
1000
0010
0000
0000
0010
0100
0000
0000
0100
0001
0000
0000
0001
,  // measure 21
0100
0000
0000
0100
1000
0000
0000
1000
0100
0000
0000
0100
0001
0000
0000
0001
,  // measure 22
0010
0000
0000
0010
0100
0000
0000
0100
1000
0000
0000
1000
0001
0000
0000
0001
,  // measure 23
0010
0100
0010
0000
0100
0010
0100
0000
0110
0000
0000
0000
1001
0000
0000
0000
,  // measure 24
0001
0000
0000
0001
0100
0000
0000
0100
0010
0000
0000
0010
1000
0000
0000
1000
,  // measure 25
0010
0000
0000
0010
0001
0000
0000
0001
0010
0000
0000
0010
1000
0000
0000
1000
,  // measure 26
0100
0000
0000
0100
0010
0000
0000
0010
0001
0000
0000
0001
1000
0000
0000
1000
,  // measure 27
0100
0010
0100
0000
0010
0100
0010
0000
0220
0000
0000
0000
0330
0000
0000
0000
,  // measure 28
0001
1000
0001
0010
0100
1000
0100
0001
,  // measure 29
0100
0010
0100
0000
1000
0000
0100
0010
0100
0000
0010
0000
0001
0000
0000
0000
,  // measure 30
1000
0001
1000
0010
0100
0001
0100
1000
,  // measure 31
0100
0010
0100
0000
0001
0000
0100
0010
0100
0000
0010
0000
1000
0000
0000
0000
,  // measure 32
0001
0010
0001
0010
0001
0000
1000
0001
0100
0000
1000
0000
0100
0000
0001
0000
,  // measure 33
1000
0010
1000
0010
1000
0000
0001
1000
0100
0000
0001
0000
0100
0000
1000
0000
,  // measure 34
0001
0100
0010
0100
0001
0000
1000
0100
0010
0000
0001
0000
0010
0000
1000
0000
,  // measure 35
0010
0001
0010
0001
0100
0000
0010
1000
0010
1000
0100
0000
0110
0000
0000
0000
,  // measure 36
0001
0010
0001
0100
1000
0100
0001
1000
,  // measure 37
0100
0001
0100
1000
0010
1000
0001
0000
,  // measure 38
1000
0010
1000
0100
0001
0100
1000
0001
,  // measure 39
0100
1000
0100
0001
0010
0001
1000
0000
,  // measure 40
2000
0020
0030
0002
,  // measure 41
0003
0000
0020
3000
0000
0030
0100
0000
,  // measure 42
0002
0020
0030
2000
,  // measure 43
3000
0000
0020
0003
0030
0000
0110
0000
,  // measure 44
1000
0010
1000
0100
0010
0001
0100
1000
,  // measure 45
0100
0010
0100
0000
0001
0000
0100
0010
0100
0000
0010
0000
1000
0000
0000
0000
,  // measure 46
0001
0010
0001
0100
0010
1000
0100
0001
,  // measure 47
0100
0010
0100
0000
1000
0000
0100
0010
0100
0000
0010
0000
0001
0000
0000
0000
,  // measure 48
1000
0010
0001
0010
1000
0010
0100
0001
,  // measure 49
0100
0010
0100
0000
1000
0000
0100
0010
0100
0000
0001
0000
1000
0000
0000
0000
,  // measure 50
0001
0010
1000
0010
0001
0010
0100
1000
,  // measure 51
0100
0010
0100
0000
0001
0000
0100
0010
0100
0000
1000
0000
0001
0000
0000
0000
,  // measure 52
1000
0100
0010
0100
0001
0100
1000
0100
,  // measure 53
0010
0001
0010
0001
0010
0000
0001
0100
0010
0000
1000
0000
0010
0000
0100
0000
,  // measure 54
0001
0100
0010
0100
1000
0100
0001
0100
,  // measure 55
0010
1000
0010
1000
0010
0000
1000
0100
0010
0000
0001
0000
0010
0000
0100
0000
,  // measure 56
1000
0100
1000
0100
1000
0000
0001
0100
1000
0000
0100
0000
0001
0000
0010
0000
,  // measure 57
0001
0100
0001
0100
0001
0000
1000
0100
0001
0000
0100
0000
1000
0000
0010
0000
,  // measure 58
1000
0100
0010
0100
1000
0000
0001
0100
0010
0000
1000
0000
0001
0000
1000
0000
,  // measure 59
0010
1000
0010
1000
0100
0000
0010
0001
0010
0001
0100
0000
0010
0100
0010
0100
,  // measure 60
0020
0000
0000
0000
,  // measure 61
0000
0000
0000
0000
,  // measure 62
0030
0000
0000
0000
;

//---------------dance-single - ----------------
#NOTEDATA:;
#CHARTNAME:;
#STEPSTYPE:dance-single;
#DESCRIPTION:;
#CHARTSTYLE:;
#DIFFICULTY:Hard;
#METER:10;
#RADARVALUES:0.460075,0.466269,0.238885,0.309666,0.057509,364.000000,337.000000,27.000000,35.000000,0.000000,0.000000,0.000000,0.000000,0.000000,0.460075,0.466269,0.238885,0.309666,0.057509,364.000000,337.000000,27.000000,35.000000,0.000000,0.000000,0.000000,0.000000,0.000000;
#CREDIT:TonyAkita;
#NOTES:
0000
0000
0000
0000
,
0000
0000
0000
0000
,
2000
0000
0000
0020
0000
0000
0000
0000
0030
0000
0000
0002
0000
0000
0000
0000
,
0003
0000
0000
0020
3000
0000
0000
0000
0030
0000
0000
0000
0100
0000
0000
0000
,
0001
0010
0001
0100
0010
0000
1000
0010
,
1000
0000
0010
0100
0001
1000
0001
0000
,
1000
0010
1000
0100
0010
0000
0001
0010
,
0001
0000
0010
0100
1000
0001
1000
0000
,
0001
0100
1000
0100
0001
0000
0100
0010
,
0100
0000
0010
1000
0010
0100
0001
0000
,
1000
0100
0001
0100
1000
0000
0100
0010
,
0001
0010
0100
1000
0010
0100
1001
0000
,
0001
0010
0001
0100
0010
1000
0001
0000
,
0010
0100
0001
0100
1000
0001
1001
0000
,
1000
0010
1000
0100
0010
0001
1000
0000
,
0010
0100
1000
0100
0001
1000
1001
0000
,
0001
0100
1000
0100
0010
0100
0001
0000
,
1000
0100
0001
0100
0010
0100
1001
0000
,
0001
0100
0010
0001
0010
1000
0001
0000
,
1000
0100
0010
0001
0100
0010
1001
0000
,
2000
3020
0230
0302
,
0203
2300
3200
0302
,
0023
0230
2300
3002
,
0103
0110
1001
0000
,
0002
0023
0230
2300
,
3200
0302
0203
2300
,
3020
0230
0302
2003
,
3100
0110
1001
0000
,
0001
0010
0100
1000
0001
0100
1000
0000
,
0000
0100
0010
0100
0010
1000
0001
0000
,
1000
0010
0100
0001
1000
0100
0001
0000
,
0000
0100
0010
0100
0010
0001
1000
0000
,
0010
0000
1000
0000
0010
0000
0100
0001
0000
0000
0000
0000
1000
0000
0100
0000
,
0010
0000
0001
0000
0010
0000
0100
1000
0000
0000
0000
0000
0001
0000
0100
0000
,
1000
0000
0100
0000
0001
0000
0100
0010
0000
0000
0000
0000
1000
0000
0001
0000
,
1000
0010
0100
0001
0010
0100
1001
0000
,
1000
0010
1000
0100
0001
0100
1000
0001
,
0100
1000
0100
0001
0010
0100
1000
0000
,
0001
0010
0001
0100
1000
0100
0001
1000
,
0100
0001
0100
1000
0010
0100
0001
0000
,
0000
2000
0000
0020
,
3000
0200
0030
0301
,
0000
0002
0000
0020
,
0003
0200
0030
1300
,
1010
0000
1100
0000
0001
0100
1000
0100
,
0001
0100
0010
1000
0001
0000
1001
0000
,
0011
0000
0101
0000
1000
0100
0001
0100
,
1000
0100
0010
0001
1000
0000
1001
0000
,
0101
0000
1100
0000
0001
0100
0001
0010
,
0100
1000
0010
0100
0001
0000
1001
0000
,
1100
0000
0101
0000
1000
0100
1000
0010
,
0100
0001
0010
0100
1000
0000
1001
0000
,
0001
0100
0001
0010
1000
0010
0001
0000
,
0010
0100
0000
0000
1000
0000
0100
0010
0000
0000
0000
0000
1001
0000
0000
0000
,
1000
0100
1000
0010
0001
0010
1000
0000
,
0010
0100
0000
0000
0001
0000
0100
0010
0000
0000
0000
0000
1001
0000
0000
0000
,
1000
0000
0010
0000
1000
0000
0100
0010
0000
0000
0000
0000
1001
0000
0000
0000
,
0001
0000
0010
0000
0001
0000
0100
0010
0000
0000
0000
0000
1001
0000
0000
0000
,
1000
0000
0001
0000
1000
0000
0100
0010
0000
0000
0000
0000
1001
0000
0000
0000
,
0001
0010
0100
1000
0010
0100
0001
1000
,
0200
0000
0000
0000
,
0000
0000
0000
0000
,
0300
0000
0000
0000
;

//---------------dance-single - ----------------
#NOTEDATA:;
#CHARTNAME:;
#STEPSTYPE:dance-single;
#DESCRIPTION:;
#CHARTSTYLE:;
#DIFFICULTY:Medium;
#METER:8;
#RADARVALUES:0.389294,0.438841,0.353904,0.088476,0.000000,308.000000,268.000000,40.000000,10.000000,0.000000,0.000000,0.000000,0.000000,0.000000,0.389294,0.438841,0.353904,0.088476,0.000000,308.000000,268.000000,40.000000,10.000000,0.000000,0.000000,0.000000,0.000000,0.000000;
#CREDIT:TonyAkita;
#NOTES:
0000
0000
0000
0000
,
0000
0000
0000
0000
,
1000
0010
1000
0100
,
0001
0000
0100
0000
1000
0100
0010
0000
,
0011
0000
1001
0000
1000
0001
0100
0000
,
1000
0001
0100
0000
0010
0000
1000
0000
,
1010
0000
1001
0000
0001
1000
0100
0000
,
0001
1000
0100
0000
0010
0000
0001
0000
,
0110
0000
1001
0000
1000
0100
0001
0000
,
1000
0100
0001
0000
0100
0000
0010
0000
,
0110
0000
1001
0000
0001
0100
1000
0000
,
0100
0000
0010
0000
1000
0001
1001
0000
,
0001
0010
0001
0010
0001
0000
1001
0000
,
1000
0010
1000
0010
1000
0000
0110
0000
,
0001
0100
0010
0100
0001
0000
1001
0000
,
1000
0100
0010
0100
1000
0000
0110
0000
,
0001
0010
1000
0010
0001
0000
1001
0000
,
1000
0100
0001
0100
1000
0000
1001
0000
,
0001
0100
1000
0100
0001
0000
0100
0000
,
0010
0000
1000
0000
0001
1000
1001
0000
,
1000
0010
0100
0001
,
0100
1000
0100
0001
,
0010
0100
1000
0001
,
0110
1001
0000
0000
,
0001
0010
0100
1000
,
0100
0001
0100
1000
,
0010
0100
0001
1000
,
0110
2002
3003
0000
,
1000
0001
0000
0010
0000
0001
0000
1000
,
0100
0001
0100
1000
,
0001
1000
0000
0010
0000
1000
0000
0001
,
0100
1000
0100
0001
,
1000
0100
1000
0000
1100
0000
1001
0000
,
0001
0100
0001
0000
0101
0000
1001
0000
,
1000
0001
1000
0000
1001
0000
0110
0000
,
0001
0000
1000
0000
0100
0010
0110
0000
,
0001
0010
0001
0100
,
1000
0100
0001
1001
,
1000
0010
1000
0100
,
0001
0100
1000
1001
,
0000
0002
0000
0203
,
0000
0320
0000
2030
,
0000
3200
0000
0320
,
0000
0032
0000
1003
,
1010
0011
1000
0001
,
0100
0010
0100
0000
0001
0100
1000
0000
,
0101
1100
0001
1000
,
0100
0010
0100
0000
1000
0100
0001
0000
,
1100
1010
1000
0100
,
0010
0001
0010
0000
0100
1000
0001
0000
,
0101
0011
0001
0100
,
0010
1000
0010
0000
0100
0001
1000
0000
,
0100
0001
0100
1000
,
0010
1000
0010
1000
0010
0000
0000
0000
,
0100
1000
0100
0001
,
0010
0001
0010
0001
0010
0000
0000
0000
,
0100
1000
0010
1000
0100
0000
0110
0000
,
0010
0001
0100
0001
0010
0000
0110
0000
,
1000
0100
0001
0100
1000
0000
0001
0000
,
0100
0000
0010
0000
1000
0001
1001
0000
,
0020
0000
0000
0000
,
0000
0000
0000
0000
,
0030
0000
0000
0000
;

//---------------dance-single - ----------------
#NOTEDATA:;
#CHARTNAME:;
#STEPSTYPE:dance-single;
#DESCRIPTION:;
#CHARTSTYLE:;
#DIFFICULTY:Easy;
#METER:4;
#RADARVALUES:0.251525,0.329131,0.194647,0.070781,0.000000,199.000000,177.000000,22.000000,8.000000,0.000000,0.000000,0.000000,0.000000,0.000000,0.251525,0.329131,0.194647,0.070781,0.000000,199.000000,177.000000,22.000000,8.000000,0.000000,0.000000,0.000000,0.000000,0.000000;
#CREDIT:TonyAkita;
#NOTES:
0000
0000
0000
0000
,
0000
0000
0000
0000
,
2000
0000
0010
0000
,
0001
0000
3010
0000
,
1000
0010
1000
0001
,
0000
0001
0000
1000
,
0001
0010
0001
1000
,
0000
1000
0000
0001
,
0100
0010
0100
0001
,
0000
0001
0000
1000
,
0100
0010
0100
1000
,
0001
0100
0010
0110
,
1000
0010
1000
1001
,
0001
0010
0001
1001
,
1000
0100
0010
1001
,
0001
0100
0010
1001
,
1000
0010
0001
0110
,
0001
0010
1000
0110
,
0001
0100
1000
0110
,
0001
1000
0001
1001
,
0000
2000
0000
0010
,
0000
0010
0000
3010
,
0100
0002
0000
0010
,
0000
0013
0000
1001
,
0000
0002
0000
0100
,
0000
0100
0000
0103
,
0010
2000
0000
0100
,
0000
3100
0000
0000
,
1000
0010
0001
0010
,
0100
0000
0100
0000
,
0001
0010
1000
0010
,
0100
0000
0100
0000
,
1000
0010
1010
0000
,
0001
1000
1001
0000
,
0001
0010
0011
0000
,
1000
0001
1000
1001
,
0000
0001
0000
0001
,
0000
1000
0000
1000
,
0000
0010
0000
0100
,
0000
0100
0000
0010
,
0000
2000
0000
0010
,
0000
0010
0000
3010
,
0100
0002
0000
0010
,
0000
0010
0000
0013
,
0001
1000
1001
0000
,
1000
0010
0100
0001
,
1000
0001
1001
0000
,
0001
0010
0100
1000
,
0010
0100
0110
0000
,
0001
0100
1000
0100
,
0010
0100
0110
0000
,
1000
0100
0001
0100
,
0010
0001
1000
0000
,
0100
0001
0100
1000
,
0010
1000
0001
0000
,
0100
1000
0100
0001
,
0010
0100
0110
0000
,
1000
0001
1001
0000
,
0100
0010
0110
0000
,
1000
0001
1000
1001
,
0200
0000
0000
0000
,
0000
0000
0000
0000
,
0300
0000
0000
0000
;

//---------------dance-single - ----------------
#NOTEDATA:;
#CHARTNAME:;
#STEPSTYPE:dance-single;
#DESCRIPTION:;
#CHARTSTYLE:;
#DIFFICULTY:Beginner;
#METER:3;
#RADARVALUES:0.160521,0.191993,0.026543,0.097324,0.000000,127.000000,124.000000,3.000000,11.000000,0.000000,0.000000,0.000000,0.000000,0.000000,0.160521,0.191993,0.026543,0.097324,0.000000,127.000000,124.000000,3.000000,11.000000,0.000000,0.000000,0.000000,0.000000,0.000000;
#CREDIT:TonyAkita;
#NOTES:
0000
0000
0000
0000
,
0000
0000
0000
0000
,
2000
0000
3000
0000
,
0002
0000
0003
0000
,
1000
0000
1000
0000
,
0010
0000
0100
0000
,
0001
0000
0001
0000
,
0010
0000
0100
0000
,
1000
0000
0100
0000
,
0001
0000
0100
0000
,
1000
0000
0010
0000
,
0001
0000
0010
0000
,
1000
1000
1000
0000
,
0001
0001
0001
0000
,
0010
0010
0010
0000
,
0001
0001
0001
0000
,
0100
0100
0100
0000
,
0010
0010
0010
0000
,
1000
1000
1000
0000
,
0001
0000
1000
0000
,
0020
0000
0000
0000
,
0000
0000
0030
0000
,
0000
1000
0000
0001
,
0000
1000
0000
0000
,
0200
0000
0000
0000
,
0000
0000
0300
0000
,
0000
0010
0000
0100
,
0000
0010
0000
0000
,
0001
0001
0001
0000
,
0000
1000
1000
0000
,
0010
0010
0010
0000
,
0000
1000
1000
0000
,
0010
0010
0010
0000
,
0100
0100
0100
0000
,
0001
0001
0001
0000
,
1000
0000
0001
0000
,
0200
0000
0300
0000
,
0100
0000
0010
0000
,
0020
0000
0030
0000
,
1000
0000
0001
0000
,
2002
0000
3003
0000
,
0010
0000
0100
0000
,
0220
0000
0330
0000
,
1000
0000
0001
0000
,
1000
1000
1000
0000
,
0001
0000
0010
0000
,
0001
0001
0001
0000
,
1000
0000
0010
0000
,
0100
0100
0100
0000
,
1000
0000
0100
0000
,
0001
0001
0001
0000
,
1000
0000
1001
0000
,
0001
0001
0001
0000
,
0100
0000
0010
0000
,
1000
1000
1000
0000
,
0100
0000
0010
0000
,
0100
0100
0100
0000
,
0010
0010
0010
0000
,
0001
0001
0001
0000
,
1000
0000
0001
0000
,
0200
0000
0000
0000
,
0000
0000
0000
0000
,
0300
0000
0000
0000
;
