#TITLE:The Only One You Need;
#SUBTITLE:;
#ARTIST:Jennifer;
#TITLETRANSLIT:;
#SUBTITLETRANSLIT:;
#ARTISTTRANSLIT:;
#GENRE:;
#CREDIT:;
#MUSIC:The Only One You Need .ogg;
#BANNER:;
#BACKGROUND:;
#CDTITLE:;
#SAMPLESTART:41.109;
#SAMPLELENGTH:16.087;
#SELECTABLE:YES;
#OFFSET:-0.087;
#BPMS:0.000=149.188;
#STOPS:;
#BGCHANGES:;
#FGCHANGES:;

//--------------- dance-single - ----------------
#NOTES:
     dance-single:
     :
     Hard:
     15:
     0,0,0,0,0:
0000
0000
0000
0000
,
0000
0000
0000
0000
,
0000
0000
0000
0000
,
0000
0000
0000
0000
,
0000
0000
0000
0000
,
0000
0000
0000
0000
0000
0000
0000
0000
0001
0000
0100
0000
0001
1000
0000
0100
,
0000
1000
0100
1000
0001
1000
0001
0100
0010
0000
1000
0000
0010
1000
0000
0010
,
0000
0100
0001
1000
0001
0010
0100
1000
0100
0000
1000
0000
0100
1000
0000
0100
,
0000
0010
0001
0100
0001
0010
0001
0010
0001
0000
1000
0000
0010
0100
0000
0001
,
0000
1000
0001
1000
0001
1000
0001
1000
0001
0000
0100
0000
1000
0000
0100
0000
,
0001
1000
0100
0020
0000
0130
1000
0002
,
0000
0103
0010
0200
0000
0301
1000
0001
,
0010
0001
1000
0001
1000
0010
0010
0001
,
0010
0010
1000
0010
0100
0010
1000
0100
,
0001
0100
1000
0020
0000
1030
0001
0200
,
0000
0301
0010
0200
0000
1300
0010
0001
,
0010
1000
0001
0010
0001
0100
0100
1000
,
0100
0100
0001
1000
0001
0100
1000
0100
,
0001
0010
1000
0010
0001
0100
0010
0001
,
0010
1000
0100
0010
1000
0010
0001
0100
,
0101
0000
1000
0100
0001
0100
1000
0010
,
0001
0010
1000
0100
1100
0000
1000
0010
,
0100
1000
0100
0001
0010
0100
0001
0100
,
1000
0001
0010
0110
0000
0001
1000
1010
,
0000
0001
1000
2002
0000
0000
0000
0000
,
3003
0000
0000
0000
0000
0000
0000
0000
1000
0000
0000
1001
0000
0000
0100
0000
,
1000
0000
0000
1001
0000
0000
0001
0000
0100
0000
0101
0000
0000
0000
0002
0000
,
0000
1003
0100
1000
0001
0000
0110
0000
,
1001
0000
0200
0020
0000
0000
0000
0330
,
0100
0000
0100
0000
0100
0000
0001
0000
1000
0000
0000
1001
0000
0000
1000
0000
,
0100
0000
0000
1001
0000
0000
1000
0000
0100
0000
1100
0000
0000
0000
2000
0000
,
0000
3100
0010
0100
0010
0000
1001
0000
,
0100
0000
0000
0000
0020
0000
0200
0000
0000
0000
0000
0330
0000
0000
0000
0000
,
0010
0010
0010
0001
1000
0000
0110
0000
,
0001
0000
0100
0020
0000
0000
0000
0130
,
0001
0000
2000
0000
0000
0000
3001
0000
1000
0000
0010
0000
1000
0001
0000
0010
,
0000
0001
0010
0001
1000
0001
1000
0010
0100
0000
0001
0000
0100
0001
0000
0100
,
0000
0010
1000
0001
1000
0100
0010
0001
0010
0000
0001
0000
0010
0001
0000
0010
,
0000
0100
1000
0010
1000
0100
1000
0100
1000
0000
0010
0000
1000
0001
0000
0100
,
0000
0010
0100
0010
0100
0010
0100
0010
1000
0000
0100
0000
1000
0001
0000
0100
,
0000
0001
0010
0001
0100
0001
0100
0001
1000
0000
0001
0000
0010
0001
0000
1000
,
0000
0100
1000
0010
0100
0010
0100
0001
0010
0000
0001
0000
1000
0010
0000
0100
,
0000
0001
1000
0001
0010
0001
0010
0001
1000
0000
0001
0000
1000
0100
0000
1000
,
0000
0001
1000
0001
1000
0001
1000
0001
1000
0000
1000
0000
0010
0000
0100
0000
,
0002
0000
0010
0000
,
0200
0000
0000
0303
2000
0000
0000
0000
,
0010
0000
0000
0000
0200
0000
0000
3300
,
0002
0000
0100
0000
,
0013
0001
1000
0100
,
1000
0010
0000
0200
0000
0310
1000
0100
,
0010
0000
0100
0000
1000
0000
0002
2000
,
0000
0000
0000
3003
0001
1000
0001
0100
,
0010
0000
0000
0110
0000
0000
0100
0000
0001
0000
0000
1001
0000
0000
1000
0000
,
0010
1010
0000
2000
0000
3001
0010
0001
,
1000
0000
0110
0000
1001
0000
0020
0200
,
0000
0000
0000
0330
0010
0010
0010
1000
,
0001
0000
0000
1001
0000
0000
0001
0000
0010
0000
0000
1001
0000
0000
0001
0000
,
0010
0011
0000
0002
0000
0013
0100
0010
,
0100
0000
1001
0000
0010
0000
0200
0020
,
0000
0000
0000
0330
0000
0000
0000
0000
0100
0000
0100
0000
0100
0000
1000
0000
,
0001
0000
0110
0000
1000
0000
0010
0200
,
0000
0000
0000
0310
1000
0002
0000
0103
,
0000
0000
0001
0000
1000
0100
0000
0010
0000
0001
0100
0010
1000
0001
0100
0001
,
1000
0000
0010
0000
0100
0010
0000
0100
0000
0010
1000
0001
0100
0001
0010
0001
,
0010
0000
0100
0000
1000
0100
0000
1000
0000
0001
1000
0010
1000
0010
1000
0001
,
0100
0000
0100
0000
0001
1000
0000
0100
0000
0010
0001
0010
0100
1000
0001
0100
,
0010
0000
0100
0000
0010
0100
0000
0001
0000
1000
0010
1000
0100
1000
0100
1000
,
0100
0000
1000
0000
0100
0010
0000
0001
0000
0010
0001
0100
0001
1000
0001
1000
,
0001
0000
0010
0000
0001
0010
0000
0100
0000
1000
0100
1000
0001
0010
0100
0010
,
0001
0000
1000
0000
0100
1000
0000
1000
0000
0001
1000
0001
1000
0010
0100
0010
,
0100
0000
0000
0000
;
